  0
SECTION
  2
HEADER
  9
$ACADVER
  1
AC1015
  9
$ACADMAINTVER
 70
    20
  9
$DWGCODEPAGE
  3
ANSI_1252
  9
$INSBASE
 10
0.0
 20
0.0
 30
0.0
  9
$EXTMIN
 10
-0.0139214524588169
 20
-0.01993963535881
 30
-0.0000000000000058
  9
$EXTMAX
 10
297.0297065994324
 20
210.0168196159683
 30
0.0000000000000104
  9
$LIMMIN
 10
0.0
 20
0.0
  9
$LIMMAX
 10
420.0
 20
297.0
  9
$ORTHOMODE
 70
     0
  9
$REGENMODE
 70
     1
  9
$FILLMODE
 70
     1
  9
$QTEXTMODE
 70
     0
  9
$MIRRTEXT
 70
     0
  9
$LTSCALE
 40
10.0
  9
$ATTMODE
 70
     1
  9
$TEXTSIZE
 40
2.5
  9
$TRACEWID
 40
1.0
  9
$TEXTSTYLE
  7
RomanS
  9
$CLAYER
  8
Schraffur
  9
$CELTYPE
  6
ByLayer
  9
$CECOLOR
 62
     5
  9
$CELTSCALE
 40
1.0
  9
$DISPSILH
 70
     0
  9
$DIMSCALE
 40
1.0
  9
$DIMASZ
 40
2.5
  9
$DIMEXO
 40
0.625
  9
$DIMDLI
 40
3.75
  9
$DIMRND
 40
0.0
  9
$DIMDLE
 40
0.0
  9
$DIMEXE
 40
1.25
  9
$DIMTP
 40
0.0
  9
$DIMTM
 40
0.0
  9
$DIMTXT
 40
2.5
  9
$DIMCEN
 40
2.5
  9
$DIMTSZ
 40
0.0
  9
$DIMTOL
 70
     0
  9
$DIMLIM
 70
     0
  9
$DIMTIH
 70
     0
  9
$DIMTOH
 70
     0
  9
$DIMSE1
 70
     0
  9
$DIMSE2
 70
     0
  9
$DIMTAD
 70
     1
  9
$DIMZIN
 70
     8
  9
$DIMBLK
  1
Oblique
  9
$DIMASO
 70
     1
  9
$DIMSHO
 70
     1
  9
$DIMPOST
  1

  9
$DIMAPOST
  1

  9
$DIMALT
 70
     0
  9
$DIMALTD
 70
     3
  9
$DIMALTF
 40
0.03937007874016
  9
$DIMLFAC
 40
1.0
  9
$DIMTOFL
 70
     1
  9
$DIMTVP
 40
0.0
  9
$DIMTIX
 70
     0
  9
$DIMSOXD
 70
     0
  9
$DIMSAH
 70
     0
  9
$DIMBLK1
  1

  9
$DIMBLK2
  1

  9
$DIMSTYLE
  2
IDEAL Holz
  9
$DIMCLRD
 70
     0
  9
$DIMCLRE
 70
     0
  9
$DIMCLRT
 70
     0
  9
$DIMTFAC
 40
1.0
  9
$DIMGAP
 40
0.625
  9
$DIMJUST
 70
     0
  9
$DIMSD1
 70
     0
  9
$DIMSD2
 70
     0
  9
$DIMTOLJ
 70
     0
  9
$DIMTZIN
 70
     8
  9
$DIMALTZ
 70
     0
  9
$DIMALTTZ
 70
     0
  9
$DIMUPT
 70
     0
  9
$DIMDEC
 70
     1
  9
$DIMTDEC
 70
     1
  9
$DIMALTU
 70
     2
  9
$DIMALTTD
 70
     3
  9
$DIMTXSTY
  7
RomanS
  9
$DIMAUNIT
 70
     0
  9
$DIMADEC
 70
     0
  9
$DIMALTRND
 40
0.0
  9
$DIMAZIN
 70
     0
  9
$DIMDSEP
 70
    44
  9
$DIMATFIT
 70
     3
  9
$DIMFRAC
 70
     0
  9
$DIMLDRBLK
  1
Oblique
  9
$DIMLUNIT
 70
     2
  9
$DIMLWD
 70
    -2
  9
$DIMLWE
 70
    -2
  9
$DIMTMOVE
 70
     0
  9
$LUNITS
 70
     2
  9
$LUPREC
 70
     4
  9
$SKETCHINC
 40
1.0
  9
$FILLETRAD
 40
0.0
  9
$AUNITS
 70
     0
  9
$AUPREC
 70
     0
  9
$MENU
  1
.
  9
$ELEVATION
 40
0.0
  9
$PELEVATION
 40
0.0
  9
$THICKNESS
 40
0.0
  9
$LIMCHECK
 70
     0
  9
$CHAMFERA
 40
0.0
  9
$CHAMFERB
 40
0.0
  9
$CHAMFERC
 40
0.0
  9
$CHAMFERD
 40
0.0
  9
$SKPOLY
 70
     0
  9
$TDCREATE
 40
2454531.576644907
  9
$TDUCREATE
 40
2454531.534978241
  9
$TDUPDATE
 40
2456632.312512130
  9
$TDUUPDATE
 40
2456632.270845463
  9
$TDINDWG
 40
0.0216180208
  9
$TDUSRTIMER
 40
0.0216150347
  9
$USRTIMER
 70
     1
  9
$ANGBASE
 50
0.0
  9
$ANGDIR
 70
     0
  9
$PDMODE
 70
     0
  9
$PDSIZE
 40
0.0
  9
$PLINEWID
 40
0.0
  9
$SPLFRAME
 70
     0
  9
$SPLINETYPE
 70
     6
  9
$SPLINESEGS
 70
     8
  9
$HANDSEED
  5
2471
  9
$SURFTAB1
 70
     6
  9
$SURFTAB2
 70
     6
  9
$SURFTYPE
 70
     6
  9
$SURFU
 70
     6
  9
$SURFV
 70
     6
  9
$UCSBASE
  2

  9
$UCSNAME
  2

  9
$UCSORG
 10
0.0
 20
0.0
 30
0.0
  9
$UCSXDIR
 10
1.0
 20
0.0
 30
0.0
  9
$UCSYDIR
 10
0.0
 20
1.0
 30
0.0
  9
$UCSORTHOREF
  2

  9
$UCSORTHOVIEW
 70
     0
  9
$UCSORGTOP
 10
0.0
 20
0.0
 30
0.0
  9
$UCSORGBOTTOM
 10
0.0
 20
0.0
 30
0.0
  9
$UCSORGLEFT
 10
0.0
 20
0.0
 30
0.0
  9
$UCSORGRIGHT
 10
0.0
 20
0.0
 30
0.0
  9
$UCSORGFRONT
 10
0.0
 20
0.0
 30
0.0
  9
$UCSORGBACK
 10
0.0
 20
0.0
 30
0.0
  9
$PUCSBASE
  2

  9
$PUCSNAME
  2

  9
$PUCSORG
 10
0.0
 20
0.0
 30
0.0
  9
$PUCSXDIR
 10
1.0
 20
0.0
 30
0.0
  9
$PUCSYDIR
 10
0.0
 20
1.0
 30
0.0
  9
$PUCSORTHOREF
  2

  9
$PUCSORTHOVIEW
 70
     0
  9
$PUCSORGTOP
 10
0.0
 20
0.0
 30
0.0
  9
$PUCSORGBOTTOM
 10
0.0
 20
0.0
 30
0.0
  9
$PUCSORGLEFT
 10
0.0
 20
0.0
 30
0.0
  9
$PUCSORGRIGHT
 10
0.0
 20
0.0
 30
0.0
  9
$PUCSORGFRONT
 10
0.0
 20
0.0
 30
0.0
  9
$PUCSORGBACK
 10
0.0
 20
0.0
 30
0.0
  9
$USERI1
 70
     0
  9
$USERI2
 70
     0
  9
$USERI3
 70
     0
  9
$USERI4
 70
     0
  9
$USERI5
 70
     0
  9
$USERR1
 40
0.0
  9
$USERR2
 40
0.0
  9
$USERR3
 40
0.0
  9
$USERR4
 40
0.0
  9
$USERR5
 40
0.0
  9
$WORLDVIEW
 70
     1
  9
$SHADEDGE
 70
     3
  9
$SHADEDIF
 70
    70
  9
$TILEMODE
 70
     1
  9
$MAXACTVP
 70
    64
  9
$PINSBASE
 10
0.0
 20
0.0
 30
0.0
  9
$PLIMCHECK
 70
     0
  9
$PEXTMIN
 10
-6.000000278478751
 20
-6.000000213669252
 30
0.0
  9
$PEXTMAX
 10
291.0318416794908
 20
203.9733271716299
 30
0.0
  9
$PLIMMIN
 10
-5.999987840652463
 20
-5.999999999999997
  9
$PLIMMAX
 10
291.0318419933318
 20
203.9733276367186
  9
$UNITMODE
 70
     0
  9
$VISRETAIN
 70
     1
  9
$PLINEGEN
 70
     0
  9
$PSLTSCALE
 70
     1
  9
$TREEDEPTH
 70
  3020
  9
$CMLSTYLE
  2
Standard
  9
$CMLJUST
 70
     0
  9
$CMLSCALE
 40
20.0
  9
$PROXYGRAPHICS
 70
     1
  9
$MEASUREMENT
 70
     1
  9
$CELWEIGHT
370
    -1
  9
$ENDCAPS
280
     0
  9
$JOINSTYLE
280
     0
  9
$LWDISPLAY
290
     0
  9
$INSUNITS
 70
     4
  9
$HYPERLINKBASE
  1

  9
$STYLESHEET
  1
GRAYSCALE.CTB
  9
$XEDIT
290
     1
  9
$CEPSNTYPE
380
     0
  9
$PSTYLEMODE
290
     1
  9
$FINGERPRINTGUID
  2
{9A03CA01-DB2D-4F50-BDBF-3A55C281F4ED}
  9
$VERSIONGUID
  2
{E86BDDF7-2C32-46D1-B870-2350190732AE}
  9
$EXTNAMES
290
     1
  9
$PSVPSCALE
 40
1.0
  9
$OLESTARTUP
290
     0
  0
ENDSEC
  0
SECTION
  2
CLASSES
  0
CLASS
  1
ACDBDICTIONARYWDFLT
  2
AcDbDictionaryWithDefault
  3
ObjectDBX Classes
 90
        0
280
     0
281
     0
  0
CLASS
  1
DICTIONARYVAR
  2
AcDbDictionaryVar
  3
ObjectDBX Classes
 90
        0
280
     0
281
     0
  0
CLASS
  1
TABLESTYLE
  2
AcDbTableStyle
  3
ObjectDBX Classes
 90
     4095
280
     0
281
     0
  0
CLASS
  1
MATERIAL
  2
AcDbMaterial
  3
ObjectDBX Classes
 90
     1153
280
     0
281
     0
  0
CLASS
  1
VISUALSTYLE
  2
AcDbVisualStyle
  3
ObjectDBX Classes
 90
     4095
280
     0
281
     0
  0
CLASS
  1
SORTENTSTABLE
  2
AcDbSortentsTable
  3
ObjectDBX Classes
 90
        0
280
     0
281
     0
  0
CLASS
  1
DIMASSOC
  2
AcDbDimAssoc
  3
"AcDbDimAssoc|Product Desc:     AcDim ARX App For Dimension|Company:          Autodesk, Inc.|WEB Address:      www.autodesk.com"
 90
        0
280
     0
281
     0
  0
CLASS
  1
ACAD_EVALUATION_GRAPH
  2
AcDbEvalGraph
  3
ObjectDBX Classes
 90
    33921
280
     0
281
     0
  0
CLASS
  1
ACAECUSTOBJ
  2
AcAeEditorObj
  3
AcAeEditorObj
 90
    33792
280
     0
281
     0
  0
CLASS
  1
ACDB_DYNAMICBLOCKPURGEPREVENTER_VERSION
  2
AcDbDynamicBlockPurgePreventer
  3
ObjectDBX Classes
 90
    33921
280
     0
281
     0
  0
CLASS
  1
ACDB_BLOCKREPRESENTATION_DATA
  2
AcDbBlockRepresentationData
  3
ObjectDBX Classes
 90
    33921
280
     0
281
     0
  0
CLASS
  1
SCALE
  2
AcDbScale
  3
ObjectDBX Classes
 90
     1153
280
     0
281
     0
  0
CLASS
  1
MLEADERSTYLE
  2
AcDbMLeaderStyle
  3
ACDB_MLEADERSTYLE_CLASS
 90
     4095
280
     0
281
     0
  0
CLASS
  1
CELLSTYLEMAP
  2
AcDbCellStyleMap
  3
ObjectDBX Classes
 90
     1152
280
     0
281
     0
  0
CLASS
  1
ACDBPLACEHOLDER
  2
AcDbPlaceHolder
  3
ObjectDBX Classes
 90
        0
280
     0
281
     0
  0
CLASS
  1
LAYOUT
  2
AcDbLayout
  3
ObjectDBX Classes
 90
        0
280
     0
281
     0
  0
CLASS
  1
EXACXREFPANELOBJECT
  2
ExAcXREFPanelObject
  3
EXAC_ESW
 90
     1025
280
     0
281
     0
  0
CLASS
  1
NPOCOLLECTION
  2
AcDbImpNonPersistentObjectsCollection
  3
ObjectDBX Classes
 90
     1153
280
     0
281
     0
  0
ENDSEC
  0
SECTION
  2
TABLES
  0
TABLE
  2
VPORT
  5
8
330
0
100
AcDbSymbolTable
 70
     1
  0
VPORT
  5
EA
330
8
100
AcDbSymbolTableRecord
100
AcDbViewportTableRecord
  2
*Active
 70
     0
 10
0.0
 20
0.0
 11
1.0
 21
1.0
 12
148.5078925734867
 22
104.9984399903047
 13
0.0
 23
0.0
 14
10.0
 24
10.0
 15
10.0
 25
10.0
 16
0.0
 26
0.0
 36
1.0
 17
0.0
 27
0.0
 37
0.0
 40
211.8370743306242
 41
1.849785407725321
 42
50.0
 43
0.0
 44
0.0
 50
0.0
 51
0.0
 71
     0
 72
  1000
 73
     1
 74
     3
 75
     0
 76
     0
 77
     0
 78
     0
281
     0
 65
     1
110
0.0
120
0.0
130
0.0
111
1.0
121
0.0
131
0.0
112
0.0
122
1.0
132
0.0
 79
     0
146
0.0
1001
ACAD_NAV_VCDISPLAY
1070
     3
  0
ENDTAB
  0
TABLE
  2
LTYPE
  5
5
330
0
100
AcDbSymbolTable
 70
     3
  0
LTYPE
  5
14
330
5
100
AcDbSymbolTableRecord
100
AcDbLinetypeTableRecord
  2
ByBlock
 70
     0
  3

 72
    65
 73
     0
 40
0.0
  0
LTYPE
  5
15
330
5
100
AcDbSymbolTableRecord
100
AcDbLinetypeTableRecord
  2
ByLayer
 70
     0
  3

 72
    65
 73
     0
 40
0.0
  0
LTYPE
  5
16
330
5
100
AcDbSymbolTableRecord
100
AcDbLinetypeTableRecord
  2
Continuous
 70
     0
  3
Solid line
 72
    65
 73
     0
 40
0.0
  0
LTYPE
  5
1EB5
330
5
100
AcDbSymbolTableRecord
100
AcDbLinetypeTableRecord
  2
STRICHPUNKT
 70
     0
  3
Strichpunkt __ . __ . __ . __ . __ . __ . __ . 
 72
    65
 73
     4
 40
1.0
 49
0.5
 74
     0
 49
-0.25
 74
     0
 49
0.0
 74
     0
 49
-0.25
 74
     0
  0
LTYPE
  5
1EB7
330
5
100
AcDbSymbolTableRecord
100
AcDbLinetypeTableRecord
  2
DASHED
 70
     0
  3
__ __ __ __ __ __ __ __ __ __ __ __ __ __ __
 72
    65
 73
     2
 40
0.75
 49
0.5
 74
     0
 49
-0.25
 74
     0
  0
ENDTAB
  0
TABLE
  2
LAYER
  5
2
102
{ACAD_XDICTIONARY
360
120
102
}
330
0
100
AcDbSymbolTable
 70
     9
  0
LAYER
  5
10
102
{ACAD_XDICTIONARY
360
241D
102
}
330
2
100
AcDbSymbolTableRecord
100
AcDbLayerTableRecord
  2
0
 70
     0
 62
     7
  6
Continuous
370
    -3
390
F
  0
LAYER
  5
12AC
330
2
100
AcDbSymbolTableRecord
100
AcDbLayerTableRecord
  2
Defpoints
 70
     0
 62
     7
  6
Continuous
290
     0
370
    -3
390
F
  0
LAYER
  5
1EB8
102
{ACAD_XDICTIONARY
360
241F
102
}
330
2
100
AcDbSymbolTableRecord
100
AcDbLayerTableRecord
  2
Dichtungen
 70
     0
 62
     6
  6
Continuous
370
    -3
390
F
1001
AcAecLayerStandard
1000

1000

  0
LAYER
  5
1EB9
102
{ACAD_XDICTIONARY
360
2421
102
}
330
2
100
AcDbSymbolTableRecord
100
AcDbLayerTableRecord
  2
Sohlbank
 70
     0
 62
     5
  6
Continuous
370
    -3
390
F
1001
AcAecLayerStandard
1000

1000

  0
LAYER
  5
1EBA
102
{ACAD_XDICTIONARY
360
2423
102
}
330
2
100
AcDbSymbolTableRecord
100
AcDbLayerTableRecord
  2
Aluhalter
 70
     0
 62
     3
  6
Continuous
370
    -3
390
F
1001
AcAecLayerStandard
1000

1000

  0
LAYER
  5
1EBB
102
{ACAD_XDICTIONARY
360
2425
102
}
330
2
100
AcDbSymbolTableRecord
100
AcDbLayerTableRecord
  2
Aluprofile
 70
     0
 62
   253
  6
Continuous
370
    -3
390
F
1001
AcAecLayerStandard
1000

1000

  0
LAYER
  5
1EBC
102
{ACAD_XDICTIONARY
360
2427
102
}
330
2
100
AcDbSymbolTableRecord
100
AcDbLayerTableRecord
  2
Schlitz-Zapfen
 70
     0
 62
   253
  6
STRICHPUNKT
370
    -3
390
F
1001
AcAecLayerStandard
1000

1000

  0
LAYER
  5
1EBD
102
{ACAD_XDICTIONARY
360
2429
102
}
330
2
100
AcDbSymbolTableRecord
100
AcDbLayerTableRecord
  2
Bemaßung
 70
     0
 62
     1
  6
Continuous
370
    -3
390
F
  0
LAYER
  5
1EBE
102
{ACAD_XDICTIONARY
360
242B
102
}
330
2
100
AcDbSymbolTableRecord
100
AcDbLayerTableRecord
  2
Schraffur
 70
     0
 62
   251
  6
Continuous
370
    -3
390
F
1001
AcAecLayerStandard
1000

1000

  0
ENDTAB
  0
TABLE
  2
STYLE
  5
3
330
0
100
AcDbSymbolTable
 70
     2
  0
STYLE
  5
11
330
3
100
AcDbSymbolTableRecord
100
AcDbTextStyleTableRecord
  2
Standard
 70
     0
 40
0.0
 41
1.0
 50
0.0
 71
     0
 42
2.5
  3
txt
  4

  0
STYLE
  5
11D
330
3
100
AcDbSymbolTableRecord
100
AcDbTextStyleTableRecord
  2
RomanS
 70
     0
 40
0.0
 41
0.7
 50
0.0
 71
     0
 42
2.5
  3
romans.shx
  4

  0
ENDTAB
  0
TABLE
  2
VIEW
  5
6
330
0
100
AcDbSymbolTable
 70
     0
  0
ENDTAB
  0
TABLE
  2
UCS
  5
7
330
0
100
AcDbSymbolTable
 70
     0
  0
ENDTAB
  0
TABLE
  2
APPID
  5
9
330
0
100
AcDbSymbolTable
 70
    12
  0
APPID
  5
12
330
9
100
AcDbSymbolTableRecord
100
AcDbRegAppTableRecord
  2
ACAD
 70
     0
  0
APPID
  5
9E
330
9
100
AcDbSymbolTableRecord
100
AcDbRegAppTableRecord
  2
ACAD_PSEXT
 70
     0
  0
APPID
  5
1B4
330
9
100
AcDbSymbolTableRecord
100
AcDbRegAppTableRecord
  2
AcAecLayerStandard
 70
     0
  0
APPID
  5
3F2
330
9
100
AcDbSymbolTableRecord
100
AcDbRegAppTableRecord
  2
AcDbBlockRepETag
 70
     0
  0
APPID
  5
722
330
9
100
AcDbSymbolTableRecord
100
AcDbRegAppTableRecord
  2
ACAD_EXEMPT_FROM_CAD_STANDARDS
 70
     0
  0
APPID
  5
12AF
330
9
100
AcDbSymbolTableRecord
100
AcDbRegAppTableRecord
  2
AcDbDynamicBlockGUID
 70
     0
  0
APPID
  5
17A4
330
9
100
AcDbSymbolTableRecord
100
AcDbRegAppTableRecord
  2
ACAUTHENVIRON
 70
     0
  0
APPID
  5
17AA
330
9
100
AcDbSymbolTableRecord
100
AcDbRegAppTableRecord
  2
AcDbDynamicBlockTrueName
 70
     0
  0
APPID
  5
186B
330
9
100
AcDbSymbolTableRecord
100
AcDbRegAppTableRecord
  2
AcDbBlockRepBTag
 70
     0
  0
APPID
  5
223B
330
9
100
AcDbSymbolTableRecord
100
AcDbRegAppTableRecord
  2
AcLayerTools
 70
     0
  0
APPID
  5
23CF
330
9
100
AcDbSymbolTableRecord
100
AcDbRegAppTableRecord
  2
ACAD_NAV_VCDISPLAY
 70
     0
  0
APPID
  5
2411
330
9
100
AcDbSymbolTableRecord
100
AcDbRegAppTableRecord
  2
ACAD_MLEADERVER
 70
     0
  0
ENDTAB
  0
TABLE
  2
DIMSTYLE
  5
A
330
0
100
AcDbSymbolTable
 70
     2
100
AcDbDimStyleTable
 71
     1
340
142C
  0
DIMSTYLE
105
11E
330
A
100
AcDbSymbolTableRecord
100
AcDbDimStyleTableRecord
  2
Standard
 70
     0
 41
0.5
 42
1.0
 43
2.0
 44
0.2
140
1.5
147
1.0
172
     1
271
     1
272
     1
340
11
371
     5
372
     5
  0
DIMSTYLE
105
142C
102
{ACAD_REACTORS
330
1F3D
330
1F40
330
1F41
330
1F42
330
1F43
330
1F44
330
1F45
330
1F46
330
1F47
330
1F48
330
204F
330
2067
102
}
330
A
100
AcDbSymbolTableRecord
100
AcDbDimStyleTableRecord
  2
IDEAL Holz
 70
     0
 41
2.5
 42
0.625
 43
3.75
 44
1.25
 73
     0
 74
     0
 77
     1
 78
     8
140
2.5
141
2.5
143
0.03937007874016
147
0.625
171
     3
172
     1
271
     1
272
     1
274
     3
278
    44
283
     0
284
     8
340
11D
341
117
342
117
  0
ENDTAB
  0
TABLE
  2
BLOCK_RECORD
  5
1
330
0
100
AcDbSymbolTable
 70
    19
  0
BLOCK_RECORD
  5
1F
102
{ACAD_XDICTIONARY
360
732
102
}
330
1
100
AcDbSymbolTableRecord
100
AcDbBlockTableRecord
  2
*Model_Space
340
22
  0
BLOCK_RECORD
  5
1CC3
330
1
100
AcDbSymbolTableRecord
100
AcDbBlockTableRecord
  2
*Paper_Space
340
1CC8
  0
BLOCK_RECORD
  5
117
330
1
100
AcDbSymbolTableRecord
100
AcDbBlockTableRecord
  2
_Oblique
340
0
102
{BLKREFS
331
1FED
331
1FEE
331
1FF6
331
1FF7
331
1FFF
331
2000
331
2008
331
2009
331
2011
331
2012
331
2094
331
2095
331
21E9
331
21EA
331
21FB
331
21FC
331
2204
331
2205
331
2351
331
2352
331
235D
331
235E
331
1FE4
331
1FE5
102
}
  0
BLOCK_RECORD
  5
1D5A
330
1
100
AcDbSymbolTableRecord
100
AcDbBlockTableRecord
  2
D-Blendrahmendichtung
340
0
310
2800000020000000200000000100080000000000000400000000000000000000000000000000000000000000000080000080000000808000800000008000800080800000C0C0C000C0DCC000F0CAA6000020400000206000002080000020A0000020C0000020E00000400000004020000040400000406000004080000040A0
310
000040C0000040E00000600000006020000060400000606000006080000060A0000060C0000060E00000800000008020000080400000806000008080000080A0000080C0000080E00000A0000000A0200000A0400000A0600000A0800000A0A00000A0C00000A0E00000C0000000C0200000C0400000C0600000C0800000C0
310
A00000C0C00000C0E00000E0000000E0200000E0400000E0600000E0800000E0A00000E0C00000E0E00040000000400020004000400040006000400080004000A0004000C0004000E00040200000402020004020400040206000402080004020A0004020C0004020E000404000004040200040404000404060004040800040
310
40A0004040C0004040E00040600000406020004060400040606000406080004060A0004060C0004060E00040800000408020004080400040806000408080004080A0004080C0004080E00040A0000040A0200040A0400040A0600040A0800040A0A00040A0C00040A0E00040C0000040C0200040C0400040C0600040C08000
310
40C0A00040C0C00040C0E00040E0000040E0200040E0400040E0600040E0800040E0A00040E0C00040E0E00080000000800020008000400080006000800080008000A0008000C0008000E00080200000802020008020400080206000802080008020A0008020C0008020E00080400000804020008040400080406000804080
310
008040A0008040C0008040E00080600000806020008060400080606000806080008060A0008060C0008060E00080800000808020008080400080806000808080008080A0008080C0008080E00080A0000080A0200080A0400080A0600080A0800080A0A00080A0C00080A0E00080C0000080C0200080C0400080C0600080C0
310
800080C0A00080C0C00080C0E00080E0000080E0200080E0400080E0600080E0800080E0A00080E0C00080E0E000C0000000C0002000C0004000C0006000C0008000C000A000C000C000C000E000C0200000C0202000C0204000C0206000C0208000C020A000C020C000C020E000C0400000C0402000C0404000C0406000C0
310
408000C040A000C040C000C040E000C0600000C0602000C0604000C0606000C0608000C060A000C060C000C060E000C0800000C0802000C0804000C0806000C0808000C080A000C080C000C080E000C0A00000C0A02000C0A04000C0A06000C0A08000C0A0A000C0A0C000C0A0E000C0C00000C0C02000C0C04000C0C06000
310
C0C08000C0C0A000F0FBFF00A4A0A000808080000000FF0000FF000000FFFF00FF000000FF00FF00FFFF0000FFFFFF0008080808080808080808080808080808080808080808080808080808080808080808080808080808080808080808080808080808080808080808080808080808080808080808080808080808080808
310
08080808080808080808080808080808080808080808080808080808080808080808080808080808080808080808080808080808080808080808080808080808080808080808080808080808080808080808080808080808080808080808080808080808080808080808080808080808080808080808080808080808080808
310
08080808080808080808080808080808080808080808080808080808080808080808080808080808FDFDFD080808080808080808080808080808FDFD0808080808080808080808FDFDFDFDFDFD08080808080808080808080808FD08FD08080808080808080808FD08FDFDFDFD080808080808080808080808FDFDFDFD0808
310
0808080808080808FDFDFDFDFDFDFD0808080808080808080808FDFDFDFD08080808080808080808FD08FDFDFD08080808080808080808080808FDFDFDFD08080808080808080808FDFDFDFDFDFD080808080808FDFD08080808FDFDFDFD08080808080808080808FDFDFD08FDFDFD0808080808FD08FDFDFDFDFDFDFDFD08
310
080808080808080808FDFD08FD08FD08080808080808FDFDFDFDFDFDFDFDFDFDFDFD08080808FDFDFDFD08FD08FDFDFDFDFDFD080808FDFDFDFDFDFDFDFDFDFDFDFDFDFDFDFDFDFDFD08FDFDFDFDFDFDFDFD080808080808080808FDFDFDFDFDFDFDFDFDFD08FDFD08FDFDFDFDFDFDFD080808080808080808080808080808
310
080808080808FDFDFDFDFDFDFDFDFDFDFD0808080808080808080808080808080808080808080808080808FDFD0808FDFD080808080808080808080808080808080808080808080808080808FDFD08FDFD080808080808080808080808080808080808080808080808080808FDFD08FDFDFD08080808080808080808080808
310
08080808080808080808080808FDFDFDFDFDFD0808080808080808080808080808080808080808080808080808FDFDFDFDFDFD08080808080808080808080808080808080808080808080808080808FDFDFDFD0808080808080808080808080808080808080808080808080808080808080808080808080808080808080808
310
08080808080808080808080808080808080808080808080808080808080808080808080808080808080808080808080808080808080808080808080808080808080808080808080808080808080808080808080808080808080808080808080808080808080808080808080808080808080808080808080808080808080808
310
0808080808080808080808080808080808080808080808080808080808080808080808080808080808080808080808080808080808080808
102
{BLKREFS
331
1F51
331
1F54
331
1F57
331
1F4E
102
}
1001
ACAD
1000
DesignCenter Data
1002
{
1070
     1
1070
     4
1002
}
  0
BLOCK_RECORD
  5
1D61
102
{ACAD_XDICTIONARY
360
1D62
102
}
330
1
100
AcDbSymbolTableRecord
100
AcDbBlockTableRecord
  2
A-SS66-19
340
0
310
2800000020000000200000000100080000000000000400000000000000000000000000000000000000000000000080000080000000808000800000008000800080800000C0C0C000C0DCC000F0CAA6000020400000206000002080000020A0000020C0000020E00000400000004020000040400000406000004080000040A0
310
000040C0000040E00000600000006020000060400000606000006080000060A0000060C0000060E00000800000008020000080400000806000008080000080A0000080C0000080E00000A0000000A0200000A0400000A0600000A0800000A0A00000A0C00000A0E00000C0000000C0200000C0400000C0600000C0800000C0
310
A00000C0C00000C0E00000E0000000E0200000E0400000E0600000E0800000E0A00000E0C00000E0E00040000000400020004000400040006000400080004000A0004000C0004000E00040200000402020004020400040206000402080004020A0004020C0004020E000404000004040200040404000404060004040800040
310
40A0004040C0004040E00040600000406020004060400040606000406080004060A0004060C0004060E00040800000408020004080400040806000408080004080A0004080C0004080E00040A0000040A0200040A0400040A0600040A0800040A0A00040A0C00040A0E00040C0000040C0200040C0400040C0600040C08000
310
40C0A00040C0C00040C0E00040E0000040E0200040E0400040E0600040E0800040E0A00040E0C00040E0E00080000000800020008000400080006000800080008000A0008000C0008000E00080200000802020008020400080206000802080008020A0008020C0008020E00080400000804020008040400080406000804080
310
008040A0008040C0008040E00080600000806020008060400080606000806080008060A0008060C0008060E00080800000808020008080400080806000808080008080A0008080C0008080E00080A0000080A0200080A0400080A0600080A0800080A0A00080A0C00080A0E00080C0000080C0200080C0400080C0600080C0
310
800080C0A00080C0C00080C0E00080E0000080E0200080E0400080E0600080E0800080E0A00080E0C00080E0E000C0000000C0002000C0004000C0006000C0008000C000A000C000C000C000E000C0200000C0202000C0204000C0206000C0208000C020A000C020C000C020E000C0400000C0402000C0404000C0406000C0
310
408000C040A000C040C000C040E000C0600000C0602000C0604000C0606000C0608000C060A000C060C000C060E000C0800000C0802000C0804000C0806000C0808000C080A000C080C000C080E000C0A00000C0A02000C0A04000C0A06000C0A08000C0A0A000C0A0C000C0A0E000C0C00000C0C02000C0C04000C0C06000
310
C0C08000C0C0A000F0FBFF00A4A0A000808080000000FF0000FF000000FFFF00FF000000FF00FF00FFFF0000FFFFFF000808080808080808080808080808080808080808080808080808080808080808080808080808080808080808FE080808080808080808080808080808080808080808080808080808080808FEFE0808
310
08080808080808080808080808080808080808080808080808080808FEFE080808080808080808080808080808080808080808080808080808080808FEFE080808080808080808080808080808080808080808080808080808080808FEFE080808080808080808080808080808080808080808080808080808080808FEFE08
310
0808080808080808080808080808080808080808080808080808080808FEFE080808080808080808080808080808080808080808080808080808080808FEFE080808080808080808080808080808080808080808080808080808080808FEFEFEFEFEFEFEFE080808080808080808080808080808080808080808080808FEFE
310
FEFEFEFEFEFE080808080808080808080808080808080808080808080808FEFE0808FE0808FE080808080808080808080808080808080808080808080808FEFE080808080808080808080808080808080808080808080808080808080808FEFE0808080808FE080808080808080808080808080808080808080808080808FE
310
FE0808080808FEFE0808080808080808080808080808080808080808080808FEFE080808080808080808080808080808080808080808080808080808080808FEFE0808080808FE080808080808080808080808080808080808080808080808FEFE0808FE0808FE080808080808080808080808080808080808080808080808
310
FEFEFEFEFEFEFEFE080808080808080808080808080808080808080808080808FEFEFE08080808FE080808080808080808080808080808080808080808080808FEFEFE08080808FEFE0808080808080808080808080808080808080808080808FEFE0808080808080808080808080808080808080808080808080808080808
310
08FEFEFE0808080808080808080808080808080808080808080808080808080808FEFEFE0808080808080808080808080808080808080808080808080808080808FEFEFE0808080808080808080808080808080808080808080808080808080808FEFEFE080808080808080808080808080808080808080808080808080808
310
080808FEFE080808FEFEFEFE080808080808080808080808080808080808080808080808FEFE0808FEFEFE0808080808080808080808080808080808080808080808080808FEFEFEFEFEFE08080808080808080808080808080808080808080808080808080808FEFE08FEFE08080808080808080808080808080808080808
310
08080808080808080808FEFE0808080808080808080808080808080808080808080808080808080808080808080808080808080808080808
102
{BLKREFS
331
1F58
331
1F52
331
1F55
331
1F4F
102
}
1001
AcDbDynamicBlockGUID
1000
{C576B557-35B0-4C56-BBE0-BEE0FE846A42}
1001
AcDbBlockRepETag
1070
     1
1071
       73
1001
ACAD
1000
DesignCenter Data
1002
{
1070
     1
1070
     4
1002
}
  0
BLOCK_RECORD
  5
1DAA
102
{ACAD_XDICTIONARY
360
1DAB
102
}
330
1
100
AcDbSymbolTableRecord
100
AcDbBlockTableRecord
  2
C-MEH40
340
0
310
2800000020000000200000000100080000000000000400000000000000000000000000000000000000000000000080000080000000808000800000008000800080800000C0C0C000C0DCC000F0CAA6000020400000206000002080000020A0000020C0000020E00000400000004020000040400000406000004080000040A0
310
000040C0000040E00000600000006020000060400000606000006080000060A0000060C0000060E00000800000008020000080400000806000008080000080A0000080C0000080E00000A0000000A0200000A0400000A0600000A0800000A0A00000A0C00000A0E00000C0000000C0200000C0400000C0600000C0800000C0
310
A00000C0C00000C0E00000E0000000E0200000E0400000E0600000E0800000E0A00000E0C00000E0E00040000000400020004000400040006000400080004000A0004000C0004000E00040200000402020004020400040206000402080004020A0004020C0004020E000404000004040200040404000404060004040800040
310
40A0004040C0004040E00040600000406020004060400040606000406080004060A0004060C0004060E00040800000408020004080400040806000408080004080A0004080C0004080E00040A0000040A0200040A0400040A0600040A0800040A0A00040A0C00040A0E00040C0000040C0200040C0400040C0600040C08000
310
40C0A00040C0C00040C0E00040E0000040E0200040E0400040E0600040E0800040E0A00040E0C00040E0E00080000000800020008000400080006000800080008000A0008000C0008000E00080200000802020008020400080206000802080008020A0008020C0008020E00080400000804020008040400080406000804080
310
008040A0008040C0008040E00080600000806020008060400080606000806080008060A0008060C0008060E00080800000808020008080400080806000808080008080A0008080C0008080E00080A0000080A0200080A0400080A0600080A0800080A0A00080A0C00080A0E00080C0000080C0200080C0400080C0600080C0
310
800080C0A00080C0C00080C0E00080E0000080E0200080E0400080E0600080E0800080E0A00080E0C00080E0E000C0000000C0002000C0004000C0006000C0008000C000A000C000C000C000E000C0200000C0202000C0204000C0206000C0208000C020A000C020C000C020E000C0400000C0402000C0404000C0406000C0
310
408000C040A000C040C000C040E000C0600000C0602000C0604000C0606000C0608000C060A000C060C000C060E000C0800000C0802000C0804000C0806000C0808000C080A000C080C000C080E000C0A00000C0A02000C0A04000C0A06000C0A08000C0A0A000C0A0C000C0A0E000C0C00000C0C02000C0C04000C0C06000
310
C0C08000C0C0A000F0FBFF00A4A0A000808080000000FF0000FF000000FFFF00FF000000FF00FF00FFFF0000FFFFFF0008080808080808080808080808080808080808080808080808080808080808080808080808080808080808080808080808FAFAFAFAFAFAFA0808080808080808080808080808080808080808080808
310
0808FA0808080808FA08080808080808080808080808080808080808080808080808FA0808080808FA08080808080808080808080808080808FAFAFAFAFAFAFAFA08FA0808080808FA08080808080808080808080808080808FA080808080808FA08FA0808080808FA08080808080808080808080808080808FA0808080808
310
08FA08FA0808080808FA08080808080808080808080808080808FA080808080808FA08FA0808080808FA08080808080808080808080808080808FA080808080808FA08FA08FAFAFAFAFA08080808080808080808080808080808FA080808080808FA08FA080808FAFAFA08080808080808080808080808080808FAFA080808
310
0808FAFAFA08FAFAFAFAFA08080808080808080808080808080808FAFAFA08080808FA08FA0808080808FA08080808080808080808080808080808FAFA08FA080808FA08FA08FAFAFAFAFA08080808080808080808080808080808FAFA0808FAFAFAFAFAFAFAFAFAFAFAFA08080808080808080808080808080808FAFA0808
310
FA0808FA08FA08FAFAFAFAFA08080808080808080808080808080808FAFA0808FA0808FA08FA0808FA0808FA08080808080808080808080808080808FAFA0808FA0808FA08FA08FAFAFAFAFA08080808080808080808080808080808FAFA0808FA0808FA08FA080808FA08FA08080808080808080808080808080808FAFA08
310
08FAFAFAFAFAFAFAFAFAFAFAFA08080808080808080808080808080808FAFA08FA080808FA08FA080808FA08FA08080808080808080808080808080808FAFAFA08080808FA08FA08FAFAFAFAFA08080808080808080808080808080808FAFA0808080808FAFAFA08FA0808FAFA08080808080808080808080808080808FA08
310
0808080808FA08FA08FAFAFA08FA08080808080808080808080808080808FA080808080808FA08FA0808080808FA08080808080808080808080808080808FA080808080808FA08FA0808080808FA08080808080808080808080808080808FA080808080808FA08FA0808080808FA08080808080808080808080808080808FA
310
FAFAFAFAFAFAFA08FA0808080808FA08080808080808080808080808080808FAFAFAFAFAFAFAFA08FA0808080808FA08080808080808080808080808080808080808080808080808FA0808080808FA08080808080808080808080808080808080808080808080808FA0808080808FA08080808080808080808080808080808
310
080808080808080808FAFAFAFAFAFAFA08080808080808080808080808080808080808080808080808080808080808080808080808080808
102
{BLKREFS
331
1F59
331
1F50
331
1F53
331
1F56
102
}
1001
AcDbDynamicBlockGUID
1000
{7DD8F77F-E2E7-4F09-A4CD-9421E8128F28}
1001
AcDbBlockRepETag
1070
     1
1071
       38
1001
ACAD
1000
DesignCenter Data
1002
{
1070
     1
1070
     4
1002
}
  0
BLOCK_RECORD
  5
1DD4
102
{ACAD_XDICTIONARY
360
1DD5
102
}
330
1
100
AcDbSymbolTableRecord
100
AcDbBlockTableRecord
  2
A-SB36-17
340
0
310
2800000020000000200000000100080000000000000400000000000000000000000000000000000000000000000080000080000000808000800000008000800080800000C0C0C000C0DCC000F0CAA6000020400000206000002080000020A0000020C0000020E00000400000004020000040400000406000004080000040A0
310
000040C0000040E00000600000006020000060400000606000006080000060A0000060C0000060E00000800000008020000080400000806000008080000080A0000080C0000080E00000A0000000A0200000A0400000A0600000A0800000A0A00000A0C00000A0E00000C0000000C0200000C0400000C0600000C0800000C0
310
A00000C0C00000C0E00000E0000000E0200000E0400000E0600000E0800000E0A00000E0C00000E0E00040000000400020004000400040006000400080004000A0004000C0004000E00040200000402020004020400040206000402080004020A0004020C0004020E000404000004040200040404000404060004040800040
310
40A0004040C0004040E00040600000406020004060400040606000406080004060A0004060C0004060E00040800000408020004080400040806000408080004080A0004080C0004080E00040A0000040A0200040A0400040A0600040A0800040A0A00040A0C00040A0E00040C0000040C0200040C0400040C0600040C08000
310
40C0A00040C0C00040C0E00040E0000040E0200040E0400040E0600040E0800040E0A00040E0C00040E0E00080000000800020008000400080006000800080008000A0008000C0008000E00080200000802020008020400080206000802080008020A0008020C0008020E00080400000804020008040400080406000804080
310
008040A0008040C0008040E00080600000806020008060400080606000806080008060A0008060C0008060E00080800000808020008080400080806000808080008080A0008080C0008080E00080A0000080A0200080A0400080A0600080A0800080A0A00080A0C00080A0E00080C0000080C0200080C0400080C0600080C0
310
800080C0A00080C0C00080C0E00080E0000080E0200080E0400080E0600080E0800080E0A00080E0C00080E0E000C0000000C0002000C0004000C0006000C0008000C000A000C000C000C000E000C0200000C0202000C0204000C0206000C0208000C020A000C020C000C020E000C0400000C0402000C0404000C0406000C0
310
408000C040A000C040C000C040E000C0600000C0602000C0604000C0606000C0608000C060A000C060C000C060E000C0800000C0802000C0804000C0806000C0808000C080A000C080C000C080E000C0A00000C0A02000C0A04000C0A06000C0A08000C0A0A000C0A0C000C0A0E000C0C00000C0C02000C0C04000C0C06000
310
C0C08000C0C0A000F0FBFF00A4A0A000808080000000FF0000FF000000FFFF00FF000000FF00FF00FFFF0000FFFFFF000808080808080808080808080808080808080808080808080808080808080808080808080808080808F7F7F7F7F7F7F7F7F7F7F7080808080808080808080808080808080808080808F7F7F7F7F7F7
310
F7F7F7F7F7F7F708080808080808080808080808080808080808F7F708080808080808F7F7F708F7080808080808080808080808080808080808F7F7080808080808080808F708F7080808080808080808080808080808080808F7F7080808080808080808F708F7080808080808080808080808080808080808F7F7F7F7F7
310
F7080808080808F708080808080808080808080808080808080808F7F7F7F7F7F70808080808080808080808080808080808080808080808080808F7F7080808080808080808080808080808080808080808080808080808080808F7F7F7F7F7F7F7080808080808F7080808080808080808080808080808080808F7F7F7F7
310
F7F7F7F708F70808F7F7080808080808080808080808080808080808F7F7F7F708F7F7F7F7F7F70808F7080808080808080808080808080808080808F7F7F7F708F7F70808F7F7080808080808080808080808080808080808080808F7F708080808080808080808080808080808080808080808080808080808080808F7F7
310
F70808080808080808F70808080808080808080808080808080808080808F7F708F7F7F708080808F708F7080808080808080808080808080808080808080808F7F7F708F7F7F708F708F7080808080808080808080808080808080808080808080808F7F7F7F7F7F708F70808080808080808080808080808080808080808
310
0808080808080808F7F708F7080808080808080808080808080808080808080808080808080808080808F7F7080808080808080808080808080808080808080808080808080808080808F7F70808080808080808080808080808080808080808080808080808080808F7F7F708080808080808080808080808080808080808
310
08080808080808080808F7F7F7080808080808080808080808080808080808080808080808080808F7F708F70808080808080808080808080808080808080808080808080808F7F708F7F7F70808080808080808080808080808080808080808080808080808F7F7F708080808080808080808080808080808080808080808
310
08080808080808F7F7080808080808080808080808080808080808080808080808080808080808F7F7F708F708080808080808080808080808080808080808080808080808080808F708F7F7F708080808080808080808080808080808080808080808080808080808F7F708F7080808080808080808080808080808080808
310
080808080808080808080808F708080808080808080808080808080808080808080808080808080808080808080808080808080808080808
102
{BLKREFS
331
1F5A
331
1F5D
102
}
1001
AcDbDynamicBlockGUID
1000
{21F1417D-8C61-4FD6-8D85-D109EC53E04A}
1001
AcDbBlockRepETag
1070
     1
1071
        4
1001
ACAD
1000
DesignCenter Data
1002
{
1070
     1
1070
     4
1002
}
  0
BLOCK_RECORD
  5
1E55
102
{ACAD_XDICTIONARY
360
2371
102
}
330
1
100
AcDbSymbolTableRecord
100
AcDbBlockTableRecord
  2
C-DC340
340
0
310
2800000020000000200000000100080000000000000400000000000000000000000000000000000000000000000080000080000000808000800000008000800080800000C0C0C000C0DCC000F0CAA6000020400000206000002080000020A0000020C0000020E00000400000004020000040400000406000004080000040A0
310
000040C0000040E00000600000006020000060400000606000006080000060A0000060C0000060E00000800000008020000080400000806000008080000080A0000080C0000080E00000A0000000A0200000A0400000A0600000A0800000A0A00000A0C00000A0E00000C0000000C0200000C0400000C0600000C0800000C0
310
A00000C0C00000C0E00000E0000000E0200000E0400000E0600000E0800000E0A00000E0C00000E0E00040000000400020004000400040006000400080004000A0004000C0004000E00040200000402020004020400040206000402080004020A0004020C0004020E000404000004040200040404000404060004040800040
310
40A0004040C0004040E00040600000406020004060400040606000406080004060A0004060C0004060E00040800000408020004080400040806000408080004080A0004080C0004080E00040A0000040A0200040A0400040A0600040A0800040A0A00040A0C00040A0E00040C0000040C0200040C0400040C0600040C08000
310
40C0A00040C0C00040C0E00040E0000040E0200040E0400040E0600040E0800040E0A00040E0C00040E0E00080000000800020008000400080006000800080008000A0008000C0008000E00080200000802020008020400080206000802080008020A0008020C0008020E00080400000804020008040400080406000804080
310
008040A0008040C0008040E00080600000806020008060400080606000806080008060A0008060C0008060E00080800000808020008080400080806000808080008080A0008080C0008080E00080A0000080A0200080A0400080A0600080A0800080A0A00080A0C00080A0E00080C0000080C0200080C0400080C0600080C0
310
800080C0A00080C0C00080C0E00080E0000080E0200080E0400080E0600080E0800080E0A00080E0C00080E0E000C0000000C0002000C0004000C0006000C0008000C000A000C000C000C000E000C0200000C0202000C0204000C0206000C0208000C020A000C020C000C020E000C0400000C0402000C0404000C0406000C0
310
408000C040A000C040C000C040E000C0600000C0602000C0604000C0606000C0608000C060A000C060C000C060E000C0800000C0802000C0804000C0806000C0808000C080A000C080C000C080E000C0A00000C0A02000C0A04000C0A06000C0A08000C0A0A000C0A0C000C0A0E000C0C00000C0C02000C0C04000C0C06000
310
C0C08000C0C0A000F0FBFF00A4A0A000808080000000FF0000FF000000FFFF00FF000000FF00FF00FFFF0000FFFFFF0008080808080808080808080808080808080808080808080808080808080808080808080808080808080808080808080808080808080808080808080808080808080808080808080808080808080808
310
0808080808080808080808080808080808080808080808080808080808080808080808080808080808080808080808080808080808080808080808FAFAFAFAFA080808080808080808080808080808080808080808080808080808FA080808FA080808080808080808080808080808080808080808080808080808FA080808
310
FA080808080808080808080808080808080808080808080808080808FA080808FA0808080808080808080808080808080808080808080808FAFA0808FA080808FA0808080808080808080808080808080808080808FAFAFA08FAFAFAFA080808FA08080808080808080808080808080808080808FA080808FAFAFA08FAFA08
310
FAFA080808080808080808080808080808080808FA0808FAFA0808FA08FAFAFAFAFA080808080808080808080808080808080808FA0808FAFAFAFA0808FAFAFAFAFA080808080808080808080808080808080808FAFAFAFAFAFAFAFAFAFAFAFAFAFA080808080808080808080808080808080808FA0808080808080808FAFA
310
08FAFA080808080808080808080808080808080808FA0808080808080808FAFAFAFAFAFAFAFAFAFAFAFAFAFAFAFAFAFAFAFAFA0808FA0808080808080808FA080808FA080808080808080808080808080808080808FA0808080808080808FAFA08FAFA080808080808080808080808080808080808FAFAFAFAFAFAFAFAFAFA
310
FAFAFAFA080808080808080808080808080808080808FA0808FAFAFAFA0808FAFAFAFAFA080808080808080808080808080808080808FA0808FAFA0808FA08FA08FA08FA08080808080808080808080808080808080808FA080808FAFAFA08FAFAFAFAFA0808080808080808080808080808080808080808FAFA0808FAFAFA
310
FAFAFAFAFA08080808080808080808080808080808080808080808FAFAFA0808FAFAFAFAFA080808080808080808080808080808080808080808080808080808FA080808FA080808080808080808080808080808080808080808080808080808FA080808FA0808080808080808080808080808080808080808080808080808
310
08FA080808FA080808080808080808080808080808080808080808080808080808FAFAFAFAFA0808080808080808080808080808080808080808080808080808080808080808080808080808080808080808080808080808080808080808080808080808080808080808080808080808080808080808080808080808080808
310
0808080808080808080808080808080808080808080808080808080808080808080808080808080808080808080808080808080808080808
102
{BLKREFS
331
1F5B
331
1F5E
102
}
1001
AcDbDynamicBlockGUID
1000
{96E96411-AFE8-4B9C-9B26-BE83824F7EBD}
1001
AcDbBlockRepETag
1070
     1
1071
        5
1001
ACAD
1000
DesignCenter Data
1002
{
1070
     1
1070
     4
1002
}
  0
BLOCK_RECORD
  5
1F60
330
1
100
AcDbSymbolTableRecord
100
AcDbBlockTableRecord
  2
*D6
340
0
  0
BLOCK_RECORD
  5
1F6C
330
1
100
AcDbSymbolTableRecord
100
AcDbBlockTableRecord
  2
*D7
340
0
  0
BLOCK_RECORD
  5
1F78
330
1
100
AcDbSymbolTableRecord
100
AcDbBlockTableRecord
  2
*D8
340
0
  0
BLOCK_RECORD
  5
1F84
330
1
100
AcDbSymbolTableRecord
100
AcDbBlockTableRecord
  2
*D9
340
0
  0
BLOCK_RECORD
  5
1F90
330
1
100
AcDbSymbolTableRecord
100
AcDbBlockTableRecord
  2
*D10
340
0
  0
BLOCK_RECORD
  5
1F9C
330
1
100
AcDbSymbolTableRecord
100
AcDbBlockTableRecord
  2
*D11
340
0
  0
BLOCK_RECORD
  5
1FA8
330
1
100
AcDbSymbolTableRecord
100
AcDbBlockTableRecord
  2
*D12
340
0
  0
BLOCK_RECORD
  5
1FB4
330
1
100
AcDbSymbolTableRecord
100
AcDbBlockTableRecord
  2
*D13
340
0
  0
BLOCK_RECORD
  5
1FC0
330
1
100
AcDbSymbolTableRecord
100
AcDbBlockTableRecord
  2
*D14
340
0
  0
BLOCK_RECORD
  5
1FCC
330
1
100
AcDbSymbolTableRecord
100
AcDbBlockTableRecord
  2
*D15
340
0
  0
BLOCK_RECORD
  5
2050
330
1
100
AcDbSymbolTableRecord
100
AcDbBlockTableRecord
  2
*D16
340
0
  0
BLOCK_RECORD
  5
2068
330
1
100
AcDbSymbolTableRecord
100
AcDbBlockTableRecord
  2
*D17
340
0
  0
BLOCK_RECORD
  5
2110
330
1
100
AcDbSymbolTableRecord
100
AcDbBlockTableRecord
  2
D-429.311
340
0
310
2800000020000000200000000100080000000000000400000000000000000000000000000000000000000000000080000080000000808000800000008000800080800000C0C0C000C0DCC000F0CAA6000020400000206000002080000020A0000020C0000020E00000400000004020000040400000406000004080000040A0
310
000040C0000040E00000600000006020000060400000606000006080000060A0000060C0000060E00000800000008020000080400000806000008080000080A0000080C0000080E00000A0000000A0200000A0400000A0600000A0800000A0A00000A0C00000A0E00000C0000000C0200000C0400000C0600000C0800000C0
310
A00000C0C00000C0E00000E0000000E0200000E0400000E0600000E0800000E0A00000E0C00000E0E00040000000400020004000400040006000400080004000A0004000C0004000E00040200000402020004020400040206000402080004020A0004020C0004020E000404000004040200040404000404060004040800040
310
40A0004040C0004040E00040600000406020004060400040606000406080004060A0004060C0004060E00040800000408020004080400040806000408080004080A0004080C0004080E00040A0000040A0200040A0400040A0600040A0800040A0A00040A0C00040A0E00040C0000040C0200040C0400040C0600040C08000
310
40C0A00040C0C00040C0E00040E0000040E0200040E0400040E0600040E0800040E0A00040E0C00040E0E00080000000800020008000400080006000800080008000A0008000C0008000E00080200000802020008020400080206000802080008020A0008020C0008020E00080400000804020008040400080406000804080
310
008040A0008040C0008040E00080600000806020008060400080606000806080008060A0008060C0008060E00080800000808020008080400080806000808080008080A0008080C0008080E00080A0000080A0200080A0400080A0600080A0800080A0A00080A0C00080A0E00080C0000080C0200080C0400080C0600080C0
310
800080C0A00080C0C00080C0E00080E0000080E0200080E0400080E0600080E0800080E0A00080E0C00080E0E000C0000000C0002000C0004000C0006000C0008000C000A000C000C000C000E000C0200000C0202000C0204000C0206000C0208000C020A000C020C000C020E000C0400000C0402000C0404000C0406000C0
310
408000C040A000C040C000C040E000C0600000C0602000C0604000C0606000C0608000C060A000C060C000C060E000C0800000C0802000C0804000C0806000C0808000C080A000C080C000C080E000C0A00000C0A02000C0A04000C0A06000C0A08000C0A0A000C0A0C000C0A0E000C0C00000C0C02000C0C04000C0C06000
310
C0C08000C0C0A000F0FBFF00A4A0A000808080000000FF0000FF000000FFFF00FF000000FF00FF00FFFF0000FFFFFF000808080808080808080808080808080808080808080808080808080808080808080808080808080808080808080808FDFDFDFDFDFDFD08080808080808080808080808080808080808080808080808
310
FD08FDFD08FDFDFD080808080808080808080808080808080808080808080808FD08FDFD0808FDFD080808080808080808080808080808080808080808080808FD08FD08FDFD08FD080808080808080808080808080808080808080808080808FDFD0808FDFDFD0808080808080808080808080808080808080808FDFD0808
310
08FD08FDFDFD080808080808080808080808080808080808080808FDFDFDFDFDFDFD08FDFD080808080808080808080808080808080808080808FDFD0808FDFD08FDFD08FD080808080808080808080808080808080808080808FDFDFDFDFDFD08FDFD08FD0808080808080808080808080808080808080808FDFD080808FD
310
08FD0808FDFD0808080808080808080808080808080808080808FDFD080808FD0808FD08FDFD080808080808080808080808080808080808080808FDFDFDFDFD080808FD08FD080808080808080808080808080808080808080808FDFD08FD08FD08FD08FDFD08080808080808080808080808080808080808080808FDFDFD
310
FDFDFDFD0808FD0808080808080808080808080808080808080808080808FDFD080808FD08FDFD08080808080808080808080808080808080808080808080808080808FDFD08FD08080808080808080808080808080808080808080808080808080808FD08FDFDFD0808080808080808080808080808080808080808080808
310
08080808FD08FDFDFD080808080808080808080808080808080808080808080808080808FDFD0808FDFD0808080808080808080808080808080808080808080808080808FD08FDFD08FD0808080808080808080808080808080808080808080808080808FD08FDFD0808FD0808080808080808080808080808080808080808
310
080808080808FD0808FDFDFD080808080808080808080808080808080808080808080808080808FD08FDFD08FD080808080808080808080808080808080808080808080808080808FD0808FDFD08080808080808080808080808080808080808080808080808080808FDFDFDFDFD0808080808080808080808080808080808
310
08080808080808080808FDFD0808FD0808080808080808080808080808080808080808080808080808080808FDFD08FD08080808080808080808080808080808080808080808080808080808FDFD08FD080808080808080808080808080808080808080808080808080808080808FD08080808080808080808080808080808
310
0808080808080808080808080808080808080808080808080808080808080808080808080808080808080808080808080808080808080808
102
{BLKREFS
331
213E
331
213F
102
}
1001
ACAD
1000
DesignCenter Data
1002
{
1070
     1
1070
     4
1002
}
  0
ENDTAB
  0
ENDSEC
  0
SECTION
  2
BLOCKS
  0
BLOCK
  5
20
330
1F
100
AcDbEntity
  8
0
100
AcDbBlockBegin
  2
*Model_Space
 70
     0
 10
0.0
 20
0.0
 30
0.0
  3
*Model_Space
  1

  0
ENDBLK
  5
21
330
1F
100
AcDbEntity
  8
0
100
AcDbBlockEnd
  0
BLOCK
  5
1CC4
330
1CC3
100
AcDbEntity
 67
     1
  8
0
100
AcDbBlockBegin
  2
*Paper_Space
 70
     0
 10
0.0
 20
0.0
 30
0.0
  3
*Paper_Space
  1

  0
ENDBLK
  5
1CC7
330
1CC3
100
AcDbEntity
 67
     1
  8
0
100
AcDbBlockEnd
  0
BLOCK
  5
118
330
117
100
AcDbEntity
  8
0
 62
     1
 48
0.3
100
AcDbBlockBegin
  2
_Oblique
 70
     0
 10
0.0
 20
0.0
 30
0.0
  3
_Oblique
  1

  0
LINE
  5
119
330
117
100
AcDbEntity
  8
0
  6
ByBlock
 62
     0
370
    -2
100
AcDbLine
 10
-0.5
 20
-0.5
 30
0.0
 11
0.5
 21
0.5
 31
0.0
  0
ENDBLK
  5
11A
330
117
100
AcDbEntity
  8
0
 62
     1
 48
0.3
100
AcDbBlockEnd
  0
BLOCK
  5
1D5B
330
1D5A
100
AcDbEntity
  8
0
100
AcDbBlockBegin
  2
D-Blendrahmendichtung
 70
     0
 10
0.0
 20
0.0
 30
0.0
  3
D-Blendrahmendichtung
  1

  0
LWPOLYLINE
  5
1D5C
102
{ACAD_REACTORS
330
1D5F
102
}
330
1D5A
100
AcDbEntity
  8
Dichtungen
100
AcDbPolyline
 90
       69
 70
     1
 43
0.0
 10
10.90043321093145
 20
0.2071396995019654
 10
10.90043321093145
 20
0.4887058970224988
 42
0.4400105308918322
 10
9.813277468183796
 20
1.484900595114225
 10
6.130708616733329
 20
1.162717567958694
 42
0.4475114964228972
 10
5.416316488290646
 20
0.2071396995019654
 10
2.900433210931453
 20
0.2071396995019654
 42
0.4143000035343198
 10
2.400433210931453
 20
-0.2928603004980346
 10
2.400433210931453
 20
-0.9929340695063617
 42
0.4142567794639094
 10
2.900433210931453
 20
-1.492860300498435
 10
3.200433210931461
 20
-1.492860300501789
 42
-0.5643074936854307
 10
3.377433210931484
 20
-1.785960300499211
 10
2.423433210931476
 20
-3.599760300499112
 42
0.5643075145793393
 10
2.60043321093144
 20
-3.892860300498083
 10
3.200433210931461
 20
-3.892860300505446
 42
-0.5773418094738374
 10
3.373633210931473
 20
-4.192860300499146
 10
2.532325713372415
 20
-5.650007270703213
 42
-0.56836091692411
 10
1.297169574897905
 20
-5.657524141481472
 10
0.0407762970359045
 20
-3.542670300497589
 42
-0.577312004457135
 10
0.3006762970337036
 20
-3.092860300498783
 10
0.8006762970337033
 20
-3.092860300498783
 42
0.4140999845020091
 10
1.000676297033689
 20
-2.892860300498028
 10
1.000676297033689
 20
-1.892860300497829
 42
0.4142135528361644
 10
0.8006762970339309
 20
-1.692860300497826
 10
0.3006762970337036
 20
-1.692860300492823
 42
-0.4140251152132775
 10
0.0006509779577186
 20
-1.39319549880396
 10
0.0
 20
0.0
 10
-3.399566789068558
 20
0.0
 42
0.4282829180303449
 10
-3.699566789068569
 20
-0.3000000000000114
 10
-3.699566789066409
 20
-0.5155090412643945
 42
-0.2961518202965587
 10
-3.949566789068569
 20
-0.948519041263367
 10
-4.499566789066476
 20
-1.266059041266942
 42
-0.5773917935328236
 10
-4.799566789068478
 20
-1.092859041264091
 10
-4.799566789068761
 20
-0.2208721947393855
 42
-0.3842309611622337
 10
-2.973878274563841
 20
1.77151720144411
 10
13.47015780512959
 20
3.210183941028556
 42
0.2446984503078079
 10
14.09325353395911
 20
3.607139699501956
 10
14.69311847484499
 20
5.960665316471775
 42
-0.1564480532895918
 10
15.48937656592272
 20
8.068782821287397
 42
-0.2167150886309493
 10
19.47521714997026
 20
9.187534944312901
 42
-0.3476235919692248
 10
19.89892179940619
 20
8.693390210182784
 10
19.89892179940619
 20
6.467895673255256
 42
-1.000000000008684
 10
18.99892179940622
 20
6.467895673255256
 10
18.99892179940622
 20
7.736808938049477
 42
-0.2679491856857235
 10
19.09892180008057
 20
7.910014017638387
 42
2.138612309306378
 10
18.81069623173045
 20
8.015608925231376
 42
-0.2164663196749481
 10
18.79049345325819
 20
7.768300070225421
 42
0.1746166629011057
 10
18.3961446903441
 20
2.309496220006975
 42
0.3755531209354241
 10
19.10107654179291
 20
1.518314179176539
 10
20.07938284477149
 20
1.3981916918391
 42
-0.3264565885905406
 10
21.10889538494615
 20
0.4471224926396931
 42
-0.4907974309460493
 10
20.91293659511229
 20
0.2071396995019654
 10
16.76744322676063
 20
0.2071396995019654
 42
0.4508376905641569
 10
15.40043321093162
 20
-0.9928603004987479
 10
15.40043321093145
 20
-2.091790077359576
 42
0.5962761649861177
 10
15.80146504656915
 20
-2.374265862433631
 42
0.2166820304421538
 10
17.73899718353613
 20
-0.7901400204093961
 42
-0.9323111488760126
 10
18.38111585916454
 20
-1.064520148661685
 42
-0.1897173411875548
 10
16.52164879140775
 20
-3.233276896294611
 10
15.56002686930634
 20
-3.74255673295309
 42
0.2777666713106829
 10
15.4004332109302
 20
-4.007671914018672
 10
15.40043321093145
 20
-4.991790077359523
 42
0.5962761600744662
 10
15.80146504698786
 20
-5.274265860573891
 42
0.2071651829911452
 10
17.73899718353635
 20
-3.690140020409528
 42
-0.9323111799440193
 10
18.38111583866919
 20
-3.964520141554615
 42
-0.1897173559927194
 10
16.52164878633516
 20
-6.133276874434018
 10
15.16206320604112
 20
-6.853320295978534
 42
-0.1223685211958222
 10
14.6004345867438
 20
-6.992861117731107
 42
-0.4142134338726727
 10
13.40043321093145
 20
-5.792860300499096
 10
13.40043321093145
 20
0.2071396995019654
1001
ACAD
1000
ASC_BOUNDS
1002
{
1070
    19
1005
0
1002
}
  0
LWPOLYLINE
  5
1D5D
102
{ACAD_REACTORS
330
1D5F
102
}
330
1D5A
100
AcDbEntity
  8
Dichtungen
100
AcDbPolyline
 90
       11
 70
     0
 43
0.0
 10
17.45235141423143
 20
4.029076830079428
 42
-0.103344934103788
 10
17.80227082695984
 20
7.627184819109657
 42
0.7327695739736769
 10
17.44623136230655
 20
8.07502338585688
 42
0.0448481752388963
 10
16.5869742049968
 20
7.752245710847089
 42
0.1867433841735613
 10
15.76661700977553
 20
5.999229209901838
 42
0.0587832126300672
 10
15.42289086691044
 20
3.996363591855953
 42
-0.2742964856017739
 10
15.18472462743506
 20
3.804039607762547
 42
0.9305264389495295
 10
15.22774142037502
 20
3.207139699505603
 10
17.37183570346161
 20
3.207139699501961
 42
0.7091516133377716
 10
17.55963907449438
 20
3.741083914300091
 42
-0.2755527391168689
 10
17.45235137855354
 20
4.029076788504355
1001
ACAD
1000
ASC_BOUNDS
1002
{
1070
    19
1005
0
1002
}
  0
LWPOLYLINE
  5
1D5E
102
{ACAD_REACTORS
330
1D5F
102
}
330
1D5A
100
AcDbEntity
  8
Dichtungen
100
AcDbPolyline
 90
        8
 70
     1
 43
0.0
 10
15.00043321093147
 20
1.207139699503938
 42
-0.4142135395961943
 10
14.70043321093146
 20
1.507139699501959
 10
14.70043321093146
 20
2.107139699502013
 42
-0.4142135623730953
 10
15.00043321093147
 20
2.407139699501968
 10
17.19881092576696
 20
2.407139699501968
 42
-0.4142135623730951
 10
17.49881092576692
 20
2.107139699502013
 10
17.49881092576692
 20
1.507139699501959
 42
-0.4142135623730951
 10
17.19881092576696
 20
1.20713969950195
1001
ACAD
1000
ASC_BOUNDS
1002
{
1070
    19
1005
0
1002
}
  0
HATCH
  5
1D5F
330
1D5A
100
AcDbEntity
  8
Dichtungen
100
AcDbHatch
 10
0.0
 20
0.0
 30
0.0
210
0.0
220
0.0
230
1.0
  2
ANSI37
 70
     0
 71
     1
 91
        3
 92
       16
 93
        8
 72
     2
 10
15.00043322259526
 20
1.507139711167734
 40
0.3000000116637966
 50
90.00000222761938
 51
179.9999977720011
 73
     0
 72
     1
 10
14.70043321093146
 20
1.507139699501959
 11
14.70043321093146
 21
2.107139699502013
 72
     2
 10
15.00043321093144
 20
2.107139699501986
 40
0.2999999999999829
 50
180.0000000000052
 51
270.0000000000051
 73
     0
 72
     1
 10
15.00043321093147
 20
2.407139699501968
 11
17.19881092576696
 21
2.407139699501968
 72
     2
 10
17.19881092576696
 20
2.10713969950201
 40
0.2999999999999581
 50
269.9999999999993
 51
359.9999999999994
 73
     0
 72
     1
 10
17.49881092576692
 20
2.107139699502013
 11
17.49881092576692
 21
1.507139699501959
 72
     2
 10
17.19881092576693
 20
1.507139699501935
 40
0.2999999999999865
 50
359.9999999999955
 51
449.9999999999952
 73
     0
 72
     1
 10
17.19881092576696
 20
1.20713969950195
 11
15.00043321093147
 21
1.207139699503938
 97
        1
330
1D5E
 92
       16
 93
       10
 72
     2
 10
26.23847236292275
 20
4.99068723090272
 40
8.838586758526727
 50
173.7540360823825
 51
197.3551668770309
 73
     0
 72
     2
 10
17.55350201588027
 20
7.794857351992658
 40
0.2999999994155687
 50
326.0196570584357
 51
470.950965392209
 73
     1
 72
     2
 10
18.81226365262586
 20
3.133457438146598
 40
5.126901426179836
 50
105.452775114765
 51
115.7243368460295
 73
     1
 72
     2
 10
18.44177999162168
 20
5.815795220430051
 40
2.681444574839003
 50
133.766326074618
 51
176.0774098522468
 73
     1
 72
     2
 10
24.08333721970644
 20
3.541009703157823
 40
8.672409019044824
 50
163.5336067093684
 51
176.9902412774039
 73
     1
 72
     2
 10
15.14170778105459
 20
4.100939638444613
 40
0.3000001288191946
 50
20.40089402209934
 51
81.75597445656284
 73
     0
 72
     2
 10
15.22774142455333
 20
3.507139699804896
 40
0.3000000002992935
 50
98.24401959312579
 51
269.9999992020011
 73
     1
 72
     1
 10
15.22774142037502
 20
3.207139699505603
 11
17.37183570346161
 21
3.207139699501961
 72
     2
 10
17.37216579080072
 20
3.507023600087624
 40
0.2998840822519985
 50
269.9369335808736
 51
411.3066185856293
 73
     1
 72
     2
 10
17.74744244843139
 20
3.975028119038283
 40
0.2999999969878479
 50
128.7564492662854
 51
190.3792095796003
 73
     0
 97
        1
330
1D5D
 92
        1
 93
       69
 72
     1
 10
10.90043321093145
 20
0.2071396995019654
 11
10.90043321093145
 21
0.4887058970224988
 72
     2
 10
9.900433210931458
 20
0.4887058970224897
 40
0.9999999999999911
 50
0.0000000000005216
 51
95.00000000000024
 73
     1
 72
     1
 10
9.813277468183796
 20
1.484900595114225
 11
6.130708616733329
 21
1.162717567958694
 72
     2
 10
6.200433202424297
 20
0.3657618113974215
 40
0.7999999973537047
 50
94.99999940497371
 51
191.4362581817403
 73
     1
 72
     1
 10
5.416316488290646
 20
0.2071396995019654
 11
2.900433210931453
 21
0.2071396995019654
 72
     2
 10
2.900359441924969
 20
-0.2927865314915504
 40
0.4999262364361851
 50
89.99154544723261
 51
180.0084545527674
 73
     1
 72
     1
 10
2.400433210931453
 20
-0.2928603004980346
 11
2.400433210931453
 21
-0.9929340695063617
 72
     2
 10
2.900359447059759
 20
-0.9929340698120407
 40
0.4999262361283062
 50
179.9999999649666
 51
270.0084539642822
 73
     1
 72
     1
 10
2.900433210931453
 20
-1.492860300498435
 11
3.200433210931461
 21
-1.492860300501789
 72
     2
 10
3.200433423872998
 20
-1.692854388898622
 40
0.1999940883969468
 50
269.99993899494
 51
387.745390358798
 73
     0
 72
     1
 10
3.377433210931484
 20
-1.785960300499211
 11
2.423433210931476
 21
-3.599760300499112
 72
     2
 10
2.600432991651626
 20
-3.692866215928411
 40
0.1999940845697924
 50
152.2546078250798
 51
270.0000628208973
 73
     1
 72
     1
 10
2.60043321093144
 20
-3.892860300498083
 11
3.200433210931461
 21
-3.892860300505446
 72
     2
 10
3.200428132612214
 20
-4.092860299052998
 40
0.1999999986120256
 50
270.0014548313096
 51
390.0000007079512
 73
     0
 72
     1
 10
3.373633210931473
 20
-4.192860300499146
 11
2.532325713372415
 21
-5.650007270703213
 72
     2
 10
1.912509337101559
 20
-5.285971878860651
 40
0.7188143757657479
 50
30.42690070757235
 51
148.8757305300265
 73
     0
 72
     1
 10
1.297169574897905
 20
-5.657524141481472
 11
0.0407762970359045
 21
-3.542670300497589
 72
     2
 10
0.3005924720414864
 20
-3.392801913477089
 40
0.2999416246916347
 50
150.0225898422382
 51
270.0160125102316
 73
     0
 72
     1
 10
0.3006762970337036
 20
-3.092860300498783
 11
0.8006762970337033
 21
-3.092860300498783
 72
     2
 10
0.8006375100442532
 20
-2.892821513509347
 40
0.2000387907497827
 50
270.0111094993181
 51
359.9888905009022
 73
     1
 72
     1
 10
1.000676297033689
 20
-2.892860300498028
 11
1.000676297033689
 21
-1.892860300497829
 72
     2
 10
0.8006762937776967
 20
-1.892860303753818
 40
0.2000000032559924
 50
0.000000932772261
 51
89.99999906715762
 73
     1
 72
     1
 10
0.8006762970339309
 20
-1.692860300497826
 11
0.3006762970337036
 21
-1.692860300492823
 72
     2
 10
0.3005924777867619
 20
-1.392918684640486
 40
0.2999416275640596
 50
89.98398858740204
 51
179.947122092866
 73
     0
 72
     1
 10
0.0006509779577186
 20
-1.39319549880396
 11
0.0
 21
0.0
 72
     1
 10
0.0
 20
0.0
 11
-3.399566789068558
 21
0.0
 72
     2
 10
-3.406570120088833
 20
-0.292996668979736
 40
0.2930803553269999
 50
88.63075262739943
 51
181.3692473726006
 73
     1
 72
     1
 10
-3.699566789068569
 20
-0.3000000000000114
 11
-3.699566789066409
 21
-0.5155090412643945
 72
     2
 10
-4.158038036649684
 20
-0.5394831253578579
 40
0.4590976383828233
 50
357.0066522237143
 51
422.9936573923228
 73
     0
 72
     1
 10
-3.949566789068569
 20
-0.948519041263367
 11
-4.499566789066476
 21
-1.266059041266942
 72
     2
 10
-4.599575447383153
 20
-1.092868957517534
 40
0.1999913419311661
 50
59.99570353983963
 51
180.00284092034
 73
     0
 72
     1
 10
-4.799566789068478
 20
-1.092859041264091
 11
-4.799566789068761
 21
-0.2208721947393855
 72
     2
 10
-2.78175814557019
 20
-0.2371908099441078
 40
2.017874629153096
 50
180.4633578106878
 51
264.5366421893194
 73
     0
 72
     1
 10
-2.973878274563841
 20
1.77151720144411
 11
13.47015780512959
 21
3.210183941028556
 72
     2
 10
13.40043322336615
 20
4.007139679983566
 40
0.7999999794721332
 50
274.9999992346551
 51
330.0000007653373
 73
     1
 72
     1
 10
14.09325353395911
 20
3.607139699501956
 11
14.69311847484499
 21
5.960665316471775
 72
     2
 10
18.37751281976855
 20
5.773467199617973
 40
3.689146896486818
 50
182.9086047506742
 51
218.4755487284706
 73
     0
 72
     2
 10
18.71226364941696
 20
4.246087596789291
 40
4.999999993235464
 50
229.8660009180751
 51
278.7770914055631
 73
     0
 72
     2
 10
19.37464015005051
 20
8.672569896569651
 40
0.5246948954488362
 50
281.0512307874219
 51
357.7258605244236
 73
     0
 72
     1
 10
19.89892179940619
 20
8.693390210182784
 11
19.89892179940619
 21
6.467895673255256
 72
     2
 10
19.44892179940621
 20
6.467895673251348
 40
0.4499999999999851
 50
359.9999999995024
 51
540.0000000004975
 73
     0
 72
     1
 10
18.99892179940622
 20
6.467895673255256
 11
18.99892179940622
 21
7.736808938049477
 72
     2
 10
19.19892180309219
 20
7.736808934364065
 40
0.2000000036859753
 50
180.0000010557927
 51
239.9999996134185
 73
     0
 72
     2
 10
18.99892180009018
 20
8.08321909887597
 40
0.2000000004114893
 50
299.9999999287617
 51
559.7581668021047
 73
     1
 72
     2
 10
18.52835787365664
 20
7.91419366572444
 40
0.3000000055011181
 50
340.2418337277447
 51
389.0984653206876
 73
     0
 72
     2
 10
26.17043039802258
 20
4.491520998044279
 40
8.074698161329783
 50
156.0582142860195
 51
195.677946967419
 73
     1
 72
     2
 10
19.20100574467016
 20
2.316982771040245
 40
0.804895872282395
 50
180.5329310005114
 51
262.8682289618158
 73
     1
 72
     1
 10
19.10107654179291
 20
1.518314179176539
 11
20.07938284477149
 21
1.3981916918391
 72
     2
 10
19.94343235081981
 20
0.2182806135157123
 40
1.187717428328794
 50
276.5726912438478
 51
348.8911420318872
 73
     0
 72
     2
 10
20.91812046070135
 20
0.4029036103887417
 40
0.1958325337326028
 50
346.9501057048257
 51
451.5168486654864
 73
     0
 72
     1
 10
20.91293659511229
 20
0.2071396995019654
 11
16.76744322676063
 21
0.2071396995019654
 72
     2
 10
16.61411486120065
 20
-0.9968242840457309
 40
1.213688123599028
 50
82.74228225039609
 51
179.8128679628031
 73
     1
 72
     1
 10
15.40043321093162
 20
-0.9928603004987479
 11
15.40043321093145
 21
-2.091790077359576
 72
     2
 10
15.67727402144397
 20
-2.124669259383529
 40
0.2787864325532949
 50
173.2269551687829
 51
296.4534207284982
 73
     1
 72
     2
 10
15.02833610828587
 20
0.5482954478480496
 40
3.023093278012836
 50
284.817498097853
 51
333.7213520229748
 73
     1
 72
     2
 10
18.05043317784288
 20
-0.9498511345382592
 40
0.3500000264658818
 50
207.1497323626807
 51
379.1247301576648
 73
     0
 72
     2
 10
14.69636611327302
 20
0.2132206607662446
 40
3.900000290503209
 50
19.12473587644632
 51
62.09407746194836
 73
     0
 72
     1
 10
16.52164879140775
 20
-3.233276896294611
 11
15.56002686930634
 21
-3.74255673295309
 72
     2
 10
15.70043320327656
 20
-4.007671909412039
 40
0.2999999923463605
 50
117.9059199780117
 51
180.0000008798021
 73
     1
 72
     1
 10
15.4004332109302
 20
-4.007671914018672
 11
15.40043321093145
 21
-4.991790077359523
 72
     2
 10
15.67727402247325
 20
-5.024669256463059
 40
0.2787864332309721
 50
173.2269557897421
 51
296.4534205190403
 73
     1
 72
     2
 10
14.94060507086841
 20
-2.24440139152444
 40
3.149787072056251
 50
285.8611689880282
 51
332.6776810790003
 73
     1
 72
     2
 10
18.05043317242749
 20
-3.849851119540792
 40
0.3500000148033158
 50
207.1497305826018
 51
379.1247321868344
 73
     0
 72
     2
 10
14.69636635028114
 20
-2.686779542441705
 40
3.899999978307362
 50
19.12473419661581
 51
62.09407905732807
 73
     0
 72
     1
 10
16.52164878633516
 20
-6.133276874434018
 11
15.16206320604112
 21
-6.853320295978534
 72
     2
 10
14.60043458141887
 20
-5.792859753527132
 40
1.200001364203974
 50
62.09393760466097
 51
89.99999974575363
 73
     0
 72
     2
 10
14.60043457069061
 20
-5.792859757971823
 40
1.200001359759283
 50
89.99999923351747
 51
179.9999740962601
 73
     0
 72
     1
 10
13.40043321093145
 20
-5.792860300499096
 11
13.40043321093145
 21
0.2071396995019654
 72
     1
 10
13.40043321093145
 20
0.2071396995019654
 11
10.90043321093145
 21
0.2071396995019654
 97
        1
330
1D5C
 75
     0
 76
     1
 52
0.0
 41
0.4
 77
     0
 78
     2
 53
45.0
 43
13.40043321093145
 44
0.2071396995019654
 45
-0.898025612106915
 46
0.8980256121069153
 79
     0
 53
135.0
 43
13.40043321093145
 44
0.2071396995019654
 45
-0.8980256121069153
 46
-0.898025612106915
 79
     0
 98
        1
 10
-364.2338944434714
 20
-86.49187018556057
  0
ENDBLK
  5
1D60
330
1D5A
100
AcDbEntity
  8
0
100
AcDbBlockEnd
  0
BLOCK
  5
1D64
330
1D61
100
AcDbEntity
  8
0
100
AcDbBlockBegin
  2
A-SS66-19
 70
     0
 10
0.0
 20
0.0
 30
0.0
  3
A-SS66-19
  1

  0
LINE
  5
1D65
102
{ACAD_REACTORS
330
1DA6
102
}
330
1D61
100
AcDbEntity
  8
Aluprofile
100
AcDbLine
 10
-14.39999999346742
 20
27.225749851323
 30
0.0
 11
-14.39999998473467
 21
10.60000000851661
 31
0.0
1001
AcDbBlockRepETag
1070
     1
1071
        0
1005
1D65
  0
LINE
  5
1D66
102
{ACAD_REACTORS
330
1DA6
102
}
330
1D61
100
AcDbEntity
  8
Aluprofile
100
AcDbLine
 10
-15.99999999346733
 20
27.2257498505023
 30
0.0
 11
-15.99999996514145
 21
-28.00019295449229
 31
0.0
1001
AcDbBlockRepETag
1070
     1
1071
        1
1005
1D66
  0
LINE
  5
1D67
102
{ACAD_REACTORS
330
1DA6
102
}
330
1D61
100
AcDbEntity
  8
Aluprofile
100
AcDbLine
 10
-7.799999991568705
 20
-7.500000005363091
 30
0.0
 11
-7.799999991110213
 21
-9.000000004312056
 31
0.0
1001
AcDbBlockRepETag
1070
     1
1071
        2
1005
1D67
  0
LINE
  5
1D68
102
{ACAD_REACTORS
330
1DA6
102
}
330
1D61
100
AcDbEntity
  8
Aluprofile
100
AcDbLine
 10
-6.799999991568705
 20
-7.500000005057499
 30
0.0
 11
-6.799999991110213
 21
-9.000000008968552
 31
0.0
1001
AcDbBlockRepETag
1070
     1
1071
        3
1005
1D68
  0
LINE
  5
1D69
102
{ACAD_REACTORS
330
1DA6
102
}
330
1D61
100
AcDbEntity
  8
Aluprofile
100
AcDbLine
 10
-1.399999991077488
 20
-8.999999998351114
 30
0.0
 11
-1.399999991620346
 21
-7.599999998501886
 31
0.0
1001
AcDbBlockRepETag
1070
     1
1071
        4
1005
1D69
  0
LINE
  5
1D6A
102
{ACAD_REACTORS
330
1DA6
102
}
330
1D61
100
AcDbEntity
  8
Aluprofile
100
AcDbLine
 10
0.0000000090774392
 20
-9.600000003924293
 30
0.0
 11
0.000000007875542
 21
-6.30000000349642
 31
0.0
1001
AcDbBlockRepETag
1070
     1
1071
        5
1005
1D6A
  0
LINE
  5
1D6B
102
{ACAD_REACTORS
330
1DA6
102
}
330
1D61
100
AcDbEntity
  8
Aluprofile
100
AcDbLine
 10
-14.39999998411929
 20
9.000000008516591
 30
0.0
 11
-14.39999997488689
 21
-9.000000004312056
 31
0.0
1001
AcDbBlockRepETag
1070
     1
1071
        6
1005
1D6B
  0
LINE
  5
1D6C
102
{ACAD_REACTORS
330
1DA6
102
}
330
1D61
100
AcDbEntity
  8
Aluprofile
100
AcDbLine
 10
-7.799999991110213
 20
-9.000000004312056
 30
0.0
 11
-14.39999997488689
 21
-9.000000004312056
 31
0.0
1001
AcDbBlockRepETag
1070
     1
1071
        7
1005
1D6C
  0
LINE
  5
1D6D
102
{ACAD_REACTORS
330
1DA6
102
}
330
1D61
100
AcDbEntity
  8
Aluprofile
100
AcDbLine
 10
-0.9999999910000951
 20
-10.60000000431208
 30
0.0
 11
-14.39999997416873
 21
-10.60000000431208
 31
0.0
1001
AcDbBlockRepETag
1070
     1
1071
        8
1005
1D6D
  0
LINE
  5
1D6E
102
{ACAD_REACTORS
330
1DA6
102
}
330
1D61
100
AcDbEntity
  8
Aluprofile
100
AcDbLine
 10
-6.799999991110213
 20
-9.000000008968552
 30
0.0
 11
-1.399999991077488
 21
-8.999999998351114
 31
0.0
1001
AcDbBlockRepETag
1070
     1
1071
        9
1005
1D6E
  0
ARC
  5
1D6F
102
{ACAD_REACTORS
330
1DA6
102
}
330
1D61
100
AcDbEntity
  8
Aluprofile
100
AcDbCircle
 10
-0.9999999910000951
 20
-9.600000004312081
 30
0.0
 40
1.0
100
AcDbArc
 50
270.0
 51
0.0000000222119761
1001
AcDbBlockRepETag
1070
     1
1071
       12
1005
1D6F
  0
LINE
  5
1D70
102
{ACAD_REACTORS
330
1DA6
102
}
330
1D61
100
AcDbEntity
  8
Aluprofile
100
AcDbLine
 10
-14.39999997416873
 20
-10.60000000431208
 30
0.0
 11
-14.39999996462859
 21
-29.00019295397934
 31
0.0
1001
AcDbBlockRepETag
1070
     1
1071
       13
1005
1D70
  0
LINE
  5
1D71
102
{ACAD_REACTORS
330
1DA6
102
}
330
1D61
100
AcDbEntity
  8
Aluprofile
100
AcDbLine
 10
-14.39999996462859
 20
-29.00019295397934
 30
0.0
 11
-14.99999996514145
 21
-29.00019295397934
 31
0.0
1001
AcDbBlockRepETag
1070
     1
1071
       14
1005
1D71
  0
ARC
  5
1D72
102
{ACAD_REACTORS
330
1DA6
102
}
330
1D61
100
AcDbEntity
  8
Aluprofile
100
AcDbCircle
 10
-14.99999996514145
 20
-28.00019295397934
 30
0.0
 40
1.0
100
AcDbArc
 50
180.0000000293836
 51
270.0
1001
AcDbBlockRepETag
1070
     1
1071
       15
1005
1D72
  0
LINE
  5
1D73
102
{ACAD_REACTORS
330
1DA6
102
}
330
1D61
100
AcDbEntity
  8
Aluprofile
100
AcDbLine
 10
-7.799999988511784
 20
9.000000005551754
 30
0.0
 11
-14.39999998411929
 21
9.000000008516591
 31
0.0
1001
AcDbBlockRepETag
1070
     1
1071
       16
1005
1D73
  0
LINE
  5
1D74
102
{ACAD_REACTORS
330
1DA6
102
}
330
1D61
100
AcDbEntity
  8
Aluprofile
100
AcDbLine
 10
-1.599999989908154
 20
10.60000000258682
 30
0.0
 11
-14.39999998473467
 21
10.60000000851661
 31
0.0
1001
AcDbBlockRepETag
1070
     1
1071
       17
1005
1D74
  0
ARC
  5
1D75
102
{ACAD_REACTORS
330
1DA6
102
}
330
1D61
100
AcDbEntity
  8
Aluprofile
100
AcDbCircle
 10
-7.299999991568705
 20
-7.500000005210296
 30
0.0
 40
0.5
100
AcDbArc
 50
0.0000000175090299
 51
180.000000017509
1001
AcDbBlockRepETag
1070
     1
1071
       18
1005
1D75
  0
ARC
  5
1D76
102
{ACAD_REACTORS
330
1DA6
102
}
330
1D61
100
AcDbEntity
  8
Aluprofile
100
AcDbCircle
 10
-1.49999999162037
 20
-7.599999998540651
 30
0.0
 40
0.0999999999999375
100
AcDbArc
 50
0.0000000222119761
 51
90.00000001553534
1001
AcDbBlockRepETag
1070
     1
1071
       19
1005
1D76
  0
ARC
  5
1D77
102
{ACAD_REACTORS
330
1DA6
102
}
330
1D61
100
AcDbEntity
  8
Aluprofile
100
AcDbCircle
 10
-1.499999991674599
 20
-7.399999998919867
 30
0.0
 40
0.1000000006743562
100
AcDbArc
 50
180.0000000184991
 51
270.0000000155354
1001
AcDbBlockRepETag
1070
     1
1071
       20
1005
1D77
  0
LINE
  5
1D78
102
{ACAD_REACTORS
330
1DA6
102
}
330
1D61
100
AcDbEntity
  8
Aluprofile
100
AcDbLine
 10
-1.59999999167462
 20
-7.399999998952266
 30
0.0
 11
-1.599999992030234
 21
-6.300000004065196
 31
0.0
1001
AcDbBlockRepETag
1070
     1
1071
       21
1005
1D78
  0
ARC
  5
1D79
102
{ACAD_REACTORS
330
1DA6
102
}
330
1D61
100
AcDbEntity
  8
Aluprofile
100
AcDbCircle
 10
-0.7999999917108199
 20
-6.300000003806557
 30
0.0
 40
0.7999999838156102
100
AcDbArc
 50
0.0000000222119761
 51
180.0000000185186
1001
AcDbBlockRepETag
1070
     1
1071
       22
1005
1D79
  0
ARC
  5
1D7A
102
{ACAD_REACTORS
330
1DA6
102
}
330
1D61
100
AcDbEntity
  8
Aluprofile
100
AcDbCircle
 10
-7.299999990176727
 20
7.500000004043357
 30
0.0
 40
0.5
100
AcDbArc
 50
179.9999999363995
 51
359.9999999363995
1001
AcDbBlockRepETag
1070
     1
1071
       23
1005
1D7A
  0
LINE
  5
1D7B
102
{ACAD_REACTORS
330
1DA6
102
}
330
1D61
100
AcDbEntity
  8
Aluprofile
100
AcDbLine
 10
-6.799999988511784
 20
9.000000005102577
 30
0.0
 11
-6.799999990176727
 21
7.500000003488452
 31
0.0
1001
AcDbBlockRepETag
1070
     1
1071
       24
1005
1D7B
  0
LINE
  5
1D7C
102
{ACAD_REACTORS
330
1DA6
102
}
330
1D61
100
AcDbEntity
  8
Aluprofile
100
AcDbLine
 10
-7.799999988511784
 20
9.000000005551754
 30
0.0
 11
-7.799999990176727
 21
7.500000004598375
 31
0.0
1001
AcDbBlockRepETag
1070
     1
1071
       25
1005
1D7C
  0
LINE
  5
1D7D
102
{ACAD_REACTORS
330
1DA6
102
}
330
1D61
100
AcDbEntity
  8
Aluprofile
100
AcDbLine
 10
-1.599999990295598
 20
7.400000001968436
 30
0.0
 11
-1.599999991573099
 21
6.300000004784891
 31
0.0
1001
AcDbBlockRepETag
1070
     1
1071
       26
1005
1D7D
  0
ARC
  5
1D7E
102
{ACAD_REACTORS
330
1DA6
102
}
330
1D61
100
AcDbEntity
  8
Aluprofile
100
AcDbCircle
 10
-1.499999991076037
 20
7.600000001729625
 30
0.0
 40
0.0999999986512989
100
AcDbArc
 50
270.0000002235984
 51
359.9999999742641
1001
AcDbBlockRepETag
1070
     1
1071
       27
1005
1D7E
  0
ARC
  5
1D7F
102
{ACAD_REACTORS
330
1DA6
102
}
330
1D61
100
AcDbEntity
  8
Aluprofile
100
AcDbCircle
 10
-1.499999990295575
 20
7.400000001852246
 30
0.0
 40
0.0999999986512989
100
AcDbArc
 50
90.00000022360486
 51
179.9999999334552
1001
AcDbBlockRepETag
1070
     1
1071
       28
1005
1D7F
  0
LINE
  5
1D80
102
{ACAD_REACTORS
330
1DA6
102
}
330
1D61
100
AcDbEntity
  8
Aluprofile
100
AcDbLine
 10
-1.39999999044721
 20
9.000000001668324
 30
0.0
 11
-1.399999991076126
 21
7.600000001684719
 31
0.0
1001
AcDbBlockRepETag
1070
     1
1071
       29
1005
1D80
  0
LINE
  5
1D81
102
{ACAD_REACTORS
330
1DA6
102
}
330
1D61
100
AcDbEntity
  8
Aluprofile
100
AcDbLine
 10
-6.800007887445302
 20
9.000000005102577
 30
0.0
 11
-5.392820289672726
 21
8.999999999107188
 31
0.0
1001
AcDbBlockRepETag
1070
     1
1071
       30
1005
1D81
  0
LINE
  5
1D82
102
{ACAD_REACTORS
330
1DA6
102
}
330
1D61
100
AcDbEntity
  8
Aluprofile
100
AcDbLine
 10
-1.39999999044721
 20
9.000000001668324
 30
0.0
 11
-6.799999988511784
 21
9.000000005102577
 31
0.0
1001
AcDbBlockRepETag
1070
     1
1071
       31
1005
1D82
  0
LINE
  5
1D83
102
{ACAD_REACTORS
330
1DA6
102
}
330
1D61
100
AcDbEntity
  8
Aluprofile
100
AcDbLine
 10
-1.599999988201147
 20
14.00000000330576
 30
0.0
 11
-1.599999989908154
 21
10.60000000258682
 31
0.0
1001
AcDbBlockRepETag
1070
     1
1071
       34
1005
1D83
  0
LINE
  5
1D84
102
{ACAD_REACTORS
330
1DA6
102
}
330
1D61
100
AcDbEntity
  8
Aluprofile
100
AcDbLine
 10
1.600000011798897
 20
14.00000000204792
 30
0.0
 11
1.133692353546166
 21
15.00000000225734
 31
0.0
1001
AcDbBlockRepETag
1070
     1
1071
       35
1005
1D84
  0
LINE
  5
1D85
102
{ACAD_REACTORS
330
1DA6
102
}
330
1D61
100
AcDbEntity
  8
Aluprofile
100
AcDbLine
 10
1.600000011798897
 20
14.00000000204792
 30
0.0
 11
0.0000000117988748
 21
14.00000000276665
 31
0.0
1001
AcDbBlockRepETag
1070
     1
1071
       36
1005
1D85
  0
LINE
  5
1D86
102
{ACAD_REACTORS
330
1DA6
102
}
330
1D61
100
AcDbEntity
  8
Aluprofile
100
AcDbLine
 10
1.133692353546166
 20
15.00000000225734
 30
0.0
 11
-0.5999999877519713
 21
15.00000000285647
 31
0.0
1001
AcDbBlockRepETag
1070
     1
1071
       37
1005
1D86
  0
LINE
  5
1D87
102
{ACAD_REACTORS
330
1DA6
102
}
330
1D61
100
AcDbEntity
  8
Aluprofile
100
AcDbLine
 10
0.0000000117988748
 20
14.00000000276665
 30
0.0
 11
0.0000000083399527
 21
6.300000003496362
 31
0.0
1001
AcDbBlockRepETag
1070
     1
1071
       38
1005
1D87
  0
ARC
  5
1D88
102
{ACAD_REACTORS
330
1DA6
102
}
330
1D61
100
AcDbEntity
  8
Aluprofile
100
AcDbCircle
 10
-0.7999999911226042
 20
6.300000003855728
 30
0.0
 40
0.7999999838156102
100
AcDbArc
 50
179.9999999334552
 51
359.9999999742641
1001
AcDbBlockRepETag
1070
     1
1071
       39
1005
1D88
  0
ARC
  5
1D89
102
{ACAD_REACTORS
330
1DA6
102
}
330
1D61
100
AcDbEntity
  8
Aluprofile
100
AcDbCircle
 10
-0.5999999882011479
 20
14.00000000285646
 30
0.0
 40
1.0
100
AcDbArc
 50
89.99999997425756
 51
179.9999999742575
1001
AcDbBlockRepETag
1070
     1
1071
       40
1005
1D89
  0
ARC
  5
1D8A
102
{ACAD_REACTORS
330
1DA6
102
}
330
1D61
100
AcDbEntity
  8
Aluprofile
100
AcDbCircle
 10
-10.99999999346732
 20
27.22574985306684
 30
0.0
 40
4.999999990765248
100
AcDbArc
 50
109.9999999999964
 51
180.0000001181859
1001
AcDbBlockRepETag
1070
     1
1071
       41
1005
1D8A
  0
ARC
  5
1D8B
102
{ACAD_REACTORS
330
1DA6
102
}
330
1D61
100
AcDbEntity
  8
Aluprofile
100
AcDbCircle
 10
-10.99999999346732
 20
27.22574985306684
 30
0.0
 40
3.400000000000003
100
AcDbArc
 50
109.9999999999964
 51
180.0000000293901
1001
AcDbBlockRepETag
1070
     1
1071
       42
1005
1D8B
  0
LINE
  5
1D8C
102
{ACAD_REACTORS
330
1DA6
102
}
330
1D61
100
AcDbEntity
  8
Aluprofile
100
AcDbLine
 10
-2.799999995317078
 20
33.40006579778876
 30
0.0
 11
-2.799999995091751
 21
29.40000000794153
 31
0.0
1001
AcDbBlockRepETag
1070
     1
1071
       43
1005
1D8C
  0
LINE
  5
1D8D
102
{ACAD_REACTORS
330
1DA6
102
}
330
1D61
100
AcDbEntity
  8
Aluprofile
100
AcDbLine
 10
-1.599999995365805
 20
34.26527448089618
 30
0.0
 11
-1.599999995103075
 21
29.60000000800548
 31
0.0
1001
AcDbBlockRepETag
1070
     1
1071
       44
1005
1D8D
  0
LINE
  5
1D8E
102
{ACAD_REACTORS
330
1DA6
102
}
330
1D61
100
AcDbEntity
  8
Aluprofile
100
AcDbLine
 10
1.600000004897879
 20
30.40000000810434
 30
0.0
 11
1.600000004935963
 21
29.20000000810441
 31
0.0
1001
AcDbBlockRepETag
1070
     1
1071
       45
1005
1D8E
  0
LINE
  5
1D8F
102
{ACAD_REACTORS
330
1DA6
102
}
330
1D61
100
AcDbEntity
  8
Aluprofile
100
AcDbLine
 10
2.000000004895694
 20
30.40000000810434
 30
0.0
 11
3.000000004935941
 21
29.4000000080641
 31
0.0
1001
AcDbBlockRepETag
1070
     1
1071
       46
1005
1D8F
  0
LINE
  5
1D90
102
{ACAD_REACTORS
330
1DA6
102
}
330
1D61
100
AcDbEntity
  8
Aluprofile
100
AcDbLine
 10
0.0215390358663399
 20
29.60000000806733
 30
0.0
 11
0.7143593588297108
 21
29.20000000810441
 31
0.0
1001
AcDbBlockRepETag
1070
     1
1071
       47
1005
1D90
  0
LINE
  5
1D91
102
{ACAD_REACTORS
330
1DA6
102
}
330
1D61
100
AcDbEntity
  8
Aluprofile
100
AcDbLine
 10
1.600000004935963
 20
29.20000000810441
 30
0.0
 11
0.7143593588297108
 21
29.20000000810441
 31
0.0
1001
AcDbBlockRepETag
1070
     1
1071
       48
1005
1D91
  0
LINE
  5
1D92
102
{ACAD_REACTORS
330
1DA6
102
}
330
1D61
100
AcDbEntity
  8
Aluprofile
100
AcDbLine
 10
-1.599999995103075
 20
29.60000000800548
 30
0.0
 11
0.0215390358663399
 21
29.60000000806733
 31
0.0
1001
AcDbBlockRepETag
1070
     1
1071
       49
1005
1D92
  0
ARC
  5
1D93
102
{ACAD_REACTORS
330
1DA6
102
}
330
1D61
100
AcDbEntity
  8
Aluprofile
100
AcDbCircle
 10
2.700000004970206
 20
28.30000000810443
 30
0.0
 40
0.2999999951720156
100
AcDbArc
 50
270.0000000392585
 51
0.000000002182115
1001
AcDbBlockRepETag
1070
     1
1071
       50
1005
1D93
  0
LINE
  5
1D94
102
{ACAD_REACTORS
330
1DA6
102
}
330
1D61
100
AcDbEntity
  8
Aluprofile
100
AcDbLine
 10
0.392820327862978
 20
28.0000000081329
 30
0.0
 11
2.700000005175865
 21
28.00000000971383
 31
0.0
1001
AcDbBlockRepETag
1070
     1
1071
       51
1005
1D94
  0
LINE
  5
1D95
102
{ACAD_REACTORS
330
1DA6
102
}
330
1D61
100
AcDbEntity
  8
Aluprofile
100
AcDbLine
 10
-0.2999999950297933
 20
28.40000000805512
 30
0.0
 11
0.392820327862978
 21
28.0000000081329
 31
0.0
1001
AcDbBlockRepETag
1070
     1
1071
       52
1005
1D95
  0
LINE
  5
1D96
102
{ACAD_REACTORS
330
1DA6
102
}
330
1D61
100
AcDbEntity
  8
Aluprofile
100
AcDbLine
 10
-1.799999995053667
 20
28.40000000799793
 30
0.0
 11
-0.2999999950297933
 21
28.40000000805512
 31
0.0
1001
AcDbBlockRepETag
1070
     1
1071
       53
1005
1D96
  0
ARC
  5
1D97
102
{ACAD_REACTORS
330
1DA6
102
}
330
1D61
100
AcDbEntity
  8
Aluprofile
100
AcDbCircle
 10
-1.79999999509175
 20
29.40000000799793
 30
0.0
 40
1.0
100
AcDbArc
 50
180.0000000032243
 51
270.0000000021821
1001
AcDbBlockRepETag
1070
     1
1071
       54
1005
1D97
  0
LINE
  5
1D98
102
{ACAD_REACTORS
330
1DA6
102
}
330
1D61
100
AcDbEntity
  8
Aluprofile
100
AcDbLine
 10
3.000000004935941
 20
29.4000000080641
 30
0.0
 11
3.000000004970272
 21
28.30000000811592
 31
0.0
1001
AcDbBlockRepETag
1070
     1
1071
       55
1005
1D98
  0
ARC
  5
1D99
102
{ACAD_REACTORS
330
1DA6
102
}
330
1D61
100
AcDbEntity
  8
Aluprofile
100
AcDbCircle
 10
-3.09999999531703
 20
33.40006579777193
 30
0.0
 40
0.3000000000000114
100
AcDbArc
 50
0.0000000032243191
 51
109.9999999999964
1001
AcDbBlockRepETag
1070
     1
1071
       56
1005
1D99
  0
LINE
  5
1D9A
102
{ACAD_REACTORS
330
1DA6
102
}
330
1D61
100
AcDbEntity
  8
Aluprofile
100
AcDbLine
 10
-3.202606038314796
 20
33.68197358400764
 30
0.0
 11
-12.1628684807747
 21
30.42070476373894
 31
0.0
1001
AcDbBlockRepETag
1070
     1
1071
       57
1005
1D9A
  0
LINE
  5
1D9B
102
{ACAD_REACTORS
330
1DA6
102
}
330
1D61
100
AcDbEntity
  8
Aluprofile
100
AcDbLine
 10
3.000000004886486
 20
34.80000000805066
 30
0.0
 11
3.000000004886486
 21
35.49999998439429
 31
0.0
1001
AcDbBlockRepETag
1070
     1
1071
       58
1005
1D9B
  0
ARC
  5
1D9C
102
{ACAD_REACTORS
330
1DA6
102
}
330
1D61
100
AcDbEntity
  8
Aluprofile
100
AcDbCircle
 10
1.100000004916978
 20
34.71590522727988
 30
0.0
 40
0.5
100
AcDbArc
 50
0.0
 51
110.0000000000037
1001
AcDbBlockRepETag
1070
     1
1071
       59
1005
1D9C
  0
LINE
  5
1D9D
102
{ACAD_REACTORS
330
1DA6
102
}
330
1D61
100
AcDbEntity
  8
Aluprofile
100
AcDbLine
 10
2.000000004919002
 20
33.80000000810444
 30
0.0
 11
1.600000004916975
 21
33.80000000810444
 31
0.0
1001
AcDbBlockRepETag
1070
     1
1071
       60
1005
1D9D
  0
LINE
  5
1D9E
102
{ACAD_REACTORS
330
1DA6
102
}
330
1D61
100
AcDbEntity
  8
Aluprofile
100
AcDbLine
 10
2.000000004919002
 20
33.80000000810444
 30
0.0
 11
3.000000004886486
 21
34.80000000805066
 31
0.0
1001
AcDbBlockRepETag
1070
     1
1071
       61
1005
1D9E
  0
LINE
  5
1D9F
102
{ACAD_REACTORS
330
1DA6
102
}
330
1D61
100
AcDbEntity
  8
Aluprofile
100
AcDbLine
 10
1.600000004916975
 20
33.80000000810444
 30
0.0
 11
1.600000004916975
 21
34.71590522727988
 31
0.0
1001
AcDbBlockRepETag
1070
     1
1071
       62
1005
1D9F
  0
LINE
  5
1DA0
102
{ACAD_REACTORS
330
1DA6
102
}
330
1D61
100
AcDbEntity
  8
Aluprofile
100
AcDbLine
 10
2.000000004895694
 20
30.40000000810434
 30
0.0
 11
1.600000004897879
 21
30.40000000810434
 31
0.0
1001
AcDbBlockRepETag
1070
     1
1071
       63
1005
1DA0
  0
ARC
  5
1DA1
102
{ACAD_REACTORS
330
1DA6
102
}
330
1D61
100
AcDbEntity
  8
Aluprofile
100
AcDbCircle
 10
1.500000004703679
 20
35.49999998439429
 30
0.0
 40
1.50000001481976
100
AcDbArc
 50
0.0
 51
109.9898129301084
1001
AcDbBlockRepETag
1070
     1
1071
       64
1005
1DA1
  0
LINE
  5
1DA2
102
{ACAD_REACTORS
330
1DA6
102
}
330
1D61
100
AcDbEntity
  8
Aluprofile
100
AcDbLine
 10
0.9872204081626703
 20
36.90963013322821
 30
0.0
 11
-12.71010071009573
 21
31.92421295699646
 31
0.0
1001
AcDbBlockRepETag
1070
     1
1071
       65
1005
1DA2
  0
LINE
  5
1DA3
102
{ACAD_REACTORS
330
1DA6
102
}
330
1D61
100
AcDbEntity
  8
Aluprofile
100
AcDbLine
 10
0.9289899332541152
 20
35.18575153767287
 30
0.0
 11
-1.599999995365805
 21
34.26527448089618
 31
0.0
1001
AcDbBlockRepETag
1070
     1
1071
       66
1005
1DA3
  0
LINE
  5
1DA4
330
1D61
100
AcDbEntity
  8
Aluprofile
100
AcDbLine
 10
0.0000000012049668
 20
-1.0
 30
0.0
 11
-0.0000000012049668
 21
1.0
 31
0.0
1001
AcDbBlockRepETag
1070
     1
1071
       68
1005
1DA4
  0
LINE
  5
1DA5
330
1D61
100
AcDbEntity
  8
Aluprofile
100
AcDbLine
 10
-1.0
 20
0.0
 30
0.0
 11
1.0
 21
0.0
 31
0.0
1001
AcDbBlockRepETag
1070
     1
1071
       69
1005
1DA5
  0
HATCH
  5
1DA6
330
1D61
100
AcDbEntity
  8
Aluprofile
100
AcDbHatch
 10
0.0
 20
0.0
 30
0.0
210
0.0
220
0.0
230
1.0
  2
DOLMIT
 70
     0
 71
     1
 91
        4
 92
        1
 93
       62
 72
     1
 10
0.9289899332541152
 20
35.18575153767287
 11
-1.599999995365805
 21
34.26527448089618
 72
     1
 10
-1.599999995365805
 20
34.26527448089618
 11
-1.599999995103075
 21
29.60000000800548
 72
     1
 10
-1.599999995103075
 20
29.60000000800548
 11
0.0215390358663399
 21
29.60000000806733
 72
     1
 10
0.0215390358663399
 20
29.60000000806733
 11
0.7143593588297108
 21
29.20000000810441
 72
     1
 10
0.7143593588297108
 20
29.20000000810441
 11
1.600000004935963
 21
29.20000000810441
 72
     1
 10
1.600000004935963
 20
29.20000000810441
 11
1.600000004897879
 21
30.40000000810434
 72
     1
 10
1.600000004897879
 20
30.40000000810434
 11
2.000000004895694
 21
30.40000000810434
 72
     1
 10
2.000000004895694
 20
30.40000000810434
 11
3.000000004935941
 21
29.4000000080641
 72
     1
 10
3.000000004935941
 20
29.4000000080641
 11
3.000000004970272
 21
28.30000000811592
 72
     2
 10
2.700000004970206
 20
28.30000000810443
 40
0.2999999951720156
 50
359.9999999978179
 51
449.9999999607415
 73
     0
 72
     1
 10
2.700000005175865
 20
28.00000000971383
 11
0.392820327862978
 21
28.0000000081329
 72
     1
 10
0.392820327862978
 20
28.0000000081329
 11
-0.2999999950297933
 21
28.40000000805512
 72
     1
 10
-0.2999999950297933
 20
28.40000000805512
 11
-1.799999995053667
 21
28.40000000799793
 72
     2
 10
-1.79999999509175
 20
29.40000000799793
 40
1.0
 50
89.99999999781788
 51
179.9999999967757
 73
     0
 72
     1
 10
-2.799999995091751
 20
29.40000000794153
 11
-2.799999995317078
 21
33.40006579778876
 72
     2
 10
-3.09999999531703
 20
33.40006579777193
 40
0.3000000000000114
 50
0.0000000032243191
 51
109.9999999999964
 73
     1
 72
     1
 10
-3.202606038314796
 20
33.68197358400764
 11
-12.1628684807747
 21
30.42070476373894
 72
     2
 10
-10.99999999346732
 20
27.22574985306684
 40
3.400000000000003
 50
109.9999999999964
 51
180.0000000293901
 73
     1
 72
     1
 10
-14.39999999346742
 20
27.225749851323
 11
-14.39999998473467
 21
10.60000000851661
 72
     1
 10
-14.39999998473467
 20
10.60000000851661
 11
-1.599999989908154
 21
10.60000000258682
 72
     1
 10
-1.599999989908154
 20
10.60000000258682
 11
-1.599999988201147
 21
14.00000000330576
 72
     2
 10
-0.5999999882011479
 20
14.00000000285646
 40
1.0
 50
180.0000000257425
 51
270.0000000257424
 73
     0
 72
     1
 10
-0.5999999877519713
 20
15.00000000285647
 11
1.133692353546166
 21
15.00000000225734
 72
     1
 10
1.133692353546166
 20
15.00000000225734
 11
1.600000011798897
 21
14.00000000204792
 72
     1
 10
1.600000011798897
 20
14.00000000204792
 11
0.0000000117988748
 21
14.00000000276665
 72
     1
 10
0.0000000117988748
 20
14.00000000276665
 11
0.0000000083399527
 21
6.300000003496362
 72
     2
 10
-0.7999999911226042
 20
6.300000003855728
 40
0.7999999838156102
 50
0.000000025735878
 51
180.0000000665448
 73
     0
 72
     1
 10
-1.599999991573099
 20
6.300000004784891
 11
-1.599999990295598
 21
7.400000001968436
 72
     2
 10
-1.499999990295575
 20
7.400000001852246
 40
0.0999999986512989
 50
180.0000000665448
 51
269.9999997763951
 73
     0
 72
     2
 10
-1.499999991076037
 20
7.600000001729625
 40
0.0999999986512989
 50
270.0000002235984
 51
359.9999999742641
 73
     1
 72
     1
 10
-1.399999991076126
 20
7.600000001684719
 11
-1.39999999044721
 21
9.000000001668324
 72
     1
 10
-1.39999999044721
 20
9.000000001668324
 11
-6.799999988511784
 21
9.000000005102577
 72
     1
 10
-6.799999988511784
 20
9.000000005102577
 11
-6.799999990176727
 21
7.500000003488452
 72
     2
 10
-7.299999990176727
 20
7.500000004043357
 40
0.5
 50
0.0000000636004579
 51
180.0000000636005
 73
     0
 72
     1
 10
-7.799999990176727
 20
7.500000004598375
 11
-7.799999988511784
 21
9.000000005551754
 72
     1
 10
-7.799999988511784
 20
9.000000005551754
 11
-14.39999998411929
 21
9.000000008516591
 72
     1
 10
-14.39999998411929
 20
9.000000008516591
 11
-14.39999997488689
 21
-9.000000004312058
 72
     1
 10
-14.39999997488689
 20
-9.000000004312056
 11
-7.799999991110213
 21
-9.000000004312056
 72
     1
 10
-7.799999991110213
 20
-9.000000004312056
 11
-7.799999991568705
 21
-7.500000005363091
 72
     2
 10
-7.299999991568705
 20
-7.500000005210296
 40
0.5
 50
179.999999982491
 51
359.999999982491
 73
     0
 72
     1
 10
-6.799999991568705
 20
-7.500000005057499
 11
-6.799999991110213
 21
-9.000000008968552
 72
     1
 10
-6.799999991110213
 20
-9.000000008968552
 11
-1.399999991077487
 21
-8.999999998351114
 72
     1
 10
-1.399999991077488
 20
-8.999999998351114
 11
-1.399999991620346
 21
-7.599999998501886
 72
     2
 10
-1.49999999162037
 20
-7.599999998540651
 40
0.0999999999999375
 50
0.0000000222119761
 51
90.00000001553534
 73
     1
 72
     2
 10
-1.499999991674599
 20
-7.399999998919867
 40
0.1000000006743562
 50
89.9999999844646
 51
179.9999999815009
 73
     0
 72
     1
 10
-1.59999999167462
 20
-7.399999998952266
 11
-1.599999992030234
 21
-6.300000004065196
 72
     2
 10
-0.7999999917108199
 20
-6.300000003806557
 40
0.7999999838156102
 50
179.9999999814814
 51
359.999999977788
 73
     0
 72
     1
 10
0.000000007875542
 20
-6.30000000349642
 11
0.0000000090774392
 21
-9.600000003924293
 72
     2
 10
-0.9999999910000951
 20
-9.600000004312081
 40
1.0
 50
359.999999977788
 51
450.0
 73
     0
 72
     1
 10
-0.9999999910000951
 20
-10.60000000431208
 11
-14.39999997416873
 21
-10.60000000431208
 72
     1
 10
-14.39999997416873
 20
-10.60000000431208
 11
-14.39999996462859
 21
-29.00019295397934
 72
     1
 10
-14.39999996462859
 20
-29.00019295397934
 11
-14.99999996514145
 21
-29.00019295397934
 72
     2
 10
-14.99999996514145
 20
-28.00019295397934
 40
1.0
 50
90.0
 51
179.9999999706164
 73
     0
 72
     1
 10
-15.99999996514145
 20
-28.00019295449229
 11
-15.99999999346733
 21
27.2257498505023
 72
     2
 10
-10.99999999346732
 20
27.22574985306684
 40
4.999999990765248
 50
179.9999998818141
 51
250.0000000000036
 73
     0
 72
     1
 10
-12.71010071009573
 20
31.92421295699646
 11
0.9872204081626705
 21
36.90963013322821
 72
     2
 10
1.500000004703679
 20
35.49999998439429
 40
1.50000001481976
 50
250.0101870698916
 51
360.0
 73
     0
 72
     1
 10
3.000000004886486
 20
35.49999998439429
 11
3.000000004886486
 21
34.80000000805066
 72
     1
 10
3.000000004886486
 20
34.80000000805066
 11
2.000000004919002
 21
33.80000000810444
 72
     1
 10
2.000000004919002
 20
33.80000000810444
 11
1.600000004916975
 21
33.80000000810444
 72
     1
 10
1.600000004916975
 20
33.80000000810444
 11
1.600000004916975
 21
34.71590522727988
 72
     2
 10
1.100000004916978
 20
34.71590522727988
 40
0.5
 50
0.0
 51
110.0000000000037
 73
     1
 97
       62
330
1DA3
330
1D8D
330
1D92
330
1D90
330
1D91
330
1D8E
330
1DA0
330
1D8F
330
1D98
330
1D93
330
1D94
330
1D95
330
1D96
330
1D97
330
1D8C
330
1D99
330
1D9A
330
1D8B
330
1D65
330
1D74
330
1D83
330
1D89
330
1D86
330
1D84
330
1D85
330
1D87
330
1D88
330
1D7D
330
1D7F
330
1D7E
330
1D80
330
1D82
330
1D7B
330
1D7A
330
1D7C
330
1D73
330
1D6B
330
1D6C
330
1D67
330
1D75
330
1D68
330
1D6E
330
1D69
330
1D76
330
1D77
330
1D78
330
1D79
330
1D6A
330
1D6F
330
1D6D
330
1D70
330
1D71
330
1D72
330
1D66
330
1D8A
330
1DA2
330
1DA1
330
1D9B
330
1D9E
330
1D9D
330
1D9F
330
1D9C
 92
       49
 93
        1
 72
     1
 10
-6.800007887445302
 20
9.000000005102577
 11
-5.392820289672726
 21
8.999999999107188
 97
       63
330
1DA3
330
1D8D
330
1D92
330
1D90
330
1D91
330
1D8E
330
1DA0
330
1D8F
330
1D98
330
1D93
330
1D94
330
1D95
330
1D96
330
1D97
330
1D8C
330
1D99
330
1D9A
330
1D8B
330
1D65
330
1D74
330
1D83
330
1D89
330
1D86
330
1D84
330
1D85
330
1D87
330
1D88
330
1D7D
330
1D7F
330
1D7E
330
1D80
330
1D82
330
1D7B
330
1D7A
330
1D7C
330
1D73
330
1D6B
330
1D6C
330
1D67
330
1D75
330
1D68
330
1D6E
330
1D69
330
1D76
330
1D77
330
1D78
330
1D79
330
1D6A
330
1D6F
330
1D6D
330
1D70
330
1D71
330
1D72
330
1D66
330
1D8A
330
1DA2
330
1DA1
330
1D9B
330
1D9E
330
1D9D
330
1D9F
330
1D9C
330
1D81
 92
       17
 93
        4
 72
     1
 10
-6.199999991425896
 20
-10.60000000431208
 11
-2.199999991425896
 21
-10.60000000431208
 72
     1
 10
-2.199999991425896
 20
-10.60000000431208
 11
-2.199999991425896
 21
-9.000000007788829
 72
     1
 10
-2.199999991425896
 20
-9.000000007788829
 11
-6.199999991425896
 21
-9.000000007788829
 72
     1
 10
-6.199999991425896
 20
-9.000000007788829
 11
-6.199999991425896
 21
-10.60000000431208
 97
        1
330
1DA7
 92
       17
 93
        4
 72
     1
 10
-6.199999989293017
 20
9.000000004720991
 11
-2.199999989293019
 21
9.000000004720991
 72
     1
 10
-2.199999989293019
 20
9.000000004720991
 11
-2.199999989293019
 21
10.60000000471788
 72
     1
 10
-2.199999989293019
 20
10.60000000471788
 11
-6.199999989293017
 21
10.60000000471788
 72
     1
 10
-6.199999989293017
 20
10.60000000471788
 11
-6.199999989293017
 21
9.000000004720991
 97
        1
330
1DA8
 75
     0
 76
     1
 52
30.0
 41
0.2
 77
     0
 78
     2
 53
30.0
 43
0.0
 44
0.0
 45
-0.6349999999999999
 46
1.099852262806237
 79
     0
 53
74.99999999999999
 43
0.0
 44
0.0
 45
-3.469702160612961
 46
0.9297038919127656
 79
     2
 49
1.796051999999999
 49
-3.592099999999998
 98
        2
 10
0.0
 20
0.0
 10
0.0
 20
0.0
1001
ACAD
1010
0.0
1020
0.0
1030
0.0
1001
AcDbBlockRepETag
1070
     1
1071
       70
1005
1DA6
  0
LWPOLYLINE
  5
1DA7
102
{ACAD_REACTORS
330
1DA6
102
}
330
1D61
100
AcDbEntity
  8
Aluprofile
100
AcDbPolyline
 90
        4
 70
     1
 43
0.0
 10
-6.199999991425896
 20
-10.60000000431208
 10
-2.199999991425896
 20
-10.60000000431208
 10
-2.199999991425896
 20
-9.000000007788829
 10
-6.199999991425896
 20
-9.000000007788829
1001
AcDbBlockRepETag
1070
     1
1071
       71
1005
1DA7
  0
LWPOLYLINE
  5
1DA8
102
{ACAD_REACTORS
330
1DA6
102
}
330
1D61
100
AcDbEntity
  8
Aluprofile
100
AcDbPolyline
 90
        4
 70
     1
 43
0.0
 10
-6.199999989293017
 20
9.000000004720991
 10
-2.199999989293019
 20
9.000000004720991
 10
-2.199999989293019
 20
10.60000000471788
 10
-6.199999989293017
 20
10.60000000471788
1001
AcDbBlockRepETag
1070
     1
1071
       72
1005
1DA8
  0
ENDBLK
  5
1DA9
330
1D61
100
AcDbEntity
  8
0
100
AcDbBlockEnd
  0
BLOCK
  5
1DAC
330
1DAA
100
AcDbEntity
  8
0
100
AcDbBlockBegin
  2
C-MEH40
 70
     0
 10
0.0
 20
0.0
 30
0.0
  3
C-MEH40
  1

  0
LINE
  5
1DAD
330
1DAA
100
AcDbEntity
  8
Aluhalter
100
AcDbLine
 10
-5.620000000000072
 20
7.340625000000499
 30
0.0
 11
-10.075
 21
7.340625000000499
 31
0.0
1001
AcDbBlockRepETag
1070
     1
1071
        0
1005
1DAD
  0
LINE
  5
1DAE
330
1DAA
100
AcDbEntity
  8
Aluhalter
100
AcDbLine
 10
-5.620000000000072
 20
7.846875000000409
 30
0.0
 11
-10.075
 21
7.846875000000409
 31
0.0
1001
AcDbBlockRepETag
1070
     1
1071
        1
1005
1DAE
  0
LINE
  5
1DAF
330
1DAA
100
AcDbEntity
  8
Aluhalter
100
AcDbLine
 10
-9.768210474999886
 20
4.088975174999855
 30
0.0
 11
-7.56956571249993
 21
1.890337499999755
 31
0.0
1001
AcDbBlockRepETag
1070
     1
1071
        2
1005
1DAF
  0
LINE
  5
1DB0
330
1DAA
100
AcDbEntity
  8
Aluhalter
100
AcDbLine
 10
-9.768210474999886
 20
-4.092011662500225
 30
0.0
 11
-7.56956571249993
 21
-1.893375000000331
 31
0.0
1001
AcDbBlockRepETag
1070
     1
1071
        3
1005
1DB0
  0
LINE
  5
1DB1
330
1DAA
100
AcDbEntity
  8
Aluhalter
100
AcDbLine
 10
-5.620000000000072
 20
-7.846875000000409
 30
0.0
 11
-10.075
 21
-7.846875000000409
 31
0.0
1001
AcDbBlockRepETag
1070
     1
1071
        4
1005
1DB1
  0
LINE
  5
1DB2
330
1DAA
100
AcDbEntity
  8
Aluhalter
100
AcDbLine
 10
-7.56956571249993
 20
1.890337499999755
 30
0.0
 11
-7.56956571249993
 21
-1.893375000000331
 31
0.0
1001
AcDbBlockRepETag
1070
     1
1071
        5
1005
1DB2
  0
LINE
  5
1DB3
330
1DAA
100
AcDbEntity
  8
Aluhalter
100
AcDbLine
 10
-3.999999999999948
 20
-9.618750000000542
 30
0.0
 11
-3.999999999999948
 21
9.618750000000542
 31
0.0
1001
AcDbBlockRepETag
1070
     1
1071
        6
1005
1DB3
  0
LINE
  5
1DB4
330
1DAA
100
AcDbEntity
  8
Aluhalter
100
AcDbLine
 10
-5.620000000000072
 20
-7.846875000000409
 30
0.0
 11
-5.620000000000072
 21
7.846875000000409
 31
0.0
1001
AcDbBlockRepETag
1070
     1
1071
        7
1005
1DB4
  0
LINE
  5
1DB5
330
1DAA
100
AcDbEntity
  8
Aluhalter
100
AcDbLine
 10
0.0
 20
-9.618750000000542
 30
0.0
 11
0.0
 21
9.618750000000542
 31
0.0
1001
AcDbBlockRepETag
1070
     1
1071
        8
1005
1DB5
  0
LINE
  5
1DB6
330
1DAA
100
AcDbEntity
  8
Aluhalter
100
AcDbLine
 10
-3.999999999999948
 20
-9.618750000000542
 30
0.0
 11
0.0
 21
-9.618750000000542
 31
0.0
1001
AcDbBlockRepETag
1070
     1
1071
        9
1005
1DB6
  0
LINE
  5
1DB7
330
1DAA
100
AcDbEntity
  8
Aluhalter
100
AcDbLine
 10
0.0
 20
-1.893375000000331
 30
0.0
 11
-7.56956571249993
 21
-1.893375000000331
 31
0.0
1001
AcDbBlockRepETag
1070
     1
1071
       10
1005
1DB7
  0
LINE
  5
1DB8
330
1DAA
100
AcDbEntity
  8
Aluhalter
100
AcDbLine
 10
-5.620000000000072
 20
-3.543749999999588
 30
0.0
 11
-3.999999999999948
 21
-3.543749999999588
 31
0.0
1001
AcDbBlockRepETag
1070
     1
1071
       11
1005
1DB8
  0
LINE
  5
1DB9
330
1DAA
100
AcDbEntity
  8
Aluhalter
100
AcDbLine
 10
0.0
 20
1.890337499999755
 30
0.0
 11
-7.56956571249993
 21
1.890337499999755
 31
0.0
1001
AcDbBlockRepETag
1070
     1
1071
       12
1005
1DB9
  0
LINE
  5
1DBA
330
1DAA
100
AcDbEntity
  8
Aluhalter
100
AcDbLine
 10
-5.620000000000072
 20
3.5437500000005
 30
0.0
 11
-3.999999999999948
 21
3.5437500000005
 31
0.0
1001
AcDbBlockRepETag
1070
     1
1071
       13
1005
1DBA
  0
LINE
  5
1DBB
330
1DAA
100
AcDbEntity
  8
Aluhalter
100
AcDbLine
 10
-3.999999999999948
 20
9.618750000000542
 30
0.0
 11
0.0
 21
9.618750000000542
 31
0.0
1001
AcDbBlockRepETag
1070
     1
1071
       14
1005
1DBB
  0
LINE
  5
1DBC
330
1DAA
100
AcDbEntity
  8
Aluhalter
100
AcDbLine
 10
-9.768210474999886
 20
4.088975174999855
 30
0.0
 11
-9.768210474999886
 21
-4.092011662500225
 31
0.0
1001
AcDbBlockRepETag
1070
     1
1071
       15
1005
1DBC
  0
LINE
  5
1DBD
330
1DAA
100
AcDbEntity
  8
Aluhalter
100
AcDbLine
 10
-10.075
 20
-7.846875000000409
 30
0.0
 11
-10.075
 21
7.846875000000409
 31
0.0
1001
AcDbBlockRepETag
1070
     1
1071
       16
1005
1DBD
  0
LINE
  5
1DBE
330
1DAA
100
AcDbEntity
  8
Aluhalter
100
AcDbLine
 10
-9.768210474999886
 20
-4.092011662500225
 30
0.0
 11
-10.075
 21
-4.092011662500225
 31
0.0
1001
AcDbBlockRepETag
1070
     1
1071
       17
1005
1DBE
  0
LINE
  5
1DBF
330
1DAA
100
AcDbEntity
  8
Aluhalter
100
AcDbLine
 10
-9.768210474999886
 20
4.088975174999855
 30
0.0
 11
-10.075
 21
4.088975174999855
 31
0.0
1001
AcDbBlockRepETag
1070
     1
1071
       18
1005
1DBF
  0
LINE
  5
1DC0
330
1DAA
100
AcDbEntity
  8
Aluhalter
100
AcDbLine
 10
-5.620000000000072
 20
7.340625000000499
 30
0.0
 11
-10.075
 21
7.340625000000499
 31
0.0
1001
AcDbBlockRepETag
1070
     1
1071
       19
1005
1DC0
  0
LINE
  5
1DC1
330
1DAA
100
AcDbEntity
  8
Aluhalter
100
AcDbLine
 10
-5.620000000000072
 20
7.846875000000409
 30
0.0
 11
-10.075
 21
7.846875000000409
 31
0.0
1001
AcDbBlockRepETag
1070
     1
1071
       20
1005
1DC1
  0
LINE
  5
1DC2
330
1DAA
100
AcDbEntity
  8
Aluhalter
100
AcDbLine
 10
-9.768210474999886
 20
4.088975174999855
 30
0.0
 11
-7.56956571249993
 21
1.890337499999755
 31
0.0
1001
AcDbBlockRepETag
1070
     1
1071
       21
1005
1DC2
  0
LINE
  5
1DC3
330
1DAA
100
AcDbEntity
  8
Aluhalter
100
AcDbLine
 10
-9.768210474999886
 20
-4.092011662500225
 30
0.0
 11
-7.56956571249993
 21
-1.893375000000331
 31
0.0
1001
AcDbBlockRepETag
1070
     1
1071
       22
1005
1DC3
  0
LINE
  5
1DC4
330
1DAA
100
AcDbEntity
  8
Aluhalter
100
AcDbLine
 10
-5.620000000000072
 20
-7.846875000000409
 30
0.0
 11
-10.075
 21
-7.846875000000409
 31
0.0
1001
AcDbBlockRepETag
1070
     1
1071
       23
1005
1DC4
  0
LINE
  5
1DC5
330
1DAA
100
AcDbEntity
  8
Aluhalter
100
AcDbLine
 10
-7.56956571249993
 20
1.890337499999755
 30
0.0
 11
-7.56956571249993
 21
-1.893375000000331
 31
0.0
1001
AcDbBlockRepETag
1070
     1
1071
       24
1005
1DC5
  0
LINE
  5
1DC6
330
1DAA
100
AcDbEntity
  8
Aluhalter
100
AcDbLine
 10
-3.999999999999948
 20
-9.618750000000542
 30
0.0
 11
-3.999999999999948
 21
9.618750000000542
 31
0.0
1001
AcDbBlockRepETag
1070
     1
1071
       25
1005
1DC6
  0
LINE
  5
1DC7
330
1DAA
100
AcDbEntity
  8
Aluhalter
100
AcDbLine
 10
-5.620000000000072
 20
-7.846875000000409
 30
0.0
 11
-5.620000000000072
 21
7.846875000000409
 31
0.0
1001
AcDbBlockRepETag
1070
     1
1071
       26
1005
1DC7
  0
LINE
  5
1DC8
330
1DAA
100
AcDbEntity
  8
Aluhalter
100
AcDbLine
 10
0.0
 20
-9.618750000000542
 30
0.0
 11
0.0
 21
9.618750000000542
 31
0.0
1001
AcDbBlockRepETag
1070
     1
1071
       27
1005
1DC8
  0
LINE
  5
1DC9
330
1DAA
100
AcDbEntity
  8
Aluhalter
100
AcDbLine
 10
-3.999999999999948
 20
-9.618750000000542
 30
0.0
 11
0.0
 21
-9.618750000000542
 31
0.0
1001
AcDbBlockRepETag
1070
     1
1071
       28
1005
1DC9
  0
LINE
  5
1DCA
330
1DAA
100
AcDbEntity
  8
Aluhalter
100
AcDbLine
 10
0.0
 20
-1.893375000000331
 30
0.0
 11
-7.56956571249993
 21
-1.893375000000331
 31
0.0
1001
AcDbBlockRepETag
1070
     1
1071
       29
1005
1DCA
  0
LINE
  5
1DCB
330
1DAA
100
AcDbEntity
  8
Aluhalter
100
AcDbLine
 10
-5.620000000000072
 20
-3.543749999999588
 30
0.0
 11
-3.999999999999948
 21
-3.543749999999588
 31
0.0
1001
AcDbBlockRepETag
1070
     1
1071
       30
1005
1DCB
  0
LINE
  5
1DCC
330
1DAA
100
AcDbEntity
  8
Aluhalter
100
AcDbLine
 10
0.0
 20
1.890337499999755
 30
0.0
 11
-7.56956571249993
 21
1.890337499999755
 31
0.0
1001
AcDbBlockRepETag
1070
     1
1071
       31
1005
1DCC
  0
LINE
  5
1DCD
330
1DAA
100
AcDbEntity
  8
Aluhalter
100
AcDbLine
 10
-5.620000000000072
 20
3.5437500000005
 30
0.0
 11
-3.999999999999948
 21
3.5437500000005
 31
0.0
1001
AcDbBlockRepETag
1070
     1
1071
       32
1005
1DCD
  0
LINE
  5
1DCE
330
1DAA
100
AcDbEntity
  8
Aluhalter
100
AcDbLine
 10
-3.999999999999948
 20
9.618750000000542
 30
0.0
 11
0.0
 21
9.618750000000542
 31
0.0
1001
AcDbBlockRepETag
1070
     1
1071
       33
1005
1DCE
  0
LINE
  5
1DCF
330
1DAA
100
AcDbEntity
  8
Aluhalter
100
AcDbLine
 10
-9.768210474999886
 20
4.088975174999855
 30
0.0
 11
-9.768210474999886
 21
-4.092011662500225
 31
0.0
1001
AcDbBlockRepETag
1070
     1
1071
       34
1005
1DCF
  0
LINE
  5
1DD0
330
1DAA
100
AcDbEntity
  8
Aluhalter
100
AcDbLine
 10
-10.075
 20
-7.846875000000409
 30
0.0
 11
-10.075
 21
7.846875000000409
 31
0.0
1001
AcDbBlockRepETag
1070
     1
1071
       35
1005
1DD0
  0
LINE
  5
1DD1
330
1DAA
100
AcDbEntity
  8
Aluhalter
100
AcDbLine
 10
-9.768210474999886
 20
-4.092011662500225
 30
0.0
 11
-10.075
 21
-4.092011662500225
 31
0.0
1001
AcDbBlockRepETag
1070
     1
1071
       36
1005
1DD1
  0
LINE
  5
1DD2
330
1DAA
100
AcDbEntity
  8
Aluhalter
100
AcDbLine
 10
-9.768210474999886
 20
4.088975174999855
 30
0.0
 11
-10.075
 21
4.088975174999855
 31
0.0
1001
AcDbBlockRepETag
1070
     1
1071
       37
1005
1DD2
  0
ENDBLK
  5
1DD3
330
1DAA
100
AcDbEntity
  8
0
100
AcDbBlockEnd
  0
BLOCK
  5
1DD7
330
1DD4
100
AcDbEntity
  8
0
100
AcDbBlockBegin
  2
A-SB36-17
 70
     0
 10
0.0
 20
0.0
 30
0.0
  3
A-SB36-17
  1

  0
LWPOLYLINE
  5
1DD8
102
{ACAD_REACTORS
330
1DDB
102
}
330
1DD4
100
AcDbEntity
  8
Aluprofile
 48
2.0
100
AcDbPolyline
 90
       91
 70
     1
 43
0.0
 10
-8.799999999999926
 20
-1.90192798140583
 10
-14.79672548095507
 20
-1.90192798140583
 42
0.4142135623730951
 10
-15.29672548095507
 20
-2.401927981405833
 10
-15.29672548095502
 20
-3.901927981405776
 42
0.4142135623730896
 10
-14.79672548095502
 20
-4.401927981405775
 10
-10.19672544810075
 20
-4.40192798140583
 42
-0.4142135623730951
 10
-9.996725448100818
 20
-4.601927981405761
 10
-9.996725448100818
 20
-5.401927981405831
 42
-0.4142135623730951
 10
-10.19672544810075
 20
-5.60192798140576
 10
-14.79672548095502
 20
-5.60192798140576
 42
0.4142135623730951
 10
-15.29672548095502
 20
-6.101927981405762
 10
-15.29672548095502
 20
-8.468296578971202
 42
0.4142135623730951
 10
-15.09672548095508
 20
-8.668296578971192
 10
-14.89672545220023
 20
-8.668296578971192
 42
-0.4142135623730951
 10
-14.69672545220024
 20
-8.868296578971127
 10
-14.69672545220024
 20
-9.668296578971192
 42
0.4142135623730951
 10
-14.49672545220025
 20
-9.868296578971127
 10
-4.896725454205721
 20
-9.868296578971127
 42
0.4142135623730534
 10
-4.696725454205733
 20
-9.668296578971192
 10
-4.696725454205672
 20
-9.199999999999988
 42
-0.4142135623730951
 10
-4.496725454205686
 20
-9.0
 10
-2.099999999999937
 20
-9.0
 42
0.4142135623730951
 10
-1.599999999999934
 20
-8.5
 10
-1.599999999999994
 20
-6.300000000000013
 42
-0.4142135623731159
 10
-0.799999999999983
 20
-5.5
 10
-0.799999999999983
 20
-5.5
 42
-0.4142135623730951
 10
0.0000000000000284
 20
-6.300000000000013
 10
0.0000000000000284
 20
-9.199999999999931
 42
-0.4142135623730951
 10
-0.9999999999999715
 20
-10.19999999999993
 10
-3.296725454205868
 20
-10.20000000000004
 42
0.4142135623730534
 10
-3.496725454205857
 20
-10.39999999999998
 10
-3.496725454206028
 20
-10.86829657897118
 42
-0.4142135623730534
 10
-3.696725454206017
 20
-11.06829657897117
 10
-15.49672548095506
 20
-11.06829657897117
 42
-0.4142135623730951
 10
-16.49672548095506
 20
-10.06829657897117
 10
-16.49672548095506
 20
3.199573045745977
 42
-0.3152987888789791
 10
-14.52278591093207
 20
6.018650908103722
 10
-2.384363742013845
 20
10.43667526854699
 42
0.3152987888789836
 10
-1.200000000000017
 20
12.12812198596157
 10
-1.199999999999959
 20
13.68966564611298
 42
0.4142135623932738
 10
-1.700000000034407
 20
14.18966564611298
 42
-0.4142135623841334
 10
-2.200000000068794
 20
14.68966564609741
 10
-2.200000000084201
 20
15.18479957179329
 42
0.2679491924228303
 10
-2.450000000084314
 20
15.61781227366998
 10
-6.246725456299401
 20
17.80985273785302
 42
-0.2679491924311995
 10
-6.496725456299571
 20
18.24286543974529
 10
-6.496725456299742
 20
21.85198883813519
 42
-0.2679491924311465
 10
-6.246725455368419
 20
22.28500154056508
 10
-1.75000000016999
 20
24.88118719259569
 42
-0.5773502691896291
 10
-1.00000000016999
 20
24.44817449070354
 10
-1.000000000170047
 20
22.83073849816412
 42
-0.1989123673824263
 10
-1.058578643934225
 20
22.68931714192536
 10
-1.941421356375002
 20
21.80647442950328
 42
-0.1989123673767636
 10
-2.082842712610755
 20
21.74789578574212
 10
-2.200000000139334
 20
21.74789578574212
 42
-0.4142135623731785
 10
-2.400000000139439
 20
21.94789578574216
 10
-2.400000000139498
 20
22.60065363325634
 42
0.5773502691896978
 10
-2.849999996725586
 20
22.86046125242069
 10
-5.046725455368432
 20
21.59218121753759
 42
0.2679491924311519
 10
-5.296725456299752
 20
21.15916851403222
 10
-5.29672545629964
 20
18.93568576277299
 42
0.26794919243112
 10
-5.04672545629964
 20
18.50267306088074
 10
-2.849999998225456
 20
17.23439302632573
 42
0.5773502691896156
 10
-2.400000000139556
 20
17.49420064635603
 10
-2.400000000139439
 20
18.1478957857422
 42
-0.4142135623731785
 10
-2.200000000139397
 20
18.34789578574214
 10
-2.082842712635367
 20
18.34789578574202
 42
-0.1989123673796905
 10
-1.941421356398024
 20
18.28931714197938
 10
-1.058578643911715
 20
17.40647442949296
 42
-0.1989123673715652
 10
-1.000000000149069
 20
17.26505307326192
 10
-1.000000000096832
 20
15.58966564610659
 42
0.414213562363938
 10
-0.8000000000968441
 20
15.38966564611292
 10
-0.5000000000000285
 20
15.38966564611292
 42
-0.4142135623730951
 10
-0.0000000000000284
 20
14.88966564611291
 10
-0.0000000000000284
 20
6.300000000000068
 42
-0.4142135623730951
 10
-0.799999999999983
 20
5.5
 10
-0.799999999999983
 20
5.5
 42
-0.4142135623731054
 10
-1.599999999999994
 20
6.299999999999952
 10
-1.599999999999994
 20
9.159517395158216
 42
0.5205670505517838
 10
-1.868404028665139
 20
9.347455919315393
 10
-13.96446097603083
 20
4.944851238485398
 42
0.3152987888789911
 10
-14.29345090436803
 20
4.475004928092403
 10
-14.29345090436808
 20
2.675004927074374
 42
-0.4142135623730118
 10
-14.49345090436807
 20
2.475004927074451
 10
-15.09672548095503
 20
2.475004927074451
 42
0.4142135623730118
 10
-15.29672548095502
 20
2.275004927074404
 10
-15.29672548095507
 20
-0.2019279814057882
 42
0.4142135623730992
 10
-14.79672548095507
 20
-0.7019279814057882
 10
-8.799999999999926
 20
-0.7019279814057314
 42
-0.4142135623730951
 10
-8.599999999999937
 20
-0.9019279814057199
 10
-8.599999999999994
 20
-1.701927981405788
 42
-0.4142135623730946
1001
AcDbBlockRepETag
1070
     1
1071
        0
1005
1DD8
  0
LINE
  5
1DD9
330
1DD4
100
AcDbEntity
  8
Aluprofile
100
AcDbLine
 10
-0.0000000000000142
 20
1.0
 30
0.0
 11
0.0
 21
-1.0
 31
0.0
1001
AcDbBlockRepETag
1070
     1
1071
        1
1005
1DD9
  0
LINE
  5
1DDA
330
1DD4
100
AcDbEntity
  8
Aluprofile
100
AcDbLine
 10
-1.0
 20
0.0
 30
0.0
 11
1.0
 21
0.0
 31
0.0
1001
AcDbBlockRepETag
1070
     1
1071
        2
1005
1DDA
  0
HATCH
  5
1DDB
330
1DD4
100
AcDbEntity
  8
Aluprofile
100
AcDbHatch
 10
0.0
 20
0.0
 30
0.0
210
0.0
220
0.0
230
1.0
  2
DOLMIT
 70
     0
 71
     1
 91
        1
 92
        7
 72
     1
 73
     1
 93
       83
 10
-1.868404028665121
 20
9.3474559193154
 42
-0.5205670505517452
 10
-1.599999999999994
 20
9.159517395158221
 42
0.0
 10
-1.599999999999994
 20
6.299999999999967
 42
0.4142135623731109
 10
-0.799999999999983
 20
5.5
 42
0.4142135623730744
 10
-0.0000000000000284
 20
6.300000000000011
 42
0.0
 10
-0.0000000000000284
 20
14.88966564611291
 42
0.6066454019926655
 10
-0.7212161403595703
 20
15.40583664011851
 42
-0.5384365904554456
 10
-1.000000000096832
 20
15.58966564610664
 42
0.0
 10
-1.000000000149069
 20
17.26505307326196
 42
0.1989123673715415
 10
-1.05857864391173
 20
17.40647442949297
 42
0.0
 10
-1.941421356397972
 20
18.28931714197933
 42
0.1989123673797852
 10
-2.082842712635367
 20
18.34789578574202
 42
0.6952248783283484
 10
-2.400000000139439
 20
18.1478957857422
 42
0.0
 10
-2.400000000139556
 20
17.49420064635594
 42
-0.5773502691895841
 10
-2.849999998225508
 20
17.23439302632576
 42
0.0
 10
-5.046725456299649
 20
18.50267306088074
 42
-0.2679491924310943
 10
-5.29672545629964
 20
18.93568576277295
 42
0.0
 10
-5.296725456299752
 20
21.15916851403225
 42
-0.2679491924311407
 10
-5.046725455368422
 20
21.5921812175376
 42
0.0
 10
-2.849999996725571
 20
22.8604612524207
 42
-0.5773502691895898
 10
-2.400000000139497
 20
22.60065363325642
 42
0.0
 10
-2.400000000139438
 20
21.94789578574215
 42
0.414213562373159
 10
-2.200000000139334
 20
21.74789578574212
 42
0.3790242410505062
 10
-1.941421356374998
 20
21.80647442950329
 42
0.0
 10
-1.058578643934214
 20
22.68931714192537
 42
0.1989123673824016
 10
-1.000000000170047
 20
22.83073849816412
 42
0.0
 10
-1.00000000016999
 20
24.44817449070349
 42
0.5773502691896349
 10
-1.750000000169956
 20
24.88118719259571
 42
0.0
 10
-6.24672545583411
 20
22.28500154029621
 42
0.2679491924311374
 10
-6.496725456299742
 20
21.85198883759747
 42
0.0
 10
-6.496725456299571
 20
18.24286543974531
 42
0.2679491924312076
 10
-6.246725456299412
 20
17.80985273785303
 42
0.0
 10
-2.450000000084363
 20
15.61781227367001
 42
-0.2679491924228837
 10
-2.2000000000842
 20
15.18479957179325
 42
0.0
 10
-2.200000000068794
 20
14.68966564609741
 42
0.414213562384147
 10
-1.700000000034384
 20
14.18966564611298
 42
-0.4142135623932713
 10
-1.199999999999959
 20
13.68966564611296
 42
0.0
 10
-1.200000000000017
 20
12.12812198596155
 42
-0.3152987888789726
 10
-2.384363742013793
 20
10.43667526854701
 42
0.0
 10
-14.52278591093204
 20
6.018650908103731
 42
0.3152987888789828
 10
-16.49672548095506
 20
3.199573045745966
 42
0.0
 10
-16.49672548095506
 20
-10.06829657897117
 42
0.4142135623730951
 10
-15.49672548095506
 20
-11.06829657897117
 42
0.0
 10
-3.696725454206033
 20
-11.06829657897117
 42
1.456537668606126
 10
-3.42662199940469
 20
-10.55207526934189
 42
-0.6969442431877791
 10
-3.296725454205886
 20
-10.20000000000004
 42
0.0
 10
-0.9999999999999236
 20
-10.19999999999993
 42
0.4142135623730811
 10
0.0000000000000284
 20
-9.199999999999931
 42
0.0
 10
0.0000000000000284
 20
-6.300000000000012
 42
0.4142135623730944
 10
-0.799999999999983
 20
-5.499999999999999
 42
0.4142135623731126
 10
-1.599999999999994
 20
-6.300000000000005
 42
0.0
 10
-1.599999999999933
 20
-8.499999999999982
 42
-0.4142135623731036
 10
-2.099999999999935
 20
-9.0
 42
0.0
 10
-4.496725454205685
 20
-9.0
 42
1.456537668606087
 10
-4.766828909006926
 20
-9.516221309629255
 42
-0.6969442431878669
 10
-4.896725454205711
 20
-9.868296578971129
 42
0.0
 10
-14.49672545220028
 20
-9.868296578971133
 42
-0.4142135623730964
 10
-14.69672545220024
 20
-9.668296578971169
 42
0.0
 10
-14.69672545220024
 20
-8.868296578971158
 42
0.731605624479658
 10
-15.00728275156741
 20
-8.64718201202735
 42
-0.5575365346816783
 10
-15.29672548095502
 20
-8.46829657897123
 42
0.0
 10
-15.29672548095502
 20
-6.10192798140576
 42
-0.4142135623730946
 10
-14.79672548095502
 20
-5.60192798140576
 42
0.0
 10
-10.19672544810075
 20
-5.60192798140576
 42
0.4142135623730952
 10
-9.996725448100818
 20
-5.40192798140583
 42
0.0
 10
-9.996725448100818
 20
-4.60192798140576
 42
0.4142135623730919
 10
-10.19672544810075
 20
-4.401927981405829
 42
0.0
 10
-14.79672548095502
 20
-4.401927981405775
 42
-0.4142135623730813
 10
-15.29672548095502
 20
-3.901927981405788
 42
0.0
 10
-15.29672548095507
 20
-2.401927981405848
 42
-0.4142135623731056
 10
-14.79672548095507
 20
-1.901927981405829
 42
0.0
 10
-8.799999999999981
 20
-1.901927981405829
 42
0.414213562373074
 10
-8.599999999999994
 20
-1.701927981405856
 42
0.0
 10
-8.599999999999937
 20
-0.9019279814057332
 42
0.4142135623731199
 10
-8.799999999999927
 20
-0.7019279814057305
 42
0.0
 10
-14.79672548095507
 20
-0.7019279814057873
 42
-0.4142135623731049
 10
-15.29672548095507
 20
-0.2019279814057802
 42
0.0
 10
-15.29672548095502
 20
2.275004927074408
 42
-0.4142135623730897
 10
-15.09672548095497
 20
2.475004927074451
 42
0.0
 10
-14.49345090436806
 20
2.475004927074451
 42
0.4142135623730858
 10
-14.29345090436808
 20
2.67500492707443
 42
0.0
 10
-14.29345090436803
 20
4.47500492809242
 42
-0.315298788878976
 10
-13.96446097603084
 20
4.944851238485394
 42
0.0
 97
        1
330
1DD8
 75
     0
 76
     1
 52
120.0
 41
0.2
 77
     0
 78
     2
 53
120.0
 43
0.0
 44
0.0
 45
-1.099852262806237
 46
-0.6349999999999997
 79
     0
 53
165.0
 43
0.0
 44
0.0
 45
-0.9297038919127659
 46
-3.469702160612961
 79
     2
 49
1.796051999999999
 49
-3.592099999999998
 47
0.1046121566339098
 98
        1
 10
-8.53370186025495
 20
7.306082846348997
1001
ACAD
1010
0.0
1020
0.0
1030
0.0
1001
AcDbBlockRepETag
1070
     1
1071
        3
1005
1DDB
  0
ENDBLK
  5
1DDC
330
1DD4
100
AcDbEntity
  8
0
100
AcDbBlockEnd
  0
BLOCK
  5
1E57
330
1E55
100
AcDbEntity
  8
0
100
AcDbBlockBegin
  2
C-DC340
 70
     0
 10
0.0
 20
0.0
 30
0.0
  3
C-DC340
  1

  0
LWPOLYLINE
  5
236C
330
1E55
100
AcDbEntity
  8
Aluhalter
 48
2.0
100
AcDbPolyline
 90
        5
 70
     0
 43
0.0
 10
3.999999999999948
 20
-9.499999500000058
 10
3.999999999999948
 20
9.500000499999938
 10
0.0
 20
9.500000499999938
 10
0.0
 20
-9.499999500000058
 10
3.999999999999948
 20
-9.499999500000058
1001
AcDbBlockRepETag
1070
     1
1071
        0
1005
236C
  0
LINE
  5
236D
330
1E55
100
AcDbEntity
  8
Aluhalter
  6
DASHED
100
AcDbLine
 10
3.95
 20
1.900001499999915
 30
0.0
 11
-6.800003999999942
 21
1.900001499999915
 31
0.0
1001
AcDbBlockRepETag
1070
     1
1071
        1
1005
236D
  0
LINE
  5
236E
330
1E55
100
AcDbEntity
  8
Aluhalter
  6
DASHED
100
AcDbLine
 10
3.95
 20
-1.900001499999915
 30
0.0
 11
-6.800003999999942
 21
-1.900001499999915
 31
0.0
1001
AcDbBlockRepETag
1070
     1
1071
        2
1005
236E
  0
LWPOLYLINE
  5
236F
330
1E55
100
AcDbEntity
  8
Aluhalter
 48
2.0
100
AcDbPolyline
 90
       24
 70
     1
 43
0.0
 10
-2.303523090341514
 20
6.672257433148615
 42
-0.4931450015474532
 10
-1.799995999999964
 20
6.285886961236656
 10
-1.799995999999964
 20
4.736618921459919
 10
-4.392604918805091
 20
4.04194213667688
 42
0.8769781630551204
 10
-4.25543279276439
 20
3.000000921460468
 10
-2.000000999999883
 20
3.000000921460013
 42
0.4142135623730617
 10
-1.5
 20
3.500000921460013
 10
-1.5
 20
5.223808921459976
 10
-0.5
 20
5.223808921459976
 42
0.4142136083805532
 10
0.0
 20
5.723808999999846
 10
0.0
 20
-5.72380800000019
 42
0.4142135163655386
 10
-0.5
 20
-5.223808078540058
 10
-1.5
 20
-5.223808078540058
 10
-1.5
 20
-3.499999078539985
 42
0.4142135623730617
 10
-2.000000999999883
 20
-2.999999078539985
 10
-4.255380868979273
 20
-2.999999078539985
 42
0.8769759486295425
 10
-4.392555558272078
 20
-4.04193960693874
 10
-1.799995999999964
 20
-4.736617078539893
 10
-1.799995999999964
 20
-6.285886118320378
 42
-0.4931457712028546
 10
-2.303525000000036
 20
-6.672256078539928
 10
-5.317644235713487
 20
-5.864621675628312
 42
-0.3394539492208239
 10
-6.800003999999942
 20
-3.93277059793877
 10
-6.800003999999942
 20
3.932779440866622
 42
-0.3394546396546345
 10
-5.317639451707917
 20
5.864631800426195
1001
AcDbBlockRepETag
1070
     1
1071
        3
1005
236F
  0
ENDBLK
  5
1E5D
330
1E55
100
AcDbEntity
  8
0
100
AcDbBlockEnd
  0
BLOCK
  5
1F6A
330
1F60
100
AcDbEntity
  8
0
100
AcDbBlockBegin
  2
*D6
 70
     1
 10
0.0
 20
0.0
 30
0.0
  3
*D6
  1

  0
LINE
  5
21E6
330
1F60
100
AcDbEntity
  8
Bemaßung
 62
     0
370
    -2
100
AcDbLine
 10
266.2484758237888
 20
134.9808310568925
 30
0.0
 11
273.0335738475661
 21
134.9808310568925
 31
0.0
  0
LINE
  5
21E7
330
1F60
100
AcDbEntity
  8
Bemaßung
 62
     0
370
    -2
100
AcDbLine
 10
264.7072076559516
 20
104.9808310568925
 30
0.0
 11
273.033573847566
 21
104.9808310568925
 31
0.0
  0
LINE
  5
21E8
330
1F60
100
AcDbEntity
  8
Bemaßung
 62
     0
370
    -2
100
AcDbLine
 10
271.7835738475661
 20
134.9808310568925
 30
0.0
 11
271.783573847566
 21
104.9808310568925
 31
0.0
  0
INSERT
  5
21E9
330
1F60
100
AcDbEntity
  8
Bemaßung
 62
     0
370
    -2
100
AcDbBlockReference
  2
_Oblique
 10
271.7835738475661
 20
134.9808310568925
 30
0.0
 41
2.5
 42
2.5
 43
2.5
 50
90.0
  0
INSERT
  5
21EA
330
1F60
100
AcDbEntity
  8
Bemaßung
 62
     0
370
    -2
100
AcDbBlockReference
  2
_Oblique
 10
271.783573847566
 20
104.9808310568925
 30
0.0
 41
2.5
 42
2.5
 43
2.5
 50
270.0
  0
MTEXT
  5
21EB
330
1F60
100
AcDbEntity
  8
Bemaßung
 62
     0
100
AcDbMText
 10
269.908573847566
 20
119.9808310568925
 30
0.0
 40
2.5
 41
0.0
 71
     5
 72
     1
  1
30
  7
RomanS
 11
0.0000000000000001
 21
1.0
 31
0.0
 73
     1
 44
1.0
1001
ACAD
1000
MTEXTBEGIN
1070
    73
1070
     1
1070
    44
1040
1.0
1070
    74
1070
     0
1000
MTEXTEND
  0
POINT
  5
21EC
330
1F60
100
AcDbEntity
  8
Defpoints
 62
     0
100
AcDbPoint
 10
265.6234758237888
 20
134.9808310568925
 30
0.0
  0
POINT
  5
21ED
330
1F60
100
AcDbEntity
  8
Defpoints
 62
     0
100
AcDbPoint
 10
264.0822076559516
 20
104.9808310568925
 30
0.0
  0
POINT
  5
21EE
330
1F60
100
AcDbEntity
  8
Defpoints
 62
     0
100
AcDbPoint
 10
271.783573847566
 20
104.9808310568925
 30
0.0
  0
ENDBLK
  5
1F6B
330
1F60
100
AcDbEntity
  8
0
100
AcDbBlockEnd
  0
BLOCK
  5
1F76
330
1F6C
100
AcDbEntity
  8
0
100
AcDbBlockBegin
  2
*D7
 70
     1
 10
0.0
 20
0.0
 30
0.0
  3
*D7
  1

  0
LINE
  5
1FE1
330
1F6C
100
AcDbEntity
  8
Bemaßung
 62
     0
370
    -2
100
AcDbLine
 10
196.2118588190933
 20
39.39194535249457
 30
0.0
 11
196.2118588190933
 21
40.01694535249455
 31
0.0
  0
LINE
  5
1FE2
330
1F6C
100
AcDbEntity
  8
Bemaßung
 62
     0
370
    -2
100
AcDbLine
 10
184.2118588190933
 20
39.39194535249457
 30
0.0
 11
184.2118588190933
 21
40.01694535249455
 31
0.0
  0
LINE
  5
1FE3
330
1F6C
100
AcDbEntity
  8
Bemaßung
 62
     0
370
    -2
100
AcDbLine
 10
196.2118588190933
 20
38.76694535249457
 30
0.0
 11
184.2118588190933
 21
38.76694535249457
 31
0.0
  0
INSERT
  5
1FE4
330
1F6C
100
AcDbEntity
  8
Bemaßung
 62
     0
370
    -2
100
AcDbBlockReference
  2
_Oblique
 10
196.2118588190933
 20
38.76694535249457
 30
0.0
 41
2.5
 42
2.5
 43
2.5
  0
INSERT
  5
1FE5
330
1F6C
100
AcDbEntity
  8
Bemaßung
 62
     0
370
    -2
100
AcDbBlockReference
  2
_Oblique
 10
184.2118588190933
 20
38.76694535249457
 30
0.0
 41
2.5
 42
2.5
 43
2.5
 50
180.0
  0
MTEXT
  5
1FE6
330
1F6C
100
AcDbEntity
  8
Bemaßung
 62
     0
100
AcDbMText
 10
190.2118588190933
 20
40.64194535249455
 30
0.0
 40
2.5
 41
0.0
 71
     5
 72
     1
  1
12
  7
RomanS
 73
     1
 44
1.0
1001
ACAD
1000
MTEXTBEGIN
1070
    73
1070
     1
1070
    44
1040
1.0
1070
    74
1070
     0
1000
MTEXTEND
  0
POINT
  5
1FE7
330
1F6C
100
AcDbEntity
  8
Defpoints
 62
     0
100
AcDbPoint
 10
196.2118588190933
 20
38.76694535249457
 30
0.0
  0
POINT
  5
1FE8
330
1F6C
100
AcDbEntity
  8
Defpoints
 62
     0
100
AcDbPoint
 10
184.2118588190933
 20
38.76694535249457
 30
0.0
  0
POINT
  5
1FE9
330
1F6C
100
AcDbEntity
  8
Defpoints
 62
     0
100
AcDbPoint
 10
184.2118588190933
 20
38.76694535249457
 30
0.0
  0
ENDBLK
  5
1F77
330
1F6C
100
AcDbEntity
  8
0
100
AcDbBlockEnd
  0
BLOCK
  5
1F82
330
1F78
100
AcDbEntity
  8
0
100
AcDbBlockBegin
  2
*D8
 70
     1
 10
0.0
 20
0.0
 30
0.0
  3
*D8
  1

  0
LINE
  5
1FEA
330
1F78
100
AcDbEntity
  8
Bemaßung
 62
     0
370
    -2
100
AcDbLine
 10
181.3049137127768
 20
42.34106680007712
 30
0.0
 11
177.2729686064602
 21
42.34106680007712
 31
0.0
  0
LINE
  5
1FEB
330
1F78
100
AcDbEntity
  8
Bemaßung
 62
     0
370
    -2
100
AcDbLine
 10
181.7242408363336
 20
12.34106680007716
 30
0.0
 11
177.2729686064602
 21
12.34106680007716
 31
0.0
  0
LINE
  5
1FEC
330
1F78
100
AcDbEntity
  8
Bemaßung
 62
     0
370
    -2
100
AcDbLine
 10
178.52296860646
 20
42.34106680007712
 30
0.0
 11
178.52296860646
 21
12.34106680007716
 31
0.0
  0
INSERT
  5
1FED
330
1F78
100
AcDbEntity
  8
Bemaßung
 62
     0
370
    -2
100
AcDbBlockReference
  2
_Oblique
 10
178.52296860646
 20
42.34106680007712
 30
0.0
 41
2.5
 42
2.5
 43
2.5
 50
90.0
  0
INSERT
  5
1FEE
330
1F78
100
AcDbEntity
  8
Bemaßung
 62
     0
370
    -2
100
AcDbBlockReference
  2
_Oblique
 10
178.52296860646
 20
12.34106680007716
 30
0.0
 41
2.5
 42
2.5
 43
2.5
 50
270.0
  0
MTEXT
  5
1FEF
330
1F78
100
AcDbEntity
  8
Bemaßung
 62
     0
100
AcDbMText
 10
176.6479686064602
 20
27.34106680007718
 30
0.0
 40
2.5
 41
0.0
 71
     5
 72
     1
  1
30
  7
RomanS
 11
0.0000000000000001
 21
1.0
 31
0.0
 73
     1
 44
1.0
1001
ACAD
1000
MTEXTBEGIN
1070
    73
1070
     1
1070
    44
1040
1.0
1070
    74
1070
     0
1000
MTEXTEND
  0
POINT
  5
1FF0
330
1F78
100
AcDbEntity
  8
Defpoints
 62
     0
100
AcDbPoint
 10
181.9299137127768
 20
42.34106680007712
 30
0.0
  0
POINT
  5
1FF1
330
1F78
100
AcDbEntity
  8
Defpoints
 62
     0
100
AcDbPoint
 10
182.3492408363336
 20
12.34106680007716
 30
0.0
  0
POINT
  5
1FF2
330
1F78
100
AcDbEntity
  8
Defpoints
 62
     0
100
AcDbPoint
 10
178.52296860646
 20
12.34106680007716
 30
0.0
  0
ENDBLK
  5
1F83
330
1F78
100
AcDbEntity
  8
0
100
AcDbBlockEnd
  0
BLOCK
  5
1F8E
330
1F84
100
AcDbEntity
  8
0
100
AcDbBlockBegin
  2
*D9
 70
     1
 10
0.0
 20
0.0
 30
0.0
  3
*D9
  1

  0
LINE
  5
1FF3
330
1F84
100
AcDbEntity
  8
Bemaßung
 62
     0
370
    -2
100
AcDbLine
 10
177.8979686064602
 20
12.34106680007716
 30
0.0
 11
171.6807249429756
 21
12.34106680007716
 31
0.0
  0
LINE
  5
1FF4
330
1F84
100
AcDbEntity
  8
Bemaßung
 62
     0
370
    -2
100
AcDbLine
 10
180.6450363348077
 20
47.34106680007712
 30
0.0
 11
171.6807249429756
 21
47.34106680007713
 31
0.0
  0
LINE
  5
1FF5
330
1F84
100
AcDbEntity
  8
Bemaßung
 62
     0
370
    -2
100
AcDbLine
 10
172.9307249429756
 20
12.34106680007716
 30
0.0
 11
172.9307249429756
 21
47.34106680007713
 31
0.0
  0
INSERT
  5
1FF6
330
1F84
100
AcDbEntity
  8
Bemaßung
 62
     0
370
    -2
100
AcDbBlockReference
  2
_Oblique
 10
172.9307249429756
 20
12.34106680007716
 30
0.0
 41
2.5
 42
2.5
 43
2.5
 50
270.0
  0
INSERT
  5
1FF7
330
1F84
100
AcDbEntity
  8
Bemaßung
 62
     0
370
    -2
100
AcDbBlockReference
  2
_Oblique
 10
172.9307249429756
 20
47.34106680007713
 30
0.0
 41
2.5
 42
2.5
 43
2.5
 50
90.0
  0
MTEXT
  5
1FF8
330
1F84
100
AcDbEntity
  8
Bemaßung
 62
     0
100
AcDbMText
 10
171.0557249429756
 20
29.84106680007718
 30
0.0
 40
2.5
 41
0.0
 71
     5
 72
     1
  1
35
  7
RomanS
 11
0.0000000000000001
 21
1.0
 31
0.0
 73
     1
 44
1.0
1001
ACAD
1000
MTEXTBEGIN
1070
    73
1070
     1
1070
    44
1040
1.0
1070
    74
1070
     0
1000
MTEXTEND
  0
POINT
  5
1FF9
330
1F84
100
AcDbEntity
  8
Defpoints
 62
     0
100
AcDbPoint
 10
178.52296860646
 20
12.34106680007716
 30
0.0
  0
POINT
  5
1FFA
330
1F84
100
AcDbEntity
  8
Defpoints
 62
     0
100
AcDbPoint
 10
181.2700363348077
 20
47.34106680007712
 30
0.0
  0
POINT
  5
1FFB
330
1F84
100
AcDbEntity
  8
Defpoints
 62
     0
100
AcDbPoint
 10
172.9307249429756
 20
47.34106680007713
 30
0.0
  0
ENDBLK
  5
1F8F
330
1F84
100
AcDbEntity
  8
0
100
AcDbBlockEnd
  0
BLOCK
  5
1F9A
330
1F90
100
AcDbEntity
  8
0
100
AcDbBlockBegin
  2
*D10
 70
     1
 10
0.0
 20
0.0
 30
0.0
  3
*D10
  1

  0
LINE
  5
1FFC
330
1F90
100
AcDbEntity
  8
Bemaßung
 62
     0
370
    -2
100
AcDbLine
 10
46.21185881909338
 20
39.39194535249457
 30
0.0
 11
46.21185881909338
 21
40.01694535249455
 31
0.0
  0
LINE
  5
1FFD
330
1F90
100
AcDbEntity
  8
Bemaßung
 62
     0
370
    -2
100
AcDbLine
 10
34.21185881909333
 20
39.39194535249457
 30
0.0
 11
34.21185881909333
 21
40.01694535249455
 31
0.0
  0
LINE
  5
1FFE
330
1F90
100
AcDbEntity
  8
Bemaßung
 62
     0
370
    -2
100
AcDbLine
 10
46.21185881909338
 20
38.76694535249457
 30
0.0
 11
34.21185881909333
 21
38.76694535249457
 31
0.0
  0
INSERT
  5
1FFF
330
1F90
100
AcDbEntity
  8
Bemaßung
 62
     0
370
    -2
100
AcDbBlockReference
  2
_Oblique
 10
46.21185881909338
 20
38.76694535249457
 30
0.0
 41
2.5
 42
2.5
 43
2.5
  0
INSERT
  5
2000
330
1F90
100
AcDbEntity
  8
Bemaßung
 62
     0
370
    -2
100
AcDbBlockReference
  2
_Oblique
 10
34.21185881909333
 20
38.76694535249457
 30
0.0
 41
2.5
 42
2.5
 43
2.5
 50
180.0
  0
MTEXT
  5
2001
330
1F90
100
AcDbEntity
  8
Bemaßung
 62
     0
100
AcDbMText
 10
40.21185881909334
 20
40.64194535249455
 30
0.0
 40
2.5
 41
0.0
 71
     5
 72
     1
  1
12
  7
RomanS
 73
     1
 44
1.0
1001
ACAD
1000
MTEXTBEGIN
1070
    73
1070
     1
1070
    44
1040
1.0
1070
    74
1070
     0
1000
MTEXTEND
  0
POINT
  5
2002
330
1F90
100
AcDbEntity
  8
Defpoints
 62
     0
100
AcDbPoint
 10
46.21185881909338
 20
38.76694535249457
 30
0.0
  0
POINT
  5
2003
330
1F90
100
AcDbEntity
  8
Defpoints
 62
     0
100
AcDbPoint
 10
34.21185881909333
 20
38.76694535249457
 30
0.0
  0
POINT
  5
2004
330
1F90
100
AcDbEntity
  8
Defpoints
 62
     0
100
AcDbPoint
 10
34.21185881909333
 20
38.76694535249457
 30
0.0
  0
ENDBLK
  5
1F9B
330
1F90
100
AcDbEntity
  8
0
100
AcDbBlockEnd
  0
BLOCK
  5
1FA6
330
1F9C
100
AcDbEntity
  8
0
100
AcDbBlockBegin
  2
*D11
 70
     1
 10
0.0
 20
0.0
 30
0.0
  3
*D11
  1

  0
LINE
  5
2005
330
1F9C
100
AcDbEntity
  8
Bemaßung
 62
     0
370
    -2
100
AcDbLine
 10
31.30491371277691
 20
42.34106680007712
 30
0.0
 11
27.27296860646039
 21
42.34106680007712
 31
0.0
  0
LINE
  5
2006
330
1F9C
100
AcDbEntity
  8
Bemaßung
 62
     0
370
    -2
100
AcDbLine
 10
31.72424083633361
 20
12.34106680007716
 30
0.0
 11
27.27296860646038
 21
12.34106680007716
 31
0.0
  0
LINE
  5
2007
330
1F9C
100
AcDbEntity
  8
Bemaßung
 62
     0
370
    -2
100
AcDbLine
 10
28.52296860646039
 20
42.34106680007712
 30
0.0
 11
28.52296860646038
 21
12.34106680007716
 31
0.0
  0
INSERT
  5
2008
330
1F9C
100
AcDbEntity
  8
Bemaßung
 62
     0
370
    -2
100
AcDbBlockReference
  2
_Oblique
 10
28.52296860646039
 20
42.34106680007712
 30
0.0
 41
2.5
 42
2.5
 43
2.5
 50
90.0
  0
INSERT
  5
2009
330
1F9C
100
AcDbEntity
  8
Bemaßung
 62
     0
370
    -2
100
AcDbBlockReference
  2
_Oblique
 10
28.52296860646038
 20
12.34106680007716
 30
0.0
 41
2.5
 42
2.5
 43
2.5
 50
270.0
  0
MTEXT
  5
200A
330
1F9C
100
AcDbEntity
  8
Bemaßung
 62
     0
100
AcDbMText
 10
26.64796860646038
 20
27.34106680007715
 30
0.0
 40
2.5
 41
0.0
 71
     5
 72
     1
  1
30
  7
RomanS
 11
0.0000000000000001
 21
1.0
 31
0.0
 73
     1
 44
1.0
1001
ACAD
1000
MTEXTBEGIN
1070
    73
1070
     1
1070
    44
1040
1.0
1070
    74
1070
     0
1000
MTEXTEND
  0
POINT
  5
200B
330
1F9C
100
AcDbEntity
  8
Defpoints
 62
     0
100
AcDbPoint
 10
31.92991371277691
 20
42.34106680007712
 30
0.0
  0
POINT
  5
200C
330
1F9C
100
AcDbEntity
  8
Defpoints
 62
     0
100
AcDbPoint
 10
32.34924083633359
 20
12.34106680007716
 30
0.0
  0
POINT
  5
200D
330
1F9C
100
AcDbEntity
  8
Defpoints
 62
     0
100
AcDbPoint
 10
28.52296860646038
 20
12.34106680007716
 30
0.0
  0
ENDBLK
  5
1FA7
330
1F9C
100
AcDbEntity
  8
0
100
AcDbBlockEnd
  0
BLOCK
  5
1FB2
330
1FA8
100
AcDbEntity
  8
0
100
AcDbBlockBegin
  2
*D12
 70
     1
 10
0.0
 20
0.0
 30
0.0
  3
*D12
  1

  0
LINE
  5
200E
330
1FA8
100
AcDbEntity
  8
Bemaßung
 62
     0
370
    -2
100
AcDbLine
 10
27.89796860646038
 20
12.34106680007716
 30
0.0
 11
21.68072494297535
 21
12.34106680007716
 31
0.0
  0
LINE
  5
200F
330
1FA8
100
AcDbEntity
  8
Bemaßung
 62
     0
370
    -2
100
AcDbLine
 10
30.64503633480774
 20
47.34106680007712
 30
0.0
 11
21.68072494297536
 21
47.34106680007712
 31
0.0
  0
LINE
  5
2010
330
1FA8
100
AcDbEntity
  8
Bemaßung
 62
     0
370
    -2
100
AcDbLine
 10
22.93072494297535
 20
12.34106680007716
 30
0.0
 11
22.93072494297536
 21
47.34106680007712
 31
0.0
  0
INSERT
  5
2011
330
1FA8
100
AcDbEntity
  8
Bemaßung
 62
     0
370
    -2
100
AcDbBlockReference
  2
_Oblique
 10
22.93072494297535
 20
12.34106680007716
 30
0.0
 41
2.5
 42
2.5
 43
2.5
 50
270.0
  0
INSERT
  5
2012
330
1FA8
100
AcDbEntity
  8
Bemaßung
 62
     0
370
    -2
100
AcDbBlockReference
  2
_Oblique
 10
22.93072494297536
 20
47.34106680007712
 30
0.0
 41
2.5
 42
2.5
 43
2.5
 50
90.0
  0
MTEXT
  5
2013
330
1FA8
100
AcDbEntity
  8
Bemaßung
 62
     0
100
AcDbMText
 10
21.05572494297535
 20
29.84106680007715
 30
0.0
 40
2.5
 41
0.0
 71
     5
 72
     1
  1
35
  7
RomanS
 11
0.0000000000000001
 21
1.0
 31
0.0
 73
     1
 44
1.0
1001
ACAD
1000
MTEXTBEGIN
1070
    73
1070
     1
1070
    44
1040
1.0
1070
    74
1070
     0
1000
MTEXTEND
  0
POINT
  5
2014
330
1FA8
100
AcDbEntity
  8
Defpoints
 62
     0
100
AcDbPoint
 10
28.52296860646038
 20
12.34106680007716
 30
0.0
  0
POINT
  5
2015
330
1FA8
100
AcDbEntity
  8
Defpoints
 62
     0
100
AcDbPoint
 10
31.27003633480774
 20
47.34106680007712
 30
0.0
  0
POINT
  5
2016
330
1FA8
100
AcDbEntity
  8
Defpoints
 62
     0
100
AcDbPoint
 10
22.93072494297536
 20
47.34106680007712
 30
0.0
  0
ENDBLK
  5
1FB3
330
1FA8
100
AcDbEntity
  8
0
100
AcDbBlockEnd
  0
BLOCK
  5
1FBE
330
1FB4
100
AcDbEntity
  8
0
100
AcDbBlockBegin
  2
*D13
 70
     1
 10
0.0
 20
0.0
 30
0.0
  3
*D13
  1

  0
LINE
  5
2201
330
1FB4
100
AcDbEntity
  8
Bemaßung
 62
     0
370
    -2
100
AcDbLine
 10
112.2118588190926
 20
43.21606680007728
 30
0.0
 11
112.2118588190926
 21
37.24986963323366
 31
0.0
  0
LINE
  5
2202
330
1FB4
100
AcDbEntity
  8
Bemaßung
 62
     0
370
    -2
100
AcDbLine
 10
104.2118588190935
 20
39.66938811824178
 30
0.0
 11
104.2118588190935
 21
37.24986963323366
 31
0.0
  0
LINE
  5
2203
330
1FB4
100
AcDbEntity
  8
Bemaßung
 62
     0
370
    -2
100
AcDbLine
 10
112.2118588190926
 20
38.49986963323366
 30
0.0
 11
104.2118588190935
 21
38.49986963323366
 31
0.0
  0
INSERT
  5
2204
330
1FB4
100
AcDbEntity
  8
Bemaßung
 62
     0
370
    -2
100
AcDbBlockReference
  2
_Oblique
 10
112.2118588190926
 20
38.49986963323366
 30
0.0
 41
2.5
 42
2.5
 43
2.5
  0
INSERT
  5
2205
330
1FB4
100
AcDbEntity
  8
Bemaßung
 62
     0
370
    -2
100
AcDbBlockReference
  2
_Oblique
 10
104.2118588190935
 20
38.49986963323366
 30
0.0
 41
2.5
 42
2.5
 43
2.5
 50
180.0
  0
MTEXT
  5
2206
330
1FB4
100
AcDbEntity
  8
Bemaßung
 62
     0
100
AcDbMText
 10
108.211858819093
 20
40.37486963323366
 30
0.0
 40
2.5
 41
0.0
 71
     5
 72
     1
  1
8
  7
RomanS
 73
     1
 44
1.0
1001
ACAD
1000
MTEXTBEGIN
1070
    73
1070
     1
1070
    44
1040
1.0
1070
    74
1070
     0
1000
MTEXTEND
  0
POINT
  5
2207
330
1FB4
100
AcDbEntity
  8
Defpoints
 62
     0
100
AcDbPoint
 10
112.2118588190926
 20
43.84106680007728
 30
0.0
  0
POINT
  5
2208
330
1FB4
100
AcDbEntity
  8
Defpoints
 62
     0
100
AcDbPoint
 10
104.2118588190935
 20
40.29438811824178
 30
0.0
  0
POINT
  5
2209
330
1FB4
100
AcDbEntity
  8
Defpoints
 62
     0
100
AcDbPoint
 10
104.2118588190935
 20
38.49986963323366
 30
0.0
  0
ENDBLK
  5
1FBF
330
1FB4
100
AcDbEntity
  8
0
100
AcDbBlockEnd
  0
BLOCK
  5
1FCA
330
1FC0
100
AcDbEntity
  8
0
100
AcDbBlockBegin
  2
*D14
 70
     1
 10
0.0
 20
0.0
 30
0.0
  3
*D14
  1

  0
LINE
  5
21F8
330
1FC0
100
AcDbEntity
  8
Bemaßung
 62
     0
370
    -2
100
AcDbLine
 10
116.2484758237887
 20
42.34106680007712
 30
0.0
 11
123.033573847566
 21
42.34106680007712
 31
0.0
  0
LINE
  5
21F9
330
1FC0
100
AcDbEntity
  8
Bemaßung
 62
     0
370
    -2
100
AcDbLine
 10
114.7072076559516
 20
12.34106680007716
 30
0.0
 11
123.033573847566
 21
12.34106680007716
 31
0.0
  0
LINE
  5
21FA
330
1FC0
100
AcDbEntity
  8
Bemaßung
 62
     0
370
    -2
100
AcDbLine
 10
121.783573847566
 20
42.34106680007712
 30
0.0
 11
121.783573847566
 21
12.34106680007716
 31
0.0
  0
INSERT
  5
21FB
330
1FC0
100
AcDbEntity
  8
Bemaßung
 62
     0
370
    -2
100
AcDbBlockReference
  2
_Oblique
 10
121.783573847566
 20
42.34106680007712
 30
0.0
 41
2.5
 42
2.5
 43
2.5
 50
90.0
  0
INSERT
  5
21FC
330
1FC0
100
AcDbEntity
  8
Bemaßung
 62
     0
370
    -2
100
AcDbBlockReference
  2
_Oblique
 10
121.783573847566
 20
12.34106680007716
 30
0.0
 41
2.5
 42
2.5
 43
2.5
 50
270.0
  0
MTEXT
  5
21FD
330
1FC0
100
AcDbEntity
  8
Bemaßung
 62
     0
100
AcDbMText
 10
119.908573847566
 20
27.34106680007716
 30
0.0
 40
2.5
 41
0.0
 71
     5
 72
     1
  1
30
  7
RomanS
 11
0.0000000000000001
 21
1.0
 31
0.0
 73
     1
 44
1.0
1001
ACAD
1000
MTEXTBEGIN
1070
    73
1070
     1
1070
    44
1040
1.0
1070
    74
1070
     0
1000
MTEXTEND
  0
POINT
  5
21FE
330
1FC0
100
AcDbEntity
  8
Defpoints
 62
     0
100
AcDbPoint
 10
115.6234758237887
 20
42.34106680007712
 30
0.0
  0
POINT
  5
21FF
330
1FC0
100
AcDbEntity
  8
Defpoints
 62
     0
100
AcDbPoint
 10
114.0822076559516
 20
12.34106680007716
 30
0.0
  0
POINT
  5
2200
330
1FC0
100
AcDbEntity
  8
Defpoints
 62
     0
100
AcDbPoint
 10
121.783573847566
 20
12.34106680007716
 30
0.0
  0
ENDBLK
  5
1FCB
330
1FC0
100
AcDbEntity
  8
0
100
AcDbBlockEnd
  0
BLOCK
  5
1FD6
330
1FCC
100
AcDbEntity
  8
0
100
AcDbBlockBegin
  2
*D15
 70
     1
 10
0.0
 20
0.0
 30
0.0
  3
*D15
  1

  0
LINE
  5
235A
330
1FCC
100
AcDbEntity
  8
Bemaßung
 62
     0
370
    -2
100
AcDbLine
 10
262.2118588190929
 20
131.764633890049
 30
0.0
 11
262.2118588190929
 21
132.389633890049
 31
0.0
  0
LINE
  5
235B
330
1FCC
100
AcDbEntity
  8
Bemaßung
 62
     0
370
    -2
100
AcDbLine
 10
254.2118588190936
 20
132.3091523750573
 30
0.0
 11
254.2118588190936
 21
129.889633890049
 31
0.0
  0
LINE
  5
235C
330
1FCC
100
AcDbEntity
  8
Bemaßung
 62
     0
370
    -2
100
AcDbLine
 10
262.2118588190929
 20
131.139633890049
 30
0.0
 11
254.2118588190936
 21
131.139633890049
 31
0.0
  0
INSERT
  5
235D
330
1FCC
100
AcDbEntity
  8
Bemaßung
 62
     0
370
    -2
100
AcDbBlockReference
  2
_Oblique
 10
262.2118588190929
 20
131.139633890049
 30
0.0
 41
2.5
 42
2.5
 43
2.5
  0
INSERT
  5
235E
330
1FCC
100
AcDbEntity
  8
Bemaßung
 62
     0
370
    -2
100
AcDbBlockReference
  2
_Oblique
 10
254.2118588190936
 20
131.139633890049
 30
0.0
 41
2.5
 42
2.5
 43
2.5
 50
180.0
  0
MTEXT
  5
235F
330
1FCC
100
AcDbEntity
  8
Bemaßung
 62
     0
100
AcDbMText
 10
258.2118588190931
 20
133.014633890049
 30
0.0
 40
2.5
 41
0.0
 71
     5
 72
     1
  1
8
  7
RomanS
 73
     1
 44
1.0
1001
ACAD
1000
MTEXTBEGIN
1070
    73
1070
     1
1070
    44
1040
1.0
1070
    74
1070
     0
1000
MTEXTEND
  0
POINT
  5
2360
330
1FCC
100
AcDbEntity
  8
Defpoints
 62
     0
100
AcDbPoint
 10
262.2118588190929
 20
131.139633890049
 30
0.0
  0
POINT
  5
2361
330
1FCC
100
AcDbEntity
  8
Defpoints
 62
     0
100
AcDbPoint
 10
254.2118588190936
 20
132.9341523750573
 30
0.0
  0
POINT
  5
2362
330
1FCC
100
AcDbEntity
  8
Defpoints
 62
     0
100
AcDbPoint
 10
254.2118588190936
 20
131.139633890049
 30
0.0
  0
ENDBLK
  5
1FD7
330
1FCC
100
AcDbEntity
  8
0
100
AcDbBlockEnd
  0
BLOCK
  5
205A
330
2050
100
AcDbEntity
  8
0
100
AcDbBlockBegin
  2
*D16
 70
     1
 10
0.0
 20
0.0
 30
0.0
  3
*D16
  1

  0
LINE
  5
234E
330
2050
100
AcDbEntity
  8
Bemaßung
 62
     0
370
    -2
100
AcDbLine
 10
10.48560948375417
 20
194.9808315562947
 30
0.0
 11
9.860609483754164
 21
194.9808315562947
 31
0.0
  0
LINE
  5
234F
330
2050
100
AcDbEntity
  8
Bemaßung
 62
     0
370
    -2
100
AcDbLine
 10
10.48560948375415
 20
128.9806386031013
 30
0.0
 11
9.860609483754151
 21
128.9806386031013
 31
0.0
  0
LINE
  5
2350
330
2050
100
AcDbEntity
  8
Bemaßung
 62
     0
370
    -2
100
AcDbLine
 10
11.11060948375416
 20
194.9808315562947
 30
0.0
 11
11.11060948375415
 21
128.9806386031013
 31
0.0
  0
INSERT
  5
2351
330
2050
100
AcDbEntity
  8
Bemaßung
 62
     0
370
    -2
100
AcDbBlockReference
  2
_Oblique
 10
11.11060948375416
 20
194.9808315562947
 30
0.0
 41
2.5
 42
2.5
 43
2.5
 50
90.0
  0
INSERT
  5
2352
330
2050
100
AcDbEntity
  8
Bemaßung
 62
     0
370
    -2
100
AcDbBlockReference
  2
_Oblique
 10
11.11060948375415
 20
128.9806386031013
 30
0.0
 41
2.5
 42
2.5
 43
2.5
 50
270.0
  0
MTEXT
  5
2353
330
2050
100
AcDbEntity
  8
Bemaßung
 62
     0
100
AcDbMText
 10
9.235609483754133
 20
161.980735079698
 30
0.0
 40
2.5
 41
0.0
 71
     5
 72
     1
  1
66
  7
RomanS
 11
0.0000000000000001
 21
1.0
 31
0.0
 73
     1
 44
1.0
1001
ACAD
1000
MTEXTBEGIN
1070
    73
1070
     1
1070
    44
1040
1.0
1070
    74
1070
     0
1000
MTEXTEND
  0
POINT
  5
2354
330
2050
100
AcDbEntity
  8
Defpoints
 62
     0
100
AcDbPoint
 10
11.11060948375417
 20
194.9808315562947
 30
0.0
  0
POINT
  5
2355
330
2050
100
AcDbEntity
  8
Defpoints
 62
     0
100
AcDbPoint
 10
11.11060948375415
 20
128.9806386031013
 30
0.0
  0
POINT
  5
2356
330
2050
100
AcDbEntity
  8
Defpoints
 62
     0
100
AcDbPoint
 10
11.11060948375415
 20
128.9806386031013
 30
0.0
  0
ENDBLK
  5
205B
330
2050
100
AcDbEntity
  8
0
100
AcDbBlockEnd
  0
BLOCK
  5
2072
330
2068
100
AcDbEntity
  8
0
100
AcDbBlockBegin
  2
*D17
 70
     1
 10
0.0
 20
0.0
 30
0.0
  3
*D17
  1

  0
LINE
  5
2091
330
2068
100
AcDbEntity
  8
Bemaßung
 62
     0
370
    -2
100
AcDbLine
 10
165.1917424325195
 20
194.9808315562947
 30
0.0
 11
158.3513109040114
 21
194.9808315562947
 31
0.0
  0
LINE
  5
2092
330
2068
100
AcDbEntity
  8
Bemaßung
 62
     0
370
    -2
100
AcDbLine
 10
158.9763109040113
 20
128.9806386031013
 30
0.0
 11
158.3513109040113
 21
128.9806386031013
 31
0.0
  0
LINE
  5
2093
330
2068
100
AcDbEntity
  8
Bemaßung
 62
     0
370
    -2
100
AcDbLine
 10
159.6013109040114
 20
194.9808315562947
 30
0.0
 11
159.6013109040113
 21
128.9806386031013
 31
0.0
  0
INSERT
  5
2094
330
2068
100
AcDbEntity
  8
Bemaßung
 62
     0
370
    -2
100
AcDbBlockReference
  2
_Oblique
 10
159.6013109040114
 20
194.9808315562947
 30
0.0
 41
2.5
 42
2.5
 43
2.5
 50
90.0
  0
INSERT
  5
2095
330
2068
100
AcDbEntity
  8
Bemaßung
 62
     0
370
    -2
100
AcDbBlockReference
  2
_Oblique
 10
159.6013109040113
 20
128.9806386031013
 30
0.0
 41
2.5
 42
2.5
 43
2.5
 50
270.0
  0
MTEXT
  5
2096
330
2068
100
AcDbEntity
  8
Bemaßung
 62
     0
100
AcDbMText
 10
157.7263109040113
 20
161.980735079698
 30
0.0
 40
2.5
 41
0.0
 71
     5
 72
     1
  1
66
  7
RomanS
 11
0.0000000000000001
 21
1.0
 31
0.0
 73
     1
 44
1.0
1001
ACAD
1000
MTEXTBEGIN
1070
    73
1070
     1
1070
    44
1040
1.0
1070
    74
1070
     0
1000
MTEXTEND
  0
POINT
  5
2097
330
2068
100
AcDbEntity
  8
Defpoints
 62
     0
100
AcDbPoint
 10
165.8167424325195
 20
194.9808315562947
 30
0.0
  0
POINT
  5
2098
330
2068
100
AcDbEntity
  8
Defpoints
 62
     0
100
AcDbPoint
 10
159.6013109040113
 20
128.9806386031013
 30
0.0
  0
POINT
  5
2099
330
2068
100
AcDbEntity
  8
Defpoints
 62
     0
100
AcDbPoint
 10
159.6013109040113
 20
128.9806386031013
 30
0.0
  0
ENDBLK
  5
2073
330
2068
100
AcDbEntity
  8
0
100
AcDbBlockEnd
  0
BLOCK
  5
2111
330
2110
100
AcDbEntity
  8
0
100
AcDbBlockBegin
  2
D-429.311
 70
     0
 10
0.0
 20
0.0
 30
0.0
  3
D-429.311
  1

  0
HATCH
  5
2112
330
2110
100
AcDbEntity
  8
Dichtungen
100
AcDbHatch
 10
0.0
 20
0.0
 30
0.0
210
0.0
220
0.0
230
1.0
  2
ANSI37
 70
     0
 71
     1
 91
        2
 92
        1
 93
       27
 72
     1
 10
-0.0585786437626865
 20
0.1414213562373163
 11
-0.0585786437628855
 21
2.699651495866476
 72
     2
 10
-0.2585786437628741
 20
2.699651495866476
 40
0.2
 50
0.0
 51
90.0
 73
     1
 72
     1
 10
-0.2585786437628741
 20
2.899651495866493
 11
-1.658578643762879
 21
2.899651495866493
 72
     2
 10
-1.658578643762879
 20
2.699651495866476
 40
0.2
 50
90.0
 51
180.0
 73
     1
 72
     1
 10
-1.858578643762896
 20
2.699651495866476
 11
-1.858578643762696
 21
2.399651495866493
 72
     2
 10
-2.158578643762679
 20
2.399651495866493
 40
0.3
 50
360.0
 51
498.9601010000011
 73
     0
 72
     1
 10
-2.384854643762693
 20
2.202676495866509
 11
-4.116045643762689
 21
4.191384495866515
 72
     2
 10
-3.678578643762691
 20
4.572203495866516
 40
0.58
 50
138.9601010000012
 51
180.0
 73
     0
 72
     1
 10
-4.258578643762675
 20
4.572203495866516
 11
-4.258578643762675
 21
4.627099495866501
 72
     2
 10
-3.678578643762691
 20
4.627099495866501
 40
0.58
 50
180.0
 51
221.0398989999988
 73
     0
 72
     1
 10
-4.116045643762689
 20
5.007918495866505
 11
-2.384854643762693
 21
6.996627495866505
 72
     2
 10
-2.158578643762679
 20
6.799651495866527
 40
0.3
 50
221.0398989999988
 51
360.0
 73
     0
 72
     1
 10
-1.858578643762696
 20
6.799651495866527
 11
-1.858578643762696
 21
6.499651495866544
 72
     2
 10
-1.658578643762679
 20
6.499651495866544
 40
0.2
 50
180.0
 51
270.0
 73
     1
 72
     1
 10
-1.658578643762679
 20
6.299651495866527
 11
-0.2585786437626751
 21
6.299651495866527
 72
     2
 10
-0.2585786437626751
 20
6.499651495866544
 40
0.2
 50
270.0
 51
360.0
 73
     1
 72
     1
 10
-0.0585786437626865
 20
6.499651495866544
 11
-0.0585786437626865
 21
10.09965149586651
 72
     1
 10
-0.0585786437626865
 20
10.09965149586651
 11
4.088332845605108
 21
14.20603098618196
 72
     2
 10
4.440145689278266
 20
13.85074557552369
 40
0.5
 50
225.2813779154355
 51
389.0817658714957
 73
     0
 72
     1
 10
4.877109165712994
 20
13.60771693469698
 11
2.441421356237313
 21
9.228370495866499
 72
     2
 10
3.441421356237313
 20
7.496319495866512
 40
2.0
 50
119.9999999999997
 51
180.0
 73
     1
 72
     1
 10
1.441421356237313
 20
7.496319495866512
 11
1.441421356237313
 21
2.799089356237316
 72
     2
 10
2.041421356237306
 20
2.799089356237316
 40
0.6
 50
180.0
 51
245.0
 73
     1
 72
     1
 10
1.787850356237314
 20
2.25530435623733
 11
3.47951635623731
 21
1.466468356237356
 72
     2
 10
3.141421356237301
 20
0.7414213562373391
 40
0.8
 50
295.0000000000001
 51
450.0
 73
     0
 72
     1
 10
3.141421356237301
 20
-0.0585786437626723
 11
0.1414213562373163
 21
-0.0585786437626723
 72
     2
 10
0.1414213562373163
 20
0.1414213562373163
 40
0.2
 50
90.0
 51
180.0
 73
     0
 97
       27
330
2135
330
211E
330
211A
330
211D
330
2124
330
211B
330
211C
330
212F
330
212E
330
2130
330
2121
330
2122
330
2125
330
2120
330
2123
330
211F
330
2134
330
2116
330
2115
330
2114
330
2113
330
2131
330
2117
330
2118
330
2119
330
2132
330
2133
 92
       16
 93
        8
 72
     2
 10
-1.258578643762675
 20
4.599651495866509
 40
0.7
 50
270.0
 51
450.0
 73
     1
 72
     1
 10
-1.258578643762675
 20
5.299651495866527
 11
-2.77779264376268
 21
5.299651495866527
 72
     2
 10
-2.77779264376268
 20
4.999651495866514
 40
0.3
 50
90.0
 51
138.9601010000012
 73
     1
 72
     1
 10
-3.004068643762693
 20
5.196627495866521
 11
-3.409429643762691
 21
4.730968495866505
 72
     2
 10
-3.258578643762675
 20
4.599651495866509
 40
0.2
 50
138.9601010000012
 51
221.0398989999988
 73
     1
 72
     1
 10
-3.409429643762691
 20
4.468334495866511
 11
-3.004068643762693
 21
4.002676495866495
 72
     2
 10
-2.77779264376268
 20
4.1996514958665
 40
0.3
 50
221.0398989999988
 51
270.0
 73
     1
 72
     1
 10
-2.77779264376268
 20
3.899651495866493
 11
-1.258578643762675
 21
3.899651495866493
 97
        8
330
212D
330
212A
330
212C
330
2129
330
2128
330
2127
330
212B
330
2126
 75
     0
 76
     1
 52
0.0
 41
0.4
 77
     0
 78
     2
 53
45.0
 43
-74.10385997653673
 44
241.5744961112999
 45
-0.8980256121069151
 46
0.8980256121069153
 79
     0
 53
135.0
 43
-74.10385997653673
 44
241.5744961112999
 45
-0.8980256121069153
 46
-0.8980256121069151
 79
     0
 98
        1
 10
-74.10385997653673
 20
241.5744961112999
1001
ACAD
1010
0.0
1020
0.0
1030
0.0
  0
ARC
  5
2113
102
{ACAD_REACTORS
330
2112
102
}
330
2110
100
AcDbEntity
  8
Dichtungen
100
AcDbCircle
 10
3.441421356237313
 20
7.496319495866512
 30
0.0
 40
2.0
100
AcDbArc
 50
119.9999999999997
 51
180.0
  0
LINE
  5
2114
102
{ACAD_REACTORS
330
2112
102
}
330
2110
100
AcDbEntity
  8
Dichtungen
100
AcDbLine
 10
4.877109165712994
 20
13.60771693469698
 30
0.0
 11
2.441421356237313
 21
9.228370495866499
 31
0.0
  0
ARC
  5
2115
102
{ACAD_REACTORS
330
2112
102
}
330
2110
100
AcDbEntity
  8
Dichtungen
100
AcDbCircle
 10
4.440145689278266
 20
13.85074557552369
 30
0.0
 40
0.5
100
AcDbArc
 50
330.9182341285043
 51
134.7186220845645
  0
LINE
  5
2116
102
{ACAD_REACTORS
330
2112
102
}
330
2110
100
AcDbEntity
  8
Dichtungen
100
AcDbLine
 10
-0.0585786437626865
 20
10.09965149586651
 30
0.0
 11
4.088332845605108
 21
14.20603098618196
 31
0.0
  0
ARC
  5
2117
102
{ACAD_REACTORS
330
2112
102
}
330
2110
100
AcDbEntity
  8
Dichtungen
100
AcDbCircle
 10
2.041421356237306
 20
2.799089356237316
 30
0.0
 40
0.6
100
AcDbArc
 50
180.0
 51
245.0
  0
LINE
  5
2118
102
{ACAD_REACTORS
330
2112
102
}
330
2110
100
AcDbEntity
  8
Dichtungen
100
AcDbLine
 10
1.787850356237314
 20
2.25530435623733
 30
0.0
 11
3.47951635623731
 21
1.466468356237356
 31
0.0
  0
ARC
  5
2119
102
{ACAD_REACTORS
330
2112
102
}
330
2110
100
AcDbEntity
  8
Dichtungen
100
AcDbCircle
 10
3.141421356237301
 20
0.7414213562373391
 30
0.0
 40
0.8
100
AcDbArc
 50
270.0
 51
64.99999999999996
  0
LINE
  5
211A
102
{ACAD_REACTORS
330
2112
102
}
330
2110
100
AcDbEntity
  8
Dichtungen
100
AcDbLine
 10
-0.2585786437628741
 20
2.899651495866493
 30
0.0
 11
-1.658578643762879
 21
2.899651495866493
 31
0.0
  0
ARC
  5
211B
102
{ACAD_REACTORS
330
2112
102
}
330
2110
100
AcDbEntity
  8
Dichtungen
100
AcDbCircle
 10
-2.158578643762679
 20
2.399651495866493
 30
0.0
 40
0.3
100
AcDbArc
 50
221.0398989999988
 51
0.0
  0
LINE
  5
211C
102
{ACAD_REACTORS
330
2112
102
}
330
2110
100
AcDbEntity
  8
Dichtungen
100
AcDbLine
 10
-4.116045643762689
 20
4.191384495866515
 30
0.0
 11
-2.384854643762693
 21
2.202676495866509
 31
0.0
  0
ARC
  5
211D
102
{ACAD_REACTORS
330
2112
102
}
330
2110
100
AcDbEntity
  8
Dichtungen
100
AcDbCircle
 10
-1.658578643762879
 20
2.699651495866476
 30
0.0
 40
0.2
100
AcDbArc
 50
90.0
 51
180.0
  0
ARC
  5
211E
102
{ACAD_REACTORS
330
2112
102
}
330
2110
100
AcDbEntity
  8
Dichtungen
100
AcDbCircle
 10
-0.2585786437628741
 20
2.699651495866476
 30
0.0
 40
0.2
100
AcDbArc
 50
0.0
 51
90.0
  0
ARC
  5
211F
102
{ACAD_REACTORS
330
2112
102
}
330
2110
100
AcDbEntity
  8
Dichtungen
100
AcDbCircle
 10
-0.2585786437626751
 20
6.499651495866544
 30
0.0
 40
0.2
100
AcDbArc
 50
270.0
 51
0.0
  0
ARC
  5
2120
102
{ACAD_REACTORS
330
2112
102
}
330
2110
100
AcDbEntity
  8
Dichtungen
100
AcDbCircle
 10
-1.658578643762679
 20
6.499651495866544
 30
0.0
 40
0.2
100
AcDbArc
 50
180.0
 51
270.0
  0
LINE
  5
2121
102
{ACAD_REACTORS
330
2112
102
}
330
2110
100
AcDbEntity
  8
Dichtungen
100
AcDbLine
 10
-4.116045643762689
 20
5.007918495866505
 30
0.0
 11
-2.384854643762693
 21
6.996627495866505
 31
0.0
  0
ARC
  5
2122
102
{ACAD_REACTORS
330
2112
102
}
330
2110
100
AcDbEntity
  8
Dichtungen
100
AcDbCircle
 10
-2.158578643762679
 20
6.799651495866527
 30
0.0
 40
0.3
100
AcDbArc
 50
0.0
 51
138.9601010000012
  0
LINE
  5
2123
102
{ACAD_REACTORS
330
2112
102
}
330
2110
100
AcDbEntity
  8
Dichtungen
100
AcDbLine
 10
-0.2585786437626751
 20
6.299651495866527
 30
0.0
 11
-1.658578643762679
 21
6.299651495866527
 31
0.0
  0
LINE
  5
2124
102
{ACAD_REACTORS
330
2112
102
}
330
2110
100
AcDbEntity
  8
Dichtungen
100
AcDbLine
 10
-1.858578643762696
 20
2.399651495866493
 30
0.0
 11
-1.858578643762896
 21
2.699651495866476
 31
0.0
  0
LINE
  5
2125
102
{ACAD_REACTORS
330
2112
102
}
330
2110
100
AcDbEntity
  8
Dichtungen
100
AcDbLine
 10
-1.858578643762696
 20
6.499651495866544
 30
0.0
 11
-1.858578643762696
 21
6.799651495866527
 31
0.0
  0
LINE
  5
2126
102
{ACAD_REACTORS
330
2112
102
}
330
2110
100
AcDbEntity
  8
Dichtungen
100
AcDbLine
 10
-1.258578643762675
 20
3.899651495866493
 30
0.0
 11
-2.77779264376268
 21
3.899651495866493
 31
0.0
  0
LINE
  5
2127
102
{ACAD_REACTORS
330
2112
102
}
330
2110
100
AcDbEntity
  8
Dichtungen
100
AcDbLine
 10
-3.409429643762691
 20
4.468334495866511
 30
0.0
 11
-3.004068643762693
 21
4.002676495866495
 31
0.0
  0
ARC
  5
2128
102
{ACAD_REACTORS
330
2112
102
}
330
2110
100
AcDbEntity
  8
Dichtungen
100
AcDbCircle
 10
-3.258578643762675
 20
4.599651495866509
 30
0.0
 40
0.2
100
AcDbArc
 50
138.9601010000012
 51
221.0398989999988
  0
LINE
  5
2129
102
{ACAD_REACTORS
330
2112
102
}
330
2110
100
AcDbEntity
  8
Dichtungen
100
AcDbLine
 10
-3.409429643762691
 20
4.730968495866505
 30
0.0
 11
-3.004068643762693
 21
5.196627495866521
 31
0.0
  0
LINE
  5
212A
102
{ACAD_REACTORS
330
2112
102
}
330
2110
100
AcDbEntity
  8
Dichtungen
100
AcDbLine
 10
-1.258578643762675
 20
5.299651495866527
 30
0.0
 11
-2.77779264376268
 21
5.299651495866527
 31
0.0
  0
ARC
  5
212B
102
{ACAD_REACTORS
330
2112
102
}
330
2110
100
AcDbEntity
  8
Dichtungen
100
AcDbCircle
 10
-2.77779264376268
 20
4.1996514958665
 30
0.0
 40
0.3
100
AcDbArc
 50
221.0398989999988
 51
270.0
  0
ARC
  5
212C
102
{ACAD_REACTORS
330
2112
102
}
330
2110
100
AcDbEntity
  8
Dichtungen
100
AcDbCircle
 10
-2.77779264376268
 20
4.999651495866514
 30
0.0
 40
0.3
100
AcDbArc
 50
90.0
 51
138.9601010000012
  0
ARC
  5
212D
102
{ACAD_REACTORS
330
2112
102
}
330
2110
100
AcDbEntity
  8
Dichtungen
100
AcDbCircle
 10
-1.258578643762675
 20
4.599651495866509
 30
0.0
 40
0.7
100
AcDbArc
 50
270.0
 51
90.0
  0
LINE
  5
212E
102
{ACAD_REACTORS
330
2112
102
}
330
2110
100
AcDbEntity
  8
Dichtungen
100
AcDbLine
 10
-4.258578643762675
 20
4.572203495866516
 30
0.0
 11
-4.258578643762675
 21
4.627099495866501
 31
0.0
  0
ARC
  5
212F
102
{ACAD_REACTORS
330
2112
102
}
330
2110
100
AcDbEntity
  8
Dichtungen
100
AcDbCircle
 10
-3.678578643762691
 20
4.572203495866516
 30
0.0
 40
0.58
100
AcDbArc
 50
180.0
 51
221.0398989999988
  0
ARC
  5
2130
102
{ACAD_REACTORS
330
2112
102
}
330
2110
100
AcDbEntity
  8
Dichtungen
100
AcDbCircle
 10
-3.678578643762691
 20
4.627099495866501
 30
0.0
 40
0.58
100
AcDbArc
 50
138.9601010000012
 51
180.0
  0
LINE
  5
2131
102
{ACAD_REACTORS
330
2112
102
}
330
2110
100
AcDbEntity
  8
Dichtungen
100
AcDbLine
 10
1.441421356237313
 20
2.799089356237316
 30
0.0
 11
1.441421356237313
 21
7.496319495866512
 31
0.0
  0
LINE
  5
2132
102
{ACAD_REACTORS
330
2112
102
}
330
2110
100
AcDbEntity
  8
Dichtungen
100
AcDbLine
 10
0.1414213562373163
 20
-0.0585786437626723
 30
0.0
 11
3.141421356237301
 21
-0.0585786437626723
 31
0.0
  0
ARC
  5
2133
102
{ACAD_REACTORS
330
2112
102
}
330
2110
100
AcDbEntity
  8
Dichtungen
100
AcDbCircle
 10
0.1414213562373163
 20
0.1414213562373163
 30
0.0
 40
0.2
100
AcDbArc
 50
180.0
 51
270.0
  0
LINE
  5
2134
102
{ACAD_REACTORS
330
2112
102
}
330
2110
100
AcDbEntity
  8
Dichtungen
100
AcDbLine
 10
-0.0585786437626865
 20
6.499651495866544
 30
0.0
 11
-0.0585786437626865
 21
10.09965149586651
 31
0.0
  0
LINE
  5
2135
102
{ACAD_REACTORS
330
2112
102
}
330
2110
100
AcDbEntity
  8
Dichtungen
100
AcDbLine
 10
-0.0585786437626865
 20
0.1414213562373163
 30
0.0
 11
-0.0585786437628855
 21
2.699651495866476
 31
0.0
  0
ENDBLK
  5
2136
330
2110
100
AcDbEntity
  8
0
100
AcDbBlockEnd
  0
ENDSEC
  0
SECTION
  2
ENTITIES
  0
LWPOLYLINE
  5
1F14
102
{ACAD_REACTORS
330
2282
330
231F
102
}
330
1F
100
AcDbEntity
  8
Sohlbank
100
AcDbPolyline
 90
       32
 70
     1
 43
0.0
 10
112.2118588190927
 20
43.84106680007728
 10
112.2118588190927
 20
43.84106680007728
 10
112.2118588190922
 20
60.34106680007728
 42
0.4142135623730951
 10
110.2118588190922
 20
62.34106680007728
 10
73.21185881909276
 20
62.34106680007728
 42
-0.4142135623730951
 10
72.2118588190927
 20
63.34106680007735
 10
72.2118588190927
 20
80.34106680007736
 42
0.4142135623730951
 10
70.21185881909275
 20
82.34106680007736
 10
49.21185881909275
 20
82.34106680007736
 10
49.21185881909275
 20
73.84106680009137
 10
44.21185881909275
 20
73.84106680009137
 10
44.21185881909275
 20
82.34106680009146
 10
35.21185881909258
 20
82.34106680007736
 10
34.21185881909247
 20
81.34106680007736
 10
34.21185881909247
 20
67.34106730026336
 10
35.3665593574712
 20
65.34106730026528
 10
34.21185881909247
 20
63.34106730026295
 10
34.21185881909247
 20
47.74106730026343
 10
34.21185881909333
 20
45.53176382904076
 42
0.5205670505517423
 10
38.2379192490704
 20
42.71268596668304
 10
42.44059292531011
 20
44.24233408916847
 42
0.2679491924311182
 10
42.76198673015341
 20
44.62535631072785
 10
43.16798570030118
 20
46.92789088891055
 42
-0.3639702342661923
 10
43.66038957680721
 20
47.34106680007712
 10
45.71185881909332
 20
47.34106680007712
 42
-0.4142135623731546
 10
46.21185881909338
 20
46.84106680007714
 10
46.21185881909332
 20
15.34106680007727
 42
0.4142135623730962
 10
49.21185881909332
 20
12.34106680007716
 10
101.2118588190932
 20
12.34106680007716
 42
0.4142135623730966
 10
104.2118588190932
 20
15.34106680007727
 10
104.2118588190935
 20
42.34106680007712
 10
110.7118588190926
 20
42.34106680007712
 42
0.4142135623731325
  0
LINE
  5
1F15
330
1F
100
AcDbEntity
  8
Schlitz-Zapfen
100
AcDbLine
 10
46.21185881909338
 20
46.84106680007714
 30
0.0
 11
46.21185881909309
 21
73.84106680009134
 31
0.0
  0
LINE
  5
1F16
330
1F
100
AcDbEntity
  8
Schlitz-Zapfen
100
AcDbLine
 10
55.71185881909309
 20
12.34106680007716
 30
0.0
 11
55.71185881909309
 21
82.34106680007732
 31
0.0
  0
LINE
  5
1F17
330
1F
100
AcDbEntity
  8
Schlitz-Zapfen
100
AcDbLine
 10
66.71185881909309
 20
12.34106680007716
 30
0.0
 11
66.71185881909309
 21
82.34106680007732
 31
0.0
  0
LINE
  5
1F18
330
1F
100
AcDbEntity
  8
Schlitz-Zapfen
100
AcDbLine
 10
88.71185881909275
 20
12.34106680007716
 30
0.0
 11
88.71185881909275
 21
62.34106680007728
 31
0.0
  0
MTEXT
  5
1F1C
102
{ACAD_REACTORS
330
2282
330
231F
102
}
330
1F
100
AcDbEntity
  8
Bemaßung
100
AcDbMText
 10
66.85527052096438
 20
46.39236702374128
 30
0.0
 40
4.0
 41
17.08212320174334
 71
     1
 72
     5
  1
70/78
  7
RomanS
 73
     1
 44
1.0
1001
ACAD
1000
MTEXTBEGIN
1070
    73
1070
     1
1070
    44
1040
1.0
1070
    74
1070
     0
1000
MTEXTEND
  0
LWPOLYLINE
  5
1F1E
102
{ACAD_REACTORS
330
22C9
330
233B
102
}
330
1F
100
AcDbEntity
  8
Sohlbank
100
AcDbPolyline
 90
       30
 70
     1
 43
0.0
 10
184.2118588190933
 20
45.34106680007711
 42
0.5205670505517423
 10
188.2379192490704
 20
42.52198893771947
 10
192.4405929253103
 20
44.05163706020475
 42
0.2679491924311182
 10
192.7619867301535
 20
44.43465928176425
 10
193.1679857003011
 20
46.92789088891055
 42
-0.3639702342661923
 10
193.6603895768073
 20
47.34106680007712
 10
195.7118588190933
 20
47.34106680007712
 42
-0.4142135623731546
 10
196.2118588190933
 20
46.84106680007714
 10
196.2118588190933
 20
15.34106680007727
 42
0.4142135623730962
 10
199.2118588190933
 20
12.34106680007716
 10
251.2118588190929
 20
12.34106680007716
 10
259.2118588190924
 20
12.34106680007716
 42
0.4142135623730951
 10
262.2118588190929
 20
15.34106680007727
 10
262.2118588190929
 20
48.84106680007736
 10
262.2118588190923
 20
60.34106680007728
 42
0.4142135623730951
 10
260.2118588190923
 20
62.34106680007728
 10
223.2118588190929
 20
62.34106680007728
 42
-0.4142135623730951
 10
222.2118588190927
 20
63.34106680007735
 10
222.2118588190927
 20
80.34106680007736
 42
0.4142135623730951
 10
220.2118588190929
 20
82.34106680007736
 10
199.2118588190928
 20
82.34106680007736
 10
199.2118588190928
 20
73.84106680009137
 10
194.2118588190928
 20
73.84106680009137
 10
194.2118588190928
 20
82.34106680009146
 10
185.2118588190926
 20
82.34106680007736
 10
184.2118588190926
 20
81.34106680007736
 10
184.2118588190926
 20
67.34106730026336
 10
185.3665593574712
 20
65.34106730026528
 10
184.2118588190926
 20
63.34106730026295
 10
184.2118588190926
 20
47.74106730026343
  0
LINE
  5
1F1F
330
1F
100
AcDbEntity
  8
Schlitz-Zapfen
100
AcDbLine
 10
196.2118588190933
 20
46.84106680007714
 30
0.0
 11
196.2118588190931
 21
73.84106680009137
 31
0.0
  0
LINE
  5
1F20
330
1F
100
AcDbEntity
  8
Schlitz-Zapfen
100
AcDbLine
 10
205.7118588190931
 20
12.34106680007721
 30
0.0
 11
205.7118588190931
 21
82.34106680007736
 31
0.0
  0
LINE
  5
1F21
330
1F
100
AcDbEntity
  8
Schlitz-Zapfen
100
AcDbLine
 10
216.7118588190931
 20
12.34106680007721
 30
0.0
 11
216.7118588190931
 21
82.34106680007736
 31
0.0
  0
LINE
  5
1F22
330
1F
100
AcDbEntity
  8
Schlitz-Zapfen
100
AcDbLine
 10
238.7118588190929
 20
12.34106680007721
 30
0.0
 11
238.7118588190929
 21
62.34106680007728
 31
0.0
  0
MTEXT
  5
1F26
102
{ACAD_REACTORS
330
22C9
330
233B
102
}
330
1F
100
AcDbEntity
  8
Bemaßung
100
AcDbMText
 10
217.2195844119108
 20
46.08120705641638
 30
0.0
 40
4.0
 41
17.08212320174334
 71
     1
 72
     5
  1
70/78
  7
RomanS
 73
     1
 44
1.0
1001
ACAD
1000
MTEXTBEGIN
1070
    73
1070
     1
1070
    44
1040
1.0
1070
    74
1070
     0
1000
MTEXTEND
  0
LWPOLYLINE
  5
1F27
330
1F
100
AcDbEntity
  8
0
100
AcDbPolyline
 90
        4
 70
     1
 43
0.0
 10
0.0000011707487033
 20
0.0000005697270922
 10
297.0000011707487
 20
0.0000005697270922
 10
297.0000011707487
 20
210.000000569727
 10
0.0000011707487033
 20
210.000000569727
  0
LWPOLYLINE
  5
1F28
330
1F
100
AcDbEntity
  8
0
100
AcDbPolyline
 90
        4
 70
     1
 43
0.0
 10
6.000001170748871
 20
6.000000569727093
 10
291.0000011707488
 20
6.000000569727093
 10
291.0000011707488
 20
204.000000569727
 10
6.000001170748871
 20
204.000000569727
  0
LWPOLYLINE
  5
1F2A
102
{ACAD_REACTORS
330
225B
330
22E5
102
}
330
1F
100
AcDbEntity
  8
Sohlbank
100
AcDbPolyline
 90
       23
 70
     1
 43
0.0
 10
34.21185881909247
 20
136.3808315570786
 10
34.2118588190927
 20
107.9808310568925
 42
0.414213562373094
 10
37.21185881909271
 20
104.9808310568925
 10
101.2118588190927
 20
104.9808310568925
 10
109.2118588190919
 20
104.9808310568925
 42
0.4142135623730951
 10
112.2118588190927
 20
107.9808310568925
 10
112.2118588190927
 20
141.4808310568925
 10
112.2118588190922
 20
152.9808310568926
 42
0.4142135623730951
 10
110.2118588190922
 20
154.9808310568925
 10
73.21185881909276
 20
154.9808310568925
 42
-0.4142135623730951
 10
72.2118588190927
 20
155.9808310568925
 10
72.2118588190927
 20
172.9808310568928
 42
0.4142135623730951
 10
70.21185881909275
 20
174.9808310568928
 10
49.21185881909275
 20
174.9808310568928
 10
49.21185881909275
 20
166.4808310569068
 10
44.21185881909275
 20
166.4808310569068
 10
44.21185881909275
 20
174.9808310569069
 10
35.21185881909258
 20
174.9808310568928
 10
34.21185881909247
 20
173.9808310568928
 10
34.21185881909247
 20
159.9808315570788
 10
35.3665593574712
 20
157.9808315570806
 10
34.21185881909247
 20
155.9808315570784
 10
34.21185881909247
 20
140.3808315570788
  0
LINE
  5
1F2B
330
1F
100
AcDbEntity
  8
Schlitz-Zapfen
100
AcDbLine
 10
46.21185881909309
 20
104.9808310568925
 30
0.0
 11
46.21185881909309
 21
166.4808310569067
 31
0.0
  0
LINE
  5
1F2C
330
1F
100
AcDbEntity
  8
Schlitz-Zapfen
100
AcDbLine
 10
55.71185881909309
 20
104.9808310568925
 30
0.0
 11
55.71185881909309
 21
174.9808310568927
 31
0.0
  0
LINE
  5
1F2D
330
1F
100
AcDbEntity
  8
Schlitz-Zapfen
100
AcDbLine
 10
66.71185881909309
 20
104.9808310568925
 30
0.0
 11
66.71185881909309
 21
174.9808310568927
 31
0.0
  0
LINE
  5
1F2E
330
1F
100
AcDbEntity
  8
Schlitz-Zapfen
100
AcDbLine
 10
88.71185881909275
 20
104.9808310568925
 30
0.0
 11
88.71185881909275
 21
154.9808310568925
 31
0.0
  0
MTEXT
  5
1F32
102
{ACAD_REACTORS
330
225B
330
22E5
102
}
330
1F
100
AcDbEntity
  8
Bemaßung
100
AcDbMText
 10
67.24507118695362
 20
141.4707448693774
 30
0.0
 40
4.0
 41
17.08212320174334
 71
     1
 72
     5
  1
70/78
  7
RomanS
 73
     1
 44
1.0
1001
ACAD
1000
MTEXTBEGIN
1070
    73
1070
     1
1070
    44
1040
1.0
1070
    74
1070
     0
1000
MTEXTEND
  0
LWPOLYLINE
  5
1F34
102
{ACAD_REACTORS
330
22A2
330
2302
330
1F3F
102
}
330
1F
100
AcDbEntity
  8
Sohlbank
100
AcDbPolyline
 90
       25
 70
     1
 43
0.0
 10
262.2118588190929
 20
136.4808310568926
 10
262.2118588190929
 20
136.4808310568926
 10
262.2118588190923
 20
152.9808310568926
 42
0.4142135623730951
 10
260.2118588190923
 20
154.9808310568925
 10
223.2118588190929
 20
154.9808310568925
 42
-0.4142135623730951
 10
222.2118588190927
 20
155.9808310568925
 10
222.2118588190927
 20
172.9808310568928
 42
0.4142135623730951
 10
220.2118588190929
 20
174.9808310568928
 10
199.2118588190928
 20
174.9808310568928
 10
199.2118588190928
 20
166.4808310569068
 10
194.2118588190928
 20
166.4808310569068
 10
194.2118588190928
 20
174.9808310569069
 10
185.2118588190926
 20
174.9808310568928
 10
184.2118588190926
 20
173.9808310568928
 10
184.2118588190926
 20
159.9808315570788
 10
185.3665593574712
 20
157.9808315570806
 10
184.2118588190926
 20
155.9808315570784
 10
184.2118588190926
 20
140.3808315570788
 10
184.2118588190926
 20
136.3808315570786
 10
184.2118588190926
 20
107.9808310568925
 42
0.414213562373094
 10
187.2118588190926
 20
104.9808310568925
 10
251.2118588190932
 20
104.9808310568925
 42
0.4142135623730966
 10
254.2118588190932
 20
107.9808310568925
 10
254.2118588190936
 20
134.9808310568925
 10
260.7118588190929
 20
134.9808310568925
 42
0.4142135623731325
  0
LINE
  5
1F35
330
1F
100
AcDbEntity
  8
Schlitz-Zapfen
100
AcDbLine
 10
196.2118588190931
 20
104.9808310568927
 30
0.0
 11
196.2118588190931
 21
166.4808310569068
 31
0.0
  0
LINE
  5
1F36
330
1F
100
AcDbEntity
  8
Schlitz-Zapfen
100
AcDbLine
 10
205.7118588190931
 20
104.9808310568927
 30
0.0
 11
205.7118588190931
 21
174.9808310568928
 31
0.0
  0
LINE
  5
1F37
330
1F
100
AcDbEntity
  8
Schlitz-Zapfen
100
AcDbLine
 10
216.7118588190931
 20
104.9808310568927
 30
0.0
 11
216.7118588190931
 21
174.9808310568928
 31
0.0
  0
LINE
  5
1F38
330
1F
100
AcDbEntity
  8
Schlitz-Zapfen
100
AcDbLine
 10
238.7118588190929
 20
104.9808310568927
 30
0.0
 11
238.7118588190929
 21
154.9808310568925
 31
0.0
  0
MTEXT
  5
1F3C
102
{ACAD_REACTORS
330
22A2
330
2302
102
}
330
1F
100
AcDbEntity
  8
Bemaßung
100
AcDbMText
 10
217.3252734081795
 20
144.2327587309876
 30
0.0
 40
4.0
 41
17.08212320174334
 71
     1
 72
     5
  1
70/78
  7
RomanS
 73
     1
 44
1.0
1001
ACAD
1000
MTEXTBEGIN
1070
    73
1070
     1
1070
    44
1040
1.0
1070
    74
1070
     0
1000
MTEXTEND
  0
DIMENSION
  5
1F3D
102
{ACAD_XDICTIONARY
360
1F3E
102
}
102
{ACAD_REACTORS
330
1F3F
102
}
330
1F
100
AcDbEntity
  8
Bemaßung
100
AcDbDimension
  2
*D15
 10
254.2118588190936
 20
131.139633890049
 30
0.0
 11
258.2118588190931
 21
133.014633890049
 31
0.0
 70
    32
 71
     5
 42
7.999999999999289
  3
IDEAL Holz
100
AcDbAlignedDimension
 13
262.2118588190929
 23
131.139633890049
 33
0.0
 14
254.2118588190936
 24
132.9341523750573
 34
0.0
100
AcDbRotatedDimension
  0
DIMENSION
  5
1F40
330
1F
100
AcDbEntity
  8
Bemaßung
100
AcDbDimension
  2
*D6
 10
271.783573847566
 20
104.9808310568925
 30
0.0
 11
269.908573847566
 21
119.9808310568925
 31
0.0
 70
    32
 71
     5
 42
29.99999999999999
  3
IDEAL Holz
100
AcDbAlignedDimension
 13
265.6234758237888
 23
134.9808310568925
 33
0.0
 14
264.0822076559516
 24
104.9808310568925
 34
0.0
 50
90.0
100
AcDbRotatedDimension
  0
DIMENSION
  5
1F41
330
1F
100
AcDbEntity
  8
Bemaßung
100
AcDbDimension
  2
*D7
 10
184.2118588190933
 20
38.76694535249457
 30
0.0
 11
190.2118588190933
 21
40.64194535249455
 31
0.0
 70
    32
 71
     5
 42
12.0
  3
IDEAL Holz
100
AcDbAlignedDimension
 13
196.2118588190933
 23
38.76694535249457
 33
0.0
 14
184.2118588190933
 24
38.76694535249457
 34
0.0
100
AcDbRotatedDimension
  0
DIMENSION
  5
1F42
330
1F
100
AcDbEntity
  8
Bemaßung
100
AcDbDimension
  2
*D8
 10
178.52296860646
 20
12.34106680007716
 30
0.0
 11
176.6479686064602
 21
27.34106680007718
 31
0.0
 70
    32
 71
     5
 42
29.99999999999997
  3
IDEAL Holz
100
AcDbAlignedDimension
 13
181.9299137127768
 23
42.34106680007712
 33
0.0
 14
182.3492408363336
 24
12.34106680007716
 34
0.0
 50
90.0
100
AcDbRotatedDimension
  0
DIMENSION
  5
1F43
330
1F
100
AcDbEntity
  8
Bemaßung
100
AcDbDimension
  2
*D9
 10
172.9307249429756
 20
47.34106680007713
 30
0.0
 11
171.0557249429756
 21
29.84106680007718
 31
0.0
 70
    32
 71
     5
 42
34.99999999999996
  3
IDEAL Holz
100
AcDbAlignedDimension
 13
178.52296860646
 23
12.34106680007716
 33
0.0
 14
181.2700363348077
 24
47.34106680007712
 34
0.0
 50
90.0
100
AcDbRotatedDimension
  0
DIMENSION
  5
1F44
330
1F
100
AcDbEntity
  8
Bemaßung
100
AcDbDimension
  2
*D10
 10
34.21185881909333
 20
38.76694535249457
 30
0.0
 11
40.21185881909334
 21
40.64194535249455
 31
0.0
 70
    32
 71
     5
 42
12.00000000000005
  3
IDEAL Holz
100
AcDbAlignedDimension
 13
46.21185881909338
 23
38.76694535249457
 33
0.0
 14
34.21185881909333
 24
38.76694535249457
 34
0.0
100
AcDbRotatedDimension
  0
DIMENSION
  5
1F45
330
1F
100
AcDbEntity
  8
Bemaßung
100
AcDbDimension
  2
*D11
 10
28.52296860646038
 20
12.34106680007716
 30
0.0
 11
26.64796860646038
 21
27.34106680007715
 31
0.0
 70
    32
 71
     5
 42
29.99999999999997
  3
IDEAL Holz
100
AcDbAlignedDimension
 13
31.92991371277691
 23
42.34106680007712
 33
0.0
 14
32.34924083633359
 24
12.34106680007716
 34
0.0
 50
90.0
100
AcDbRotatedDimension
  0
DIMENSION
  5
1F46
330
1F
100
AcDbEntity
  8
Bemaßung
100
AcDbDimension
  2
*D12
 10
22.93072494297536
 20
47.34106680007712
 30
0.0
 11
21.05572494297535
 21
29.84106680007715
 31
0.0
 70
    32
 71
     5
 42
34.99999999999996
  3
IDEAL Holz
100
AcDbAlignedDimension
 13
28.52296860646038
 23
12.34106680007716
 33
0.0
 14
31.27003633480774
 24
47.34106680007712
 34
0.0
 50
90.0
100
AcDbRotatedDimension
  0
DIMENSION
  5
1F47
330
1F
100
AcDbEntity
  8
Bemaßung
100
AcDbDimension
  2
*D13
 10
104.2118588190935
 20
38.49986963323366
 30
0.0
 11
108.211858819093
 21
40.37486963323366
 31
0.0
 70
    32
 71
     5
 42
7.99999999999903
  3
IDEAL Holz
100
AcDbAlignedDimension
 13
112.2118588190926
 23
43.84106680007728
 33
0.0
 14
104.2118588190935
 24
40.29438811824178
 34
0.0
100
AcDbRotatedDimension
  0
DIMENSION
  5
1F48
330
1F
100
AcDbEntity
  8
Bemaßung
100
AcDbDimension
  2
*D14
 10
121.783573847566
 20
12.34106680007716
 30
0.0
 11
119.908573847566
 21
27.34106680007716
 31
0.0
 70
    32
 71
     5
 42
29.99999999999996
  3
IDEAL Holz
100
AcDbAlignedDimension
 13
115.6234758237887
 23
42.34106680007712
 33
0.0
 14
114.0822076559516
 24
12.34106680007716
 34
0.0
 50
90.0
100
AcDbRotatedDimension
  0
MTEXT
  5
1F49
330
1F
100
AcDbEntity
  8
0
100
AcDbMText
 10
76.55507060242022
 20
184.3221142633518
 30
0.0
 40
5.0
 41
68.54906907578879
 71
     1
 72
     5
  1
SB 0 - ohne Fräsung\Pmit Steinbankanschluss
  7
RomanS
 73
     1
 44
1.0
1001
ACAD
1000
MTEXTBEGIN
1070
    73
1070
     1
1070
    44
1040
1.0
1070
    74
1070
     0
1000
MTEXTEND
  0
MTEXT
  5
1F4A
330
1F
100
AcDbEntity
  8
0
100
AcDbMText
 10
200.4370609392735
 20
190.5479067398772
 30
0.0
 40
5.0
 41
96.28965376318099
 71
     1
 72
     5
  1
SB 1 - FB-Fräsung innen\P       mit Steinbankanschluss
  7
RomanS
 73
     1
 44
1.0
1001
ACAD
1000
MTEXTBEGIN
1070
    73
1070
     1
1070
    44
1040
1.0
1070
    74
1070
     0
1000
MTEXTEND
1000
ACAD_MTEXT_DEFINED_HEIGHT_BEGIN
1070
    46
1040
13.89527648061767
1000
ACAD_MTEXT_DEFINED_HEIGHT_END
  0
MTEXT
  5
1F4B
330
1F
100
AcDbEntity
  8
0
100
AcDbMText
 10
56.296161464772
 20
92.08239780143363
 30
0.0
 40
5.0
 41
107.6101393196304
 71
     1
 72
     5
  1
SB 2 - Fräsung innen und außen
  7
RomanS
 73
     1
 44
1.0
1001
ACAD
1000
MTEXTBEGIN
1070
    73
1070
     1
1070
    44
1040
1.0
1070
    74
1070
     0
1000
MTEXTEND
1000
ACAD_MTEXT_DEFINED_HEIGHT_BEGIN
1070
    46
1040
13.38985017550521
1000
ACAD_MTEXT_DEFINED_HEIGHT_END
  0
MTEXT
  5
1F4C
330
1F
100
AcDbEntity
  8
0
100
AcDbMText
 10
204.0656263010486
 20
90.41703623303517
 30
0.0
 40
5.0
 41
93.56262419775886
 71
     1
 72
     5
  1
SB 3 - Alubankfräsung außen
  7
RomanS
 73
     1
 44
1.0
1001
ACAD
1000
MTEXTBEGIN
1070
    73
1070
     1
1070
    44
1040
1.0
1070
    74
1070
     0
1000
MTEXTEND
1000
ACAD_MTEXT_DEFINED_HEIGHT_BEGIN
1070
    46
1040
13.11748362952676
1000
ACAD_MTEXT_DEFINED_HEIGHT_END
  0
MTEXT
  5
1F4D
102
{ACAD_XDICTIONARY
360
245B
102
}
330
1F
100
AcDbEntity
  8
0
100
AcDbMText
 10
37.95951442152858
 20
201.6378246799756
 30
0.0
 40
5.0
 41
195.0107101860835
 71
     1
 72
     5
  1
{\fArial|b1|i0|c0|p34;Standard-Fensterbankanschl\U+00FCsse\P\H0.6x;SB-Sonderfr\U+00E4sungen gesondert angeben}
 73
     1
 44
1.0
1001
ACAD
1000
MTEXTBEGIN
1070
    73
1070
     1
1070
    44
1040
1.0
1070
    74
1070
     0
1000
MTEXTEND
1000
ACAD_MTEXT_DEFINED_HEIGHT_BEGIN
1070
    46
1040
11.02238646360934
1000
ACAD_MTEXT_DEFINED_HEIGHT_END
  0
INSERT
  5
1F4E
330
1F
100
AcDbEntity
  8
Dichtungen
100
AcDbBlockReference
  2
D-Blendrahmendichtung
 10
30.81142560816136
 20
174.7736913574048
 30
0.0
  0
INSERT
  5
1F4F
330
1F
100
AcDbEntity
  8
Aluprofile
100
AcDbBlockReference
  2
A-SS66-19
 10
30.21185881035888
 20
157.9808315570806
 30
0.0
  0
INSERT
  5
1F50
330
1F
100
AcDbEntity
  8
Aluhalter
100
AcDbBlockReference
  2
C-MEH40
 10
34.21185881909258
 20
157.9808315570809
 30
0.0
  0
INSERT
  5
1F51
330
1F
100
AcDbEntity
  8
Dichtungen
100
AcDbBlockReference
  2
D-Blendrahmendichtung
 10
30.81142560816136
 20
82.13392710058949
 30
0.0
  0
INSERT
  5
1F52
330
1F
100
AcDbEntity
  8
Aluprofile
100
AcDbBlockReference
  2
A-SS66-19
 10
30.21185881035888
 20
65.34106730026528
 30
0.0
  0
INSERT
  5
1F53
330
1F
100
AcDbEntity
  8
Aluhalter
100
AcDbBlockReference
  2
C-MEH40
 10
34.21185881909258
 20
65.34106730026556
 30
0.0
  0
INSERT
  5
1F54
330
1F
100
AcDbEntity
  8
Dichtungen
100
AcDbBlockReference
  2
D-Blendrahmendichtung
 10
180.8114256081615
 20
82.13392710058949
 30
0.0
  0
INSERT
  5
1F55
330
1F
100
AcDbEntity
  8
Aluprofile
100
AcDbBlockReference
  2
A-SS66-19
 10
180.211858810359
 20
65.34106730026528
 30
0.0
  0
INSERT
  5
1F56
330
1F
100
AcDbEntity
  8
Aluhalter
100
AcDbBlockReference
  2
C-MEH40
 10
184.2118588190926
 20
65.34106730026556
 30
0.0
  0
INSERT
  5
1F57
330
1F
100
AcDbEntity
  8
Dichtungen
100
AcDbBlockReference
  2
D-Blendrahmendichtung
 10
180.8114256081615
 20
174.7736913574048
 30
0.0
  0
INSERT
  5
1F58
330
1F
100
AcDbEntity
  8
Aluprofile
100
AcDbBlockReference
  2
A-SS66-19
 10
180.211858810359
 20
157.9808315570806
 30
0.0
  0
INSERT
  5
1F59
330
1F
100
AcDbEntity
  8
Aluhalter
100
AcDbBlockReference
  2
C-MEH40
 10
184.2118588190926
 20
157.9808315570809
 30
0.0
  0
INSERT
  5
1F5A
330
1F
100
AcDbEntity
  8
Aluprofile
100
AcDbBlockReference
  2
A-SB36-17
 10
30.21185881909264
 20
116.0491276358639
 30
0.0
  0
INSERT
  5
1F5B
330
1F
100
AcDbEntity
  8
Aluhalter
100
AcDbBlockReference
  2
C-DC340
 10
30.21185881909264
 20
116.0491276358639
 30
0.0
  0
INSERT
  5
1F5D
330
1F
100
AcDbEntity
  8
Aluprofile
100
AcDbBlockReference
  2
A-SB36-17
 10
180.2118588190925
 20
116.0491276358639
 30
0.0
  0
INSERT
  5
1F5E
330
1F
100
AcDbEntity
  8
Aluhalter
100
AcDbBlockReference
  2
C-DC340
 10
180.2118588190925
 20
116.0491276358639
 30
0.0
  0
DIMENSION
  5
204F
330
1F
100
AcDbEntity
  8
Bemaßung
100
AcDbDimension
  2
*D16
 10
11.11060948375415
 20
128.9806386031013
 30
0.0
 11
9.235609483754133
 21
161.980735079698
 31
0.0
 70
    32
 71
     5
 42
66.00019295319339
  3
IDEAL Holz
100
AcDbAlignedDimension
 13
11.11060948375417
 23
194.9808315562947
 33
0.0
 14
11.11060948375415
 24
128.9806386031013
 34
0.0
 50
90.0
100
AcDbRotatedDimension
  0
DIMENSION
  5
2067
330
1F
100
AcDbEntity
  8
Bemaßung
100
AcDbDimension
  2
*D17
 10
159.6013109040113
 20
128.9806386031013
 30
0.0
 11
157.7263109040113
 21
161.980735079698
 31
0.0
 70
    32
 71
     5
 42
66.00019295319339
  3
IDEAL Holz
100
AcDbAlignedDimension
 13
165.8167424325195
 23
194.9808315562947
 33
0.0
 14
159.6013109040113
 24
128.9806386031013
 34
0.0
 50
90.0
100
AcDbRotatedDimension
  0
MTEXT
  5
209A
330
1F
100
AcDbEntity
  8
Bemaßung
100
AcDbMText
 10
116.4646333077451
 20
152.5970004979483
 30
0.0
 40
2.5
 41
39.27851695324898
 71
     1
 72
     5
  1
Aluschalen auch in den Größen 76mm und 86mm lieferbar (für Sohlbank-\Pverbreiterung 80mm oder 90mm)
  7
RomanS
 73
     1
 44
1.0
1001
ACAD
1000
MTEXTBEGIN
1070
    73
1070
     1
1070
    44
1040
1.0
1070
    74
1070
     0
1000
MTEXTEND
  0
INSERT
  5
213E
330
1F
100
AcDbEntity
  8
Bemaßung
100
AcDbBlockReference
  2
D-429.311
 10
29.27043746276072
 20
131.4973719257372
 30
0.0
  0
INSERT
  5
213F
330
1F
100
AcDbEntity
  8
Bemaßung
100
AcDbBlockReference
  2
D-429.311
 10
179.2704374627605
 20
131.4973719257372
 30
0.0
  0
LINE
  5
2223
102
{ACAD_REACTORS
330
2282
330
231F
102
}
330
1F
100
AcDbEntity
  8
Schraffur
 62
     5
100
AcDbLine
 10
53.21185881909207
 20
12.34106680007716
 30
0.0
 11
53.21185881909207
 21
82.34106680007736
 31
0.0
  0
LINE
  5
2224
102
{ACAD_REACTORS
330
2282
330
231F
102
}
330
1F
100
AcDbEntity
  8
Schraffur
 62
     5
100
AcDbLine
 10
73.21185881909201
 20
12.34106680007716
 30
0.0
 11
73.21185881909201
 21
62.34106680007728
 31
0.0
  0
LINE
  5
2225
102
{ACAD_REACTORS
330
2282
330
231F
102
}
330
1F
100
AcDbEntity
  8
Schraffur
 62
     5
100
AcDbLine
 10
93.21185881909199
 20
12.34106680007716
 30
0.0
 11
93.21185881909199
 21
62.34106680007728
 31
0.0
  0
LINE
  5
222B
102
{ACAD_REACTORS
330
22C9
330
233B
102
}
330
1F
100
AcDbEntity
  8
Schraffur
 62
     5
100
AcDbLine
 10
203.2118588190922
 20
12.34106680007716
 30
0.0
 11
203.2118588190922
 21
82.34106680007736
 31
0.0
  0
LINE
  5
222C
102
{ACAD_REACTORS
330
22C9
330
233B
102
}
330
1F
100
AcDbEntity
  8
Schraffur
 62
     5
100
AcDbLine
 10
223.2118588190922
 20
12.34106680007716
 30
0.0
 11
223.2118588190922
 21
62.34106680007728
 31
0.0
  0
LINE
  5
222D
102
{ACAD_REACTORS
330
22C9
330
233B
102
}
330
1F
100
AcDbEntity
  8
Schraffur
 62
     5
100
AcDbLine
 10
243.2118588190921
 20
12.34106680007716
 30
0.0
 11
243.2118588190921
 21
62.34106680007728
 31
0.0
  0
LINE
  5
2234
102
{ACAD_REACTORS
330
225B
330
22E5
102
}
330
1F
100
AcDbEntity
  8
Schraffur
 62
     5
100
AcDbLine
 10
93.21185881909199
 20
104.9808310568925
 30
0.0
 11
93.21185881909199
 21
154.9808310568925
 31
0.0
  0
LINE
  5
2235
102
{ACAD_REACTORS
330
225B
330
22E5
102
}
330
1F
100
AcDbEntity
  8
Schraffur
 62
     5
100
AcDbLine
 10
73.21185881909201
 20
104.9808310568925
 30
0.0
 11
73.21185881909201
 21
154.9808310568925
 31
0.0
  0
LINE
  5
2236
102
{ACAD_REACTORS
330
225B
330
22E5
102
}
330
1F
100
AcDbEntity
  8
Schraffur
 62
     5
100
AcDbLine
 10
53.21185881909207
 20
104.9808310568925
 30
0.0
 11
53.21185881909207
 21
174.9808310568928
 31
0.0
  0
LINE
  5
2237
102
{ACAD_REACTORS
330
22A2
330
2302
102
}
330
1F
100
AcDbEntity
  8
Schraffur
 62
     5
100
AcDbLine
 10
243.2118588190921
 20
104.9808310568925
 30
0.0
 11
243.2118588190921
 21
154.9808310568925
 31
0.0
  0
LINE
  5
2238
102
{ACAD_REACTORS
330
22A2
330
2302
102
}
330
1F
100
AcDbEntity
  8
Schraffur
 62
     5
100
AcDbLine
 10
223.2118588190922
 20
104.9808310568925
 30
0.0
 11
223.2118588190922
 21
154.9808310568925
 31
0.0
  0
LINE
  5
2239
102
{ACAD_REACTORS
330
22A2
330
2302
102
}
330
1F
100
AcDbEntity
  8
Schraffur
 62
     5
100
AcDbLine
 10
203.2118588190922
 20
104.9808310568925
 30
0.0
 11
203.2118588190922
 21
174.9808310568928
 31
0.0
  0
HATCH
  5
225B
330
1F
100
AcDbEntity
  8
Schraffur
 62
     5
100
AcDbHatch
 10
0.0
 20
0.0
 30
0.0
210
0.0
220
0.0
230
1.0
  2
STEEL
 70
     0
 71
     1
 91
        3
 92
        7
 72
     1
 73
     1
 93
       15
 10
34.2118588190927
 20
107.9808310568925
 42
0.4142135623730926
 10
37.21185881909271
 20
104.9808310568925
 42
0.0
 10
53.21185881909207
 20
104.9808310568925
 42
0.0
 10
53.21185881909207
 20
174.9808310568928
 42
0.0
 10
49.21185881909275
 20
174.9808310568928
 42
0.0
 10
49.21185881909275
 20
166.4808310569068
 42
0.0
 10
44.21185881909275
 20
166.4808310569068
 42
0.0
 10
44.21185881909275
 20
174.9808310569069
 42
0.0
 10
35.21185881909258
 20
174.9808310568928
 42
0.0
 10
34.21185881909247
 20
173.9808310568928
 42
0.0
 10
34.21185881909247
 20
159.9808315570788
 42
0.0
 10
35.3665593574712
 20
157.9808315570806
 42
0.0
 10
34.21185881909247
 20
155.9808315570784
 42
0.0
 10
34.21185881909247
 20
140.3808315570788
 42
0.0
 10
34.21185881909247
 20
136.3808315570786
 42
0.0
 97
        2
330
1F2A
330
2236
 92
        7
 72
     0
 73
     1
 93
        4
 10
73.21185881909201
 20
104.9808310568925
 10
93.21185881909201
 20
104.9808310568925
 10
93.21185881909199
 20
154.9808310568925
 10
73.21185881909201
 20
154.9808310568925
 97
        3
330
1F2A
330
2235
330
2234
 92
        9
 93
        4
 72
     1
 10
66.24507118695362
 20
134.3755067741393
 11
81.04507118695361
 21
134.3755067741393
 72
     1
 10
81.04507118695361
 20
134.3755067741393
 11
81.04507118695361
 21
142.4707448693774
 72
     1
 10
81.04507118695361
 20
142.4707448693774
 11
66.24507118695362
 21
142.4707448693774
 72
     1
 10
66.24507118695362
 20
142.4707448693774
 11
66.24507118695362
 21
134.3755067741393
 97
        1
330
1F32
 75
     0
 76
     1
 52
0.0
 41
2.0
 77
     0
 78
     2
 53
45.0
 43
0.0
 44
0.0
 45
-4.490128060534575
 46
4.490128060534575
 79
     0
 53
45.0
 43
0.0
 44
3.174999999999998
 45
-4.490128060534575
 46
4.490128060534575
 79
     0
 47
0.2706483406396855
 98
        2
 10
40.30519415927027
 20
122.7270787845304
 10
79.30418981204695
 20
118.9380017200644
1001
ACAD
1010
0.0
1020
0.0
1030
0.0
  0
HATCH
  5
2282
330
1F
100
AcDbEntity
  8
Schraffur
 62
     5
100
AcDbHatch
 10
0.0
 20
0.0
 30
0.0
210
0.0
220
0.0
230
1.0
  2
STEEL
 70
     0
 71
     1
 91
        3
 92
        7
 72
     1
 73
     1
 93
       22
 10
53.21185881909207
 20
82.34106680007736
 42
0.0
 10
49.21185881909275
 20
82.34106680007736
 42
0.0
 10
49.21185881909275
 20
73.84106680009137
 42
0.0
 10
44.21185881909275
 20
73.84106680009137
 42
0.0
 10
44.21185881909275
 20
82.34106680009146
 42
0.0
 10
35.21185881909258
 20
82.34106680007736
 42
0.0
 10
34.21185881909247
 20
81.34106680007736
 42
0.0
 10
34.21185881909247
 20
67.34106730026336
 42
0.0
 10
35.3665593574712
 20
65.34106730026528
 42
0.0
 10
34.21185881909247
 20
63.34106730026295
 42
0.0
 10
34.21185881909247
 20
47.74106730026343
 42
0.0
 10
34.21185881909333
 20
45.53176382903963
 42
0.520567050551626
 10
38.23791924907042
 20
42.71268596668305
 42
0.0
 10
42.44059292531019
 20
44.2423340891685
 42
0.267949192431124
 10
42.76198673015342
 20
44.62535631072795
 42
0.0
 10
43.16798570030118
 20
46.92789088891059
 42
-0.3639702342662065
 10
43.66038957680728
 20
47.34106680007712
 42
0.0
 10
45.71185881909341
 20
47.34106680007712
 42
-0.4142135623730956
 10
46.21185881909338
 20
46.84106680007714
 42
0.0
 10
46.21185881909332
 20
15.34106680007721
 42
0.4142135623730958
 10
49.21185881909337
 20
12.34106680007716
 42
0.0
 10
53.21185881909207
 20
12.34106680007716
 42
0.0
 97
        2
330
1F14
330
2223
 92
        7
 72
     0
 73
     1
 93
        4
 10
93.21185881909199
 20
62.34106680007728
 10
73.21185881909201
 20
62.34106680007728
 10
73.21185881909201
 20
12.34106680007716
 10
93.21185881909199
 20
12.34106680007716
 97
        3
330
1F14
330
2224
330
2225
 92
        9
 93
        4
 72
     1
 10
65.85527052096438
 20
39.29712892850319
 11
80.65527052096436
 21
39.29712892850319
 72
     1
 10
80.65527052096436
 20
39.29712892850319
 11
80.65527052096436
 21
47.39236702374128
 72
     1
 10
80.65527052096436
 20
47.39236702374128
 11
65.85527052096438
 21
47.39236702374128
 72
     1
 10
65.85527052096438
 20
47.39236702374128
 11
65.85527052096438
 21
39.29712892850319
 97
        1
330
1F1C
 75
     0
 76
     1
 52
0.0
 41
2.0
 77
     0
 78
     2
 53
45.0
 43
0.0
 44
0.0
 45
-4.490128060534575
 46
4.490128060534575
 79
     0
 53
45.0
 43
0.0
 44
3.174999999999998
 45
-4.490128060534575
 46
4.490128060534575
 79
     0
 47
0.2706483406396855
 98
        2
 10
47.3466802055176
 20
63.45509165527648
 10
86.61650130634075
 20
39.36738978878265
1001
ACAD
1010
0.0
1020
0.0
1030
0.0
  0
HATCH
  5
22A2
330
1F
100
AcDbEntity
  8
Schraffur
 62
     5
100
AcDbHatch
 10
0.0
 20
0.0
 30
0.0
210
0.0
220
0.0
230
1.0
  2
STEEL
 70
     0
 71
     1
 91
        3
 92
        7
 72
     1
 73
     1
 93
       15
 10
184.2118588190926
 20
107.9808310568925
 42
0.4142135623730951
 10
187.2118588190926
 20
104.9808310568925
 42
0.0
 10
203.2118588190922
 20
104.9808310568925
 42
0.0
 10
203.2118588190922
 20
174.9808310568928
 42
0.0
 10
199.2118588190928
 20
174.9808310568928
 42
0.0
 10
199.2118588190928
 20
166.4808310569068
 42
0.0
 10
194.2118588190928
 20
166.4808310569068
 42
0.0
 10
194.2118588190928
 20
174.9808310569069
 42
0.0
 10
185.2118588190926
 20
174.9808310568928
 42
0.0
 10
184.2118588190926
 20
173.9808310568928
 42
0.0
 10
184.2118588190926
 20
159.9808315570788
 42
0.0
 10
185.3665593574712
 20
157.9808315570806
 42
0.0
 10
184.2118588190926
 20
155.9808315570784
 42
0.0
 10
184.2118588190926
 20
140.3808315570788
 42
0.0
 10
184.2118588190926
 20
136.3808315570786
 42
0.0
 97
        2
330
1F34
330
2239
 92
        7
 72
     0
 73
     1
 93
        4
 10
223.2118588190922
 20
104.9808310568925
 10
243.2118588190921
 20
104.9808310568925
 10
243.2118588190921
 20
154.9808310568925
 10
223.2118588190922
 20
154.9808310568925
 97
        3
330
1F34
330
2238
330
2237
 92
        9
 93
        4
 72
     1
 10
216.3252734081795
 20
137.1375206357495
 11
231.1252734081795
 21
137.1375206357495
 72
     1
 10
231.1252734081795
 20
137.1375206357495
 11
231.1252734081795
 21
145.2327587309876
 72
     1
 10
231.1252734081795
 20
145.2327587309876
 11
216.3252734081795
 21
145.2327587309876
 72
     1
 10
216.3252734081795
 20
145.2327587309876
 11
216.3252734081795
 21
137.1375206357495
 97
        1
330
1F3C
 75
     0
 76
     1
 52
0.0
 41
2.0
 77
     0
 78
     2
 53
45.0
 43
0.0
 44
0.0
 45
-4.490128060534575
 46
4.490128060534575
 79
     0
 53
45.0
 43
0.0
 44
3.174999999999998
 45
-4.490128060534575
 46
4.490128060534575
 79
     0
 47
0.2706483406396855
 98
        2
 10
192.7804317141666
 20
123.2683753668715
 10
232.5919047276261
 20
121.3738368346385
1001
ACAD
1010
0.0
1020
0.0
1030
0.0
  0
HATCH
  5
22C9
330
1F
100
AcDbEntity
  8
Schraffur
 62
     5
100
AcDbHatch
 10
0.0
 20
0.0
 30
0.0
210
0.0
220
0.0
230
1.0
  2
STEEL
 70
     0
 71
     1
 91
        3
 92
        7
 72
     1
 73
     1
 93
       22
 10
184.2118588190926
 20
47.74106730026343
 42
0.0
 10
184.2118588190933
 20
45.34106680007631
 42
0.5205670505516414
 10
188.2379192490702
 20
42.52198893771942
 42
0.0
 10
192.4405929253102
 20
44.05163706020473
 42
0.2749869289783818
 10
192.7640936484235
 20
44.44759782498883
 42
0.0
 10
193.1658787820311
 20
46.9149523456857
 42
-0.3714110892202153
 10
193.6603895768073
 20
47.34106680007712
 42
0.0
 10
195.7118588190934
 20
47.34106680007712
 42
-0.4142135623730946
 10
196.2118588190933
 20
46.84106680007718
 42
0.0
 10
196.2118588190933
 20
15.3410668000772
 42
0.4142135623730942
 10
199.2118588190933
 20
12.34106680007716
 42
0.0
 10
203.2118588190922
 20
12.34106680007716
 42
0.0
 10
203.2118588190922
 20
82.34106680007736
 42
0.0
 10
199.2118588190928
 20
82.34106680007736
 42
0.0
 10
199.2118588190928
 20
73.84106680009137
 42
0.0
 10
194.2118588190928
 20
73.84106680009137
 42
0.0
 10
194.2118588190928
 20
82.34106680009146
 42
0.0
 10
185.2118588190926
 20
82.34106680007736
 42
0.0
 10
184.2118588190926
 20
81.34106680007736
 42
0.0
 10
184.2118588190926
 20
67.34106730026336
 42
0.0
 10
185.3665593574712
 20
65.34106730026528
 42
0.0
 10
184.2118588190926
 20
63.34106730026295
 42
0.0
 97
        2
330
1F1E
330
222B
 92
        7
 72
     0
 73
     1
 93
        4
 10
243.2118588190921
 20
62.34106680007728
 10
223.2118588190922
 20
62.34106680007728
 10
223.2118588190922
 20
12.34106680007716
 10
243.2118588190921
 20
12.34106680007716
 97
        3
330
1F1E
330
222C
330
222D
 92
        9
 93
        4
 72
     1
 10
216.2195844119108
 20
38.9859689611783
 11
231.0195844119108
 21
38.9859689611783
 72
     1
 10
231.0195844119108
 20
38.9859689611783
 11
231.0195844119108
 21
47.08120705641639
 72
     1
 10
231.0195844119108
 20
47.08120705641639
 11
216.2195844119108
 21
47.08120705641639
 72
     1
 10
216.2195844119108
 20
47.08120705641639
 11
216.2195844119108
 21
38.9859689611783
 97
        1
330
1F26
 75
     0
 76
     1
 52
0.0
 41
2.0
 77
     0
 78
     2
 53
45.0
 43
0.0
 44
0.0
 45
-4.490128060534575
 46
4.490128060534575
 79
     0
 53
45.0
 43
0.0
 44
3.174999999999998
 45
-4.490128060534575
 46
4.490128060534575
 79
     0
 47
0.2706483406396855
 98
        2
 10
188.4472092972736
 20
59.12471850250806
 10
234.2168635151647
 20
47.21619122080761
1001
ACAD
1010
0.0
1020
0.0
1030
0.0
  0
HATCH
  5
22E5
330
1F
100
AcDbEntity
  8
Schraffur
 62
     5
100
AcDbHatch
 10
0.0
 20
0.0
 30
0.0
210
0.0
220
0.0
230
1.0
  2
STEEL
 70
     0
 71
     1
 91
        3
 92
        7
 72
     1
 73
     1
 93
        7
 10
53.21185881909207
 20
104.9808310568925
 42
0.0
 10
73.21185881909201
 20
104.9808310568925
 42
0.0
 10
73.21185881909201
 20
154.9808310568925
 42
-0.4142135623728849
 10
72.2118588190927
 20
155.9808310568925
 42
0.0
 10
72.2118588190927
 20
172.9808310568928
 42
0.4142135623730951
 10
70.21185881909272
 20
174.9808310568928
 42
0.0
 10
53.21185881909207
 20
174.9808310568928
 42
0.0
 97
        3
330
1F2A
330
2236
330
2235
 92
        7
 72
     1
 73
     1
 93
        8
 10
112.2118588190927
 20
141.4808310568925
 42
0.0
 10
112.2118588190922
 20
152.9808310568926
 42
0.4142135623730823
 10
110.2118588190922
 20
154.9808310568925
 42
0.0
 10
93.21185881909199
 20
154.9808310568925
 42
0.0
 10
93.21185881909199
 20
104.9808310568925
 42
0.0
 10
101.2118588190927
 20
104.9808310568925
 42
0.0
 10
109.2118588190923
 20
104.9808310568925
 42
0.4142135623730951
 10
112.2118588190927
 20
107.9808310568929
 42
0.0
 97
        2
330
1F2A
330
2234
 92
        9
 93
        4
 72
     1
 10
66.24507118695362
 20
134.3755067741393
 11
81.04507118695361
 21
134.3755067741393
 72
     1
 10
81.04507118695361
 20
134.3755067741393
 11
81.04507118695361
 21
142.4707448693774
 72
     1
 10
81.04507118695361
 20
142.4707448693774
 11
66.24507118695362
 21
142.4707448693774
 72
     1
 10
66.24507118695362
 20
142.4707448693774
 11
66.24507118695362
 21
134.3755067741393
 97
        1
330
1F32
 75
     0
 76
     1
 52
90.0
 41
2.0
 77
     0
 78
     2
 53
135.0
 43
0.0
 44
0.0
 45
-4.490128060534575
 46
-4.490128060534575
 79
     0
 53
135.0
 43
-3.174999999999998
 44
0.0000000000000002
 45
-4.490128060534575
 46
-4.490128060534575
 79
     0
 47
0.2706483406396855
 98
        2
 10
60.07551794197673
 20
126.245507063787
 10
104.7618663015084
 20
118.9380017200644
1001
ACAD
1010
0.0
1020
0.0
1030
0.0
  0
HATCH
  5
2302
330
1F
100
AcDbEntity
  8
Schraffur
 62
     5
100
AcDbHatch
 10
0.0
 20
0.0
 30
0.0
210
0.0
220
0.0
230
1.0
  2
STEEL
 70
     0
 71
     1
 91
        3
 92
        7
 72
     1
 73
     1
 93
        7
 10
223.2118588190922
 20
154.9808310568925
 42
-0.4142135623729202
 10
222.2118588190927
 20
155.9808310568926
 42
0.0
 10
222.2118588190927
 20
172.9808310568929
 42
0.4142135623730951
 10
220.2118588190928
 20
174.9808310568928
 42
0.0
 10
203.2118588190922
 20
174.9808310568928
 42
0.0
 10
203.2118588190922
 20
104.9808310568925
 42
0.0
 10
223.2118588190922
 20
104.9808310568925
 42
0.0
 97
        3
330
1F34
330
2239
330
2238
 92
        7
 72
     1
 73
     1
 93
        9
 10
254.2118588190936
 20
134.9808310568925
 42
0.0
 10
260.711858819093
 20
134.9808310568925
 42
0.4142135623731072
 10
262.2118588190929
 20
136.4808310568925
 42
0.0
 10
262.2118588190923
 20
152.9808310568926
 42
0.4142135623730847
 10
260.2118588190924
 20
154.9808310568925
 42
0.0
 10
243.2118588190921
 20
154.9808310568925
 42
0.0
 10
243.2118588190921
 20
104.9808310568925
 42
0.0
 10
251.2118588190932
 20
104.9808310568925
 42
0.4142135623730911
 10
254.2118588190932
 20
107.9808310568924
 42
0.0
 97
        2
330
1F34
330
2237
 92
        9
 93
        4
 72
     1
 10
216.3252734081795
 20
137.1375206357495
 11
231.1252734081795
 21
137.1375206357495
 72
     1
 10
231.1252734081795
 20
137.1375206357495
 11
231.1252734081795
 21
145.2327587309876
 72
     1
 10
231.1252734081795
 20
145.2327587309876
 11
216.3252734081795
 21
145.2327587309876
 72
     1
 10
216.3252734081795
 20
145.2327587309876
 11
216.3252734081795
 21
137.1375206357495
 97
        1
330
1F3C
 75
     0
 76
     1
 52
90.0
 41
2.0
 77
     0
 78
     2
 53
135.0
 43
0.0
 44
0.0
 45
-4.490128060534575
 46
-4.490128060534575
 79
     0
 53
135.0
 43
-3.174999999999998
 44
0.0000000000000002
 45
-4.490128060534575
 46
-4.490128060534575
 79
     0
 47
0.2706483406396855
 98
        2
 10
213.9048868032787
 20
126.245507063787
 10
253.4455343686916
 20
115.4195734408078
1001
ACAD
1010
0.0
1020
0.0
1030
0.0
  0
HATCH
  5
231F
330
1F
100
AcDbEntity
  8
Schraffur
 62
     5
100
AcDbHatch
 10
0.0
 20
0.0
 30
0.0
210
0.0
220
0.0
230
1.0
  2
STEEL
 70
     0
 71
     1
 91
        3
 92
        7
 72
     1
 73
     1
 93
        7
 10
73.21185881909201
 20
62.34106680007728
 42
-0.4142135623728757
 10
72.2118588190927
 20
63.34106680007735
 42
0.0
 10
72.2118588190927
 20
80.34106680007738
 42
0.4142135623730951
 10
70.21185881909272
 20
82.34106680007736
 42
0.0
 10
53.21185881909207
 20
82.34106680007736
 42
0.0
 10
53.21185881909207
 20
12.34106680007716
 42
0.0
 10
73.21185881909201
 20
12.34106680007716
 42
0.0
 97
        3
330
1F14
330
2223
330
2224
 92
        7
 72
     1
 73
     1
 93
        9
 10
93.21185881909199
 20
12.34106680007716
 42
0.0
 10
101.2118588190931
 20
12.34106680007716
 42
0.4142135623730923
 10
104.2118588190932
 20
15.34106680007718
 42
0.0
 10
104.2118588190935
 20
42.34106680007712
 42
0.0
 10
110.7118588190926
 20
42.34106680007712
 42
0.4142135623731039
 10
112.2118588190927
 20
43.84106680007721
 42
0.0
 10
112.2118588190922
 20
60.34106680007734
 42
0.4142135623730859
 10
110.2118588190922
 20
62.34106680007728
 42
0.0
 10
93.21185881909199
 20
62.34106680007728
 42
0.0
 97
        2
330
1F14
330
2225
 92
        9
 93
        4
 72
     1
 10
65.85527052096438
 20
39.29712892850319
 11
80.65527052096436
 21
39.29712892850319
 72
     1
 10
80.65527052096436
 20
39.29712892850319
 11
80.65527052096436
 21
47.39236702374128
 72
     1
 10
80.65527052096436
 20
47.39236702374128
 11
65.85527052096438
 21
47.39236702374128
 72
     1
 10
65.85527052096438
 20
47.39236702374128
 11
65.85527052096438
 21
39.29712892850319
 97
        1
330
1F1C
 75
     0
 76
     1
 52
90.0
 41
2.0
 77
     0
 78
     2
 53
135.0
 43
0.0
 44
0.0
 45
-4.490128060534575
 46
-4.490128060534575
 79
     0
 53
135.0
 43
-3.174999999999998
 44
0.0000000000000002
 45
-4.490128060534575
 46
-4.490128060534575
 79
     0
 47
0.2706483406396855
 98
        2
 10
65.49204520068542
 20
55.60629022325143
 10
97.72038127180465
 20
53.17045510867721
1001
ACAD
1010
0.0
1020
0.0
1030
0.0
  0
HATCH
  5
233B
330
1F
100
AcDbEntity
  8
Schraffur
 62
     5
100
AcDbHatch
 10
0.0
 20
0.0
 30
0.0
210
0.0
220
0.0
230
1.0
  2
STEEL
 70
     0
 71
     1
 91
        3
 92
        7
 72
     1
 73
     1
 93
        7
 10
203.2118588190922
 20
12.34106680007716
 42
0.0
 10
223.2118588190922
 20
12.34106680007716
 42
0.0
 10
223.2118588190922
 20
62.34106680007728
 42
-0.4142135623729109
 10
222.2118588190927
 20
63.34106680007742
 42
0.0
 10
222.2118588190927
 20
80.34106680007747
 42
0.4142135623730951
 10
220.2118588190928
 20
82.34106680007736
 42
0.0
 10
203.2118588190922
 20
82.34106680007736
 42
0.0
 97
        3
330
1F1E
330
222B
330
222C
 92
        7
 72
     1
 73
     1
 93
        8
 10
243.2118588190921
 20
12.34106680007716
 42
0.0
 10
251.2118588190929
 20
12.34106680007716
 42
0.0
 10
259.2118588190926
 20
12.34106680007716
 42
0.4142135623730951
 10
262.2118588190929
 20
15.34106680007747
 42
0.0
 10
262.2118588190929
 20
48.84106680007736
 42
0.0
 10
262.2118588190923
 20
60.34106680007738
 42
0.4142135623730807
 10
260.2118588190923
 20
62.34106680007728
 42
0.0
 10
243.2118588190921
 20
62.34106680007728
 42
0.0
 97
        2
330
1F1E
330
222D
 92
        9
 93
        4
 72
     1
 10
216.2195844119108
 20
38.9859689611783
 11
231.0195844119108
 21
38.9859689611783
 72
     1
 10
231.0195844119108
 20
38.9859689611783
 11
231.0195844119108
 21
47.08120705641639
 72
     1
 10
231.0195844119108
 20
47.08120705641639
 11
216.2195844119108
 21
47.08120705641639
 72
     1
 10
216.2195844119108
 20
47.08120705641639
 11
216.2195844119108
 21
38.9859689611783
 97
        1
330
1F26
 75
     0
 76
     1
 52
90.0
 41
2.0
 77
     0
 78
     2
 53
135.0
 43
0.0
 44
0.0
 45
-4.490128060534575
 46
-4.490128060534575
 79
     0
 53
135.0
 43
-3.174999999999998
 44
0.0000000000000002
 45
-4.490128060534575
 46
-4.490128060534575
 79
     0
 47
0.2706483406396855
 98
        2
 10
209.5716654029291
 20
61.01925703474108
 10
248.8414865037521
 20
36.93155467420843
1001
ACAD
1010
0.0
1020
0.0
1030
0.0
  0
VIEWPORT
  5
1CC5
102
{ACAD_XDICTIONARY
360
2456
102
}
330
1CC3
100
AcDbEntity
 67
     1
  8
0
100
AcDbViewport
 10
142.5159215490077
 20
98.98666420040706
 30
0.0
 40
394.8614367498574
 41
212.5839103302903
 68
     1
 69
     1
 12
142.5159215490077
 22
98.98666420040706
 13
0.0
 23
0.0
 14
10.0
 24
10.0
 15
10.0
 25
10.0
 16
0.0
 26
0.0
 36
1.0
 17
0.0
 27
0.0
 37
0.0
 42
50.0
 43
0.0
 44
0.0
 45
212.5839103302903
 50
0.0
 51
0.0
 72
  1000
 90
   557088
  1

281
     0
 71
     1
 74
     0
110
0.0
120
0.0
130
0.0
111
1.0
121
0.0
131
0.0
112
0.0
122
1.0
132
0.0
 79
     0
146
0.0
  0
VIEWPORT
  5
1CC6
102
{ACAD_XDICTIONARY
360
2458
102
}
330
1CC3
100
AcDbEntity
 67
     1
  8
0
100
AcDbViewport
 10
142.515920700506
 20
98.98666347898036
 30
0.0
 40
297.0318419579695
 41
209.9733273852992
 68
     2
 69
     2
 12
148.3172137040858
 22
104.8684306445656
 13
0.0
 23
0.0
 14
10.0
 24
10.0
 15
10.0
 25
10.0
 16
0.0
 26
0.0
 36
1.0
 17
0.0
 27
0.0
 37
0.0
 42
50.0
 43
0.0
 44
0.0
 45
209.9733239306096
 50
0.0
 51
0.0
 72
  1000
 90
   819296
  1

281
     0
 71
     1
 74
     0
110
0.0
120
0.0
130
0.0
111
1.0
121
0.0
131
0.0
112
0.0
122
1.0
132
0.0
 79
     0
146
0.0
  0
ENDSEC
  0
SECTION
  2
OBJECTS
  0
DICTIONARY
  5
C
330
0
100
AcDbDictionary
281
     1
  3
ACAD_CIP_PREVIOUS_PRODUCT_INFO
350
23C8
  3
ACAD_COLOR
350
6B
  3
ACAD_GROUP
350
D
  3
ACAD_LAYOUT
350
1A
  3
ACAD_MATERIAL
350
6A
  3
ACAD_MLEADERSTYLE
350
23C3
  3
ACAD_MLINESTYLE
350
17
  3
ACAD_PLOTSETTINGS
350
19
  3
ACAD_PLOTSTYLENAME
350
E
  3
ACAD_SCALELIST
350
23B1
  3
ACAD_TABLESTYLE
350
7E
  3
ACAD_VISUALSTYLE
350
EF
  3
ACDB_RECOMPOSE_DATA
350
2431
  3
AcDbVariableDictionary
350
5E
  3
DWGPROPS
350
2432
  0
DICTIONARY
  5
120
330
2
100
AcDbDictionary
280
     1
281
     1
  3
ACAD_LAYERSTATES
360
121
  0
DICTIONARY
  5
241D
330
10
100
AcDbDictionary
280
     1
281
     1
  3
ADSK_XREC_LAYER_RECONCILED
360
241E
  0
DICTIONARY
  5
241F
330
1EB8
100
AcDbDictionary
280
     1
281
     1
  3
ADSK_XREC_LAYER_RECONCILED
360
2420
  0
DICTIONARY
  5
2421
330
1EB9
100
AcDbDictionary
280
     1
281
     1
  3
ADSK_XREC_LAYER_RECONCILED
360
2422
  0
DICTIONARY
  5
2423
330
1EBA
100
AcDbDictionary
280
     1
281
     1
  3
ADSK_XREC_LAYER_RECONCILED
360
2424
  0
DICTIONARY
  5
2425
330
1EBB
100
AcDbDictionary
280
     1
281
     1
  3
ADSK_XREC_LAYER_RECONCILED
360
2426
  0
DICTIONARY
  5
2427
330
1EBC
100
AcDbDictionary
280
     1
281
     1
  3
ADSK_XREC_LAYER_RECONCILED
360
2428
  0
DICTIONARY
  5
2429
330
1EBD
100
AcDbDictionary
280
     1
281
     1
  3
ADSK_XREC_LAYER_RECONCILED
360
242A
  0
DICTIONARY
  5
242B
330
1EBE
100
AcDbDictionary
280
     1
281
     1
  3
ADSK_XREC_LAYER_RECONCILED
360
242C
  0
DICTIONARY
  5
732
330
1F
100
AcDbDictionary
280
     1
281
     1
  3
ACAD_SORTENTS
360
733
  0
DICTIONARY
  5
1D62
330
1D61
100
AcDbDictionary
280
     1
281
     1
  3
ACAD_SORTENTS
360
1D63
  0
DICTIONARY
  5
1DAB
330
1DAA
100
AcDbDictionary
280
     1
281
     1
  0
DICTIONARY
  5
1DD5
330
1DD4
100
AcDbDictionary
280
     1
281
     1
  3
ACAD_SORTENTS
360
1DD6
  0
DICTIONARY
  5
2371
330
1E55
100
AcDbDictionary
280
     1
281
     1
  0
DICTIONARY
  5
1F3E
330
1F3D
100
AcDbDictionary
280
     1
281
     1
  3
ACAD_DIMASSOC
360
1F3F
  0
DICTIONARY
  5
245B
330
1F4D
100
AcDbDictionary
280
     1
281
     1
  3
ACAD_MTEXT_RT
360
245C
  0
DICTIONARY
  5
2456
330
1CC5
100
AcDbDictionary
280
     1
281
     1
  3
ACAD_XREC_ROUNDTRIP
360
2457
  0
DICTIONARY
  5
2458
330
1CC6
100
AcDbDictionary
280
     1
281
     1
  3
ACAD_XREC_ROUNDTRIP
360
2459
  0
XRECORD
  5
23C8
102
{ACAD_REACTORS
330
C
102
}
330
C
100
AcDbXrecord
280
     1
300
ACDLT
300
2012
300
ACDLT_F_S
  0
DICTIONARY
  5
6B
102
{ACAD_REACTORS
330
C
102
}
330
C
100
AcDbDictionary
281
     1
  0
DICTIONARY
  5
D
102
{ACAD_REACTORS
330
C
102
}
330
C
100
AcDbDictionary
281
     1
  0
DICTIONARY
  5
1A
102
{ACAD_REACTORS
330
C
102
}
330
C
100
AcDbDictionary
281
     1
  3
Layout A4-quer
350
1CC8
  3
Model
350
22
  0
DICTIONARY
  5
6A
102
{ACAD_REACTORS
330
C
102
}
330
C
100
AcDbDictionary
281
     1
  3
ByBlock
350
ED
  3
ByLayer
350
EC
  3
Global
350
EE
  0
DICTIONARY
  5
23C3
102
{ACAD_REACTORS
330
C
102
}
330
C
100
AcDbDictionary
281
     1
  3
Standard
350
23C4
  0
DICTIONARY
  5
17
102
{ACAD_REACTORS
330
C
102
}
330
C
100
AcDbDictionary
281
     1
  3
Standard
350
18
  0
DICTIONARY
  5
19
102
{ACAD_REACTORS
330
C
102
}
330
C
100
AcDbDictionary
281
     1
  0
ACDBDICTIONARYWDFLT
  5
E
102
{ACAD_REACTORS
330
C
102
}
330
C
100
AcDbDictionary
281
     1
  3
Normal
350
F
100
AcDbDictionaryWithDefault
340
F
  0
DICTIONARY
  5
23B1
102
{ACAD_REACTORS
330
C
102
}
330
C
100
AcDbDictionary
281
     1
  3
A0
350
23B2
  3
A1
350
23B3
  3
A2
350
23B4
  3
A3
350
23B5
  3
A4
350
23B6
  3
A5
350
23B7
  3
A6
350
23B8
  3
A7
350
23B9
  3
A8
350
23BA
  3
A9
350
23BB
  3
B0
350
23BC
  3
B1
350
23BD
  3
B2
350
23BE
  3
B3
350
23BF
  3
B4
350
23C0
  3
B5
350
23C1
  3
B6
350
23C2
  0
DICTIONARY
  5
7E
102
{ACAD_REACTORS
330
C
102
}
330
C
100
AcDbDictionary
281
     1
  3
Standard
350
7F
  0
DICTIONARY
  5
EF
102
{ACAD_REACTORS
330
C
102
}
330
C
100
AcDbDictionary
281
     1
  3
2dWireframe
350
F5
  3
3D Hidden
350
F7
  3
3dWireframe
350
F6
  3
Basic
350
F4
  3
Brighten
350
FB
  3
ColorChange
350
FF
  3
Conceptual
350
F8
  3
Dim
350
FA
  3
EdgeColorOff
350
23B0
  3
Facepattern
350
FE
  3
Flat
350
F0
  3
FlatWithEdges
350
F1
  3
Gouraud
350
F2
  3
GouraudWithEdges
350
F3
  3
Hidden
350
23A8
  3
JitterOff
350
23AE
  3
Linepattern
350
FD
  3
OverhangOff
350
23AF
  3
Realistic
350
F9
  3
Shaded
350
23AD
  3
Shaded with edges
350
23AC
  3
Shades of Gray
350
23A9
  3
Sketchy
350
23AA
  3
Thicken
350
FC
  3
Wireframe
350
23A7
  3
X-Ray
350
23AB
  0
XRECORD
  5
2431
102
{ACAD_REACTORS
330
C
102
}
330
C
100
AcDbXrecord
280
     1
 90
        1
330
7F
  0
DICTIONARY
  5
5E
102
{ACAD_REACTORS
330
C
102
}
330
C
100
AcDbDictionary
281
     1
  3
CANNOSCALE
350
23CB
  3
CMLEADERSTYLE
350
23CA
  3
CTABLESTYLE
350
84
  3
DIMASSOC
350
5F
  3
HIDETEXT
350
63
  3
INDEXCTL
350
70A
  3
PSOLHEIGHT
350
242E
  3
PSOLWIDTH
350
242D
  3
SORTENTS
350
709
  3
XCLIPFRAME
350
242F
  0
XRECORD
  5
2432
102
{ACAD_REACTORS
330
C
102
}
330
C
100
AcDbXrecord
280
     1
  1
DWGPROPS COOKIE
  2

  3

  4

  6

  7

  8
skoelzer
  9

300
=
301
=
302
=
303
=
304
=
305
=
306
=
307
=
308
=
309
=
 40
0.0216178587962963
 41
2454531.576644907
 42
2456632.31251213
  1

 90
        0
  0
DICTIONARY
  5
121
102
{ACAD_REACTORS
330
120
102
}
330
120
100
AcDbDictionary
281
     1
  0
XRECORD
  5
241E
102
{ACAD_REACTORS
330
241D
102
}
330
241D
100
AcDbXrecord
280
     1
290
     1
  0
XRECORD
  5
2420
102
{ACAD_REACTORS
330
241F
102
}
330
241F
100
AcDbXrecord
280
     1
290
     1
  0
XRECORD
  5
2422
102
{ACAD_REACTORS
330
2421
102
}
330
2421
100
AcDbXrecord
280
     1
290
     1
  0
XRECORD
  5
2424
102
{ACAD_REACTORS
330
2423
102
}
330
2423
100
AcDbXrecord
280
     1
290
     1
  0
XRECORD
  5
2426
102
{ACAD_REACTORS
330
2425
102
}
330
2425
100
AcDbXrecord
280
     1
290
     1
  0
XRECORD
  5
2428
102
{ACAD_REACTORS
330
2427
102
}
330
2427
100
AcDbXrecord
280
     1
290
     1
  0
XRECORD
  5
242A
102
{ACAD_REACTORS
330
2429
102
}
330
2429
100
AcDbXrecord
280
     1
290
     1
  0
XRECORD
  5
242C
102
{ACAD_REACTORS
330
242B
102
}
330
242B
100
AcDbXrecord
280
     1
290
     1
  0
SORTENTSTABLE
  5
733
102
{ACAD_REACTORS
330
732
102
}
330
732
100
AcDbSortentsTable
330
1F
331
22E5
  5
1F32
331
1F26
  5
1F2B
331
1F55
  5
1F5E
331
1F59
  5
213E
331
1F41
  5
1F49
331
2235
  5
2239
331
1F2E
  5
1F38
331
1F4F
  5
1F57
331
1F32
  5
1F3C
331
22A2
  5
1F3D
331
204F
  5
2226
331
1F54
  5
1F5D
331
1F38
  5
1F45
331
2239
  5
22A3
331
1F58
  5
209A
331
225B
  5
1F2E
331
1F40
  5
1F48
331
2234
  5
225C
331
1F2D
  5
1F37
331
1F4E
  5
1F56
331
1F18
  5
1F1E
331
2238
  5
22E6
331
2225
  5
223C
331
1F53
  5
1F5B
331
209A
  5
2228
331
222D
  5
2303
331
1F2C
  5
1F36
331
1F4D
  5
1F55
331
1F47
  5
1F4F
331
1F17
  5
1F1C
331
213F
  5
2235
331
1F1F
  5
1F26
331
2224
  5
2238
331
1F52
  5
1F5A
331
1F2B
  5
1F35
331
222C
  5
22CA
331
1F5E
  5
2225
331
1F4C
  5
1F54
331
1F46
  5
1F4E
331
1F16
  5
1F18
331
1F37
  5
1F44
331
213E
  5
2234
331
1F1E
  5
1F22
331
2282
  5
1F14
331
1F22
  5
1F2A
331
2223
  5
2236
331
1F51
  5
1F59
331
1F2A
  5
1F34
331
222B
  5
2283
331
1F3D
  5
1F47
331
1F45
  5
1F4D
331
1F5D
  5
2224
331
1F4B
  5
1F53
331
1F15
  5
1F17
331
1F36
  5
1F43
331
1F21
  5
1F28
331
1F50
  5
1F58
331
233B
  5
1F21
331
1F3C
  5
1F46
331
1F44
  5
1F4C
331
1F4A
  5
1F52
331
1F14
  5
1F16
331
1F35
  5
1F42
331
1F1C
  5
1F1F
331
1F20
  5
1F27
331
1F28
  5
1F2D
331
1F57
  5
2067
331
1F5B
  5
2223
331
1F43
  5
1F4B
331
2237
  5
2320
331
1F49
  5
1F51
331
1F34
  5
1F41
331
22C9
  5
1F20
331
2067
  5
2227
331
2302
  5
1F40
331
1F27
  5
1F2C
331
1F56
  5
204F
331
1F5A
  5
213F
331
1F42
  5
1F4A
331
231F
  5
1F15
331
2236
  5
2237
331
1F48
  5
1F50
  0
SORTENTSTABLE
  5
1D63
102
{ACAD_REACTORS
330
1D62
102
}
330
1D62
100
AcDbSortentsTable
330
1D61
331
1D6F
  5
118
331
1D87
  5
130
331
1DA5
  5
14E
331
1D7F
  5
128
331
1D97
  5
140
331
1D8F
  5
138
331
1D65
  5
10E
331
1D9F
  5
148
331
1D70
  5
119
331
1DA6
  5
10C
331
1D80
  5
129
331
1D68
  5
111
331
1D90
  5
139
331
1D66
  5
10F
331
1D78
  5
121
331
1D88
  5
131
331
1D71
  5
11A
331
1D98
  5
141
331
1D81
  5
12A
331
1D69
  5
112
331
1D91
  5
13A
331
1D67
  5
110
331
1D79
  5
122
331
1D89
  5
132
331
1D99
  5
142
331
1D72
  5
11B
331
1DA0
  5
149
331
1D82
  5
12B
331
1D6A
  5
113
331
1D92
  5
13B
331
1D7A
  5
123
331
1D8A
  5
133
331
1D9A
  5
143
331
1D73
  5
11C
331
1D6B
  5
114
331
1DA1
  5
14A
331
1D83
  5
12C
331
1D93
  5
13C
331
1D7B
  5
124
331
1D8B
  5
134
331
1D9B
  5
144
331
1D74
  5
11D
331
1D6C
  5
115
331
1DA2
  5
14B
331
1D84
  5
12D
331
1D7C
  5
125
331
1D94
  5
13D
331
1D8C
  5
135
331
1D9C
  5
145
331
1D75
  5
11E
331
1D6D
  5
116
331
1DA3
  5
14C
331
1D85
  5
12E
331
1D7D
  5
126
331
1D95
  5
13E
331
1D8D
  5
136
331
1D9D
  5
146
331
1D76
  5
11F
331
1D6E
  5
117
331
1DA4
  5
14D
331
1D86
  5
12F
331
1D7E
  5
127
331
1D96
  5
13F
331
1D8E
  5
137
331
1D9E
  5
147
331
1D77
  5
120
  0
SORTENTSTABLE
  5
1DD6
102
{ACAD_REACTORS
330
1DD5
102
}
330
1DD5
100
AcDbSortentsTable
330
1DD4
331
1DD8
  5
18E
331
1DD9
  5
18F
331
1DDA
  5
190
331
1DDB
  5
18D
  0
DIMASSOC
  5
1F3F
102
{ACAD_REACTORS
330
1F3E
102
}
330
1F3E
100
AcDbDimAssoc
330
1F3D
 90
        2
 70
     0
 71
     0
  1
AcDbOsnapPointRef
 72
    10
331
1F34
 73
     2
 91
       23
 40
0.9241970858579492
 10
0.0
 20
0.0
 30
0.0
 75
     0
  0
XRECORD
  5
245C
102
{ACAD_REACTORS
330
245B
102
}
330
245B
100
AcDbXrecord
280
     1
 40
559850.0
  1
{\fArial|b1|i0|c0|p34;Standard-Fensterbankanschlüsse\P\H0.6x;SB-Sonderfräsungen gesondert angeben}
  0
XRECORD
  5
2457
102
{ACAD_REACTORS
330
2456
102
}
330
2456
100
AcDbXrecord
280
     1
102
SHADEPLOT
 70
     0
  0
XRECORD
  5
2459
102
{ACAD_REACTORS
330
2458
102
}
330
2458
100
AcDbXrecord
280
     1
102
SHADEPLOT
 70
     0
  0
LAYOUT
  5
1CC8
102
{ACAD_XDICTIONARY
360
1CC9
102
}
102
{ACAD_REACTORS
330
1A
102
}
330
1A
100
AcDbPlotSettings
  1

  2
Adobe PDF
  4
A4
  6

 40
3.174999952316281
 41
3.174999952316281
 42
3.175003051757812
 43
3.17498779296875
 44
209.9733276367186
 45
297.0318298339844
 46
2.825000047683714
 47
2.825000047683714
 48
0.0
 49
0.0
140
0.0
141
0.0
142
1.0
143
1.0
 70
   672
 72
     1
 73
     1
 74
     5
  7
Grayscale.ctb
 75
    16
147
1.0
148
0.0
149
0.0
100
AcDbLayout
  1
Layout A4-quer
 70
     1
 71
     1
 10
-5.999987840652463
 20
-5.999999999999997
 11
291.0318419933318
 21
203.9733276367186
 12
0.0
 22
0.0
 32
0.0
 14
-6.000000278478751
 24
-6.000000213669252
 34
0.0
 15
291.0318416794908
 25
203.9733271716299
 35
0.0
146
0.0
 13
0.0
 23
0.0
 33
0.0
 16
1.0
 26
0.0
 36
0.0
 17
0.0
 27
1.0
 37
0.0
 76
     0
330
1CC3
331
1CC5
1001
ACAD_PSEXT
1000
Adobe PDF
1000
Adobe PDF Converter
1000
Eigene Dateien
1000

1070
     0
  0
LAYOUT
  5
22
102
{ACAD_XDICTIONARY
360
2433
102
}
102
{ACAD_REACTORS
330
1A
102
}
330
1A
100
AcDbPlotSettings
  1

  2
Adobe PDF
  4
A4
  6

 40
3.174999952316282
 41
3.174999952316282
 42
3.175003051757812
 43
3.17498779296875
 44
209.9733276367186
 45
297.0318298339844
 46
2.811662316322383
 47
2.840921044349698
 48
6.000001170748871
 49
6.000000569727093
140
291.0000011707488
141
204.000000569727
142
1.0
143
1.0
 70
 11940
 72
     1
 73
     1
 74
     4
  7
Grayscale.ctb
 75
     0
147
0.9017543859649123
148
-6.000001170748871
149
-6.000000569727093
100
AcDbLayout
  1
Model
 70
     1
 71
     0
 10
0.0
 20
0.0
 11
12.0
 21
9.0
 12
0.0
 22
0.0
 32
0.0
 14
0.0
 24
0.0
 34
0.0
 15
0.0
 25
0.0
 35
0.0
146
0.0
 13
0.0
 23
0.0
 33
0.0
 16
1.0
 26
0.0
 36
0.0
 17
0.0
 27
1.0
 37
0.0
 76
     0
330
1F
331
EA
1001
ACAD_PSEXT
1000
Adobe PDF
1000
Adobe PDF Converter
1000
COM1:
1000

1070
     0
  0
MATERIAL
  5
ED
102
{ACAD_XDICTIONARY
360
718
102
}
102
{ACAD_REACTORS
330
6A
102
}
330
6A
100
AcDbMaterial
  1
ByBlock
  0
MATERIAL
  5
EC
102
{ACAD_XDICTIONARY
360
716
102
}
102
{ACAD_REACTORS
330
6A
102
}
330
6A
100
AcDbMaterial
  1
ByLayer
  0
MATERIAL
  5
EE
102
{ACAD_XDICTIONARY
360
71A
102
}
102
{ACAD_REACTORS
330
6A
102
}
330
6A
100
AcDbMaterial
  1
Global
  0
MLEADERSTYLE
  5
23C4
102
{ACAD_REACTORS
330
23C3
102
}
330
23C3
100
AcDbMLeaderStyle
170
     2
171
     1
172
     0
 90
        2
 40
0.0
 41
0.0
173
     1
 91
-1056964608
340
14
 92
       -2
290
     1
 42
2.0
291
     1
 43
0.36
  3
Standard
 44
4.0
300

342
11
174
     1
178
     6
175
     1
176
     0
 93
-1056964608
 45
4.0
292
     0
297
     0
 46
4.0
 94
-1056964608
 47
1.0
 49
1.0
140
1.0
293
     1
141
0.0
294
     1
177
     0
142
1.0
295
     0
296
     0
143
0.125
1001
ACAD_MLEADERVER
1070
     2
  0
MLINESTYLE
  5
18
102
{ACAD_REACTORS
330
17
102
}
330
17
100
AcDbMlineStyle
  2
STANDARD
 70
     0
  3

 62
   256
 51
90.0
 52
90.0
 71
     2
 49
0.5
 62
   256
  6
BYLAYER
 49
-0.5
 62
   256
  6
BYLAYER
  0
ACDBPLACEHOLDER
  5
F
102
{ACAD_REACTORS
330
E
102
}
330
E
  0
SCALE
  5
23B2
102
{ACAD_REACTORS
330
23B1
102
}
330
23B1
100
AcDbScale
 70
     0
300
1:1
140
1.0
141
1.0
290
     1
  0
SCALE
  5
23B3
102
{ACAD_REACTORS
330
23B1
102
}
330
23B1
100
AcDbScale
 70
     0
300
1:2
140
1.0
141
2.0
290
     0
  0
SCALE
  5
23B4
102
{ACAD_REACTORS
330
23B1
102
}
330
23B1
100
AcDbScale
 70
     0
300
1:4
140
1.0
141
4.0
290
     0
  0
SCALE
  5
23B5
102
{ACAD_REACTORS
330
23B1
102
}
330
23B1
100
AcDbScale
 70
     0
300
1:5
140
1.0
141
5.0
290
     0
  0
SCALE
  5
23B6
102
{ACAD_REACTORS
330
23B1
102
}
330
23B1
100
AcDbScale
 70
     0
300
1:8
140
1.0
141
8.0
290
     0
  0
SCALE
  5
23B7
102
{ACAD_REACTORS
330
23B1
102
}
330
23B1
100
AcDbScale
 70
     0
300
1:10
140
1.0
141
10.0
290
     0
  0
SCALE
  5
23B8
102
{ACAD_REACTORS
330
23B1
102
}
330
23B1
100
AcDbScale
 70
     0
300
1:16
140
1.0
141
16.0
290
     0
  0
SCALE
  5
23B9
102
{ACAD_REACTORS
330
23B1
102
}
330
23B1
100
AcDbScale
 70
     0
300
1:20
140
1.0
141
20.0
290
     0
  0
SCALE
  5
23BA
102
{ACAD_REACTORS
330
23B1
102
}
330
23B1
100
AcDbScale
 70
     0
300
1:30
140
1.0
141
30.0
290
     0
  0
SCALE
  5
23BB
102
{ACAD_REACTORS
330
23B1
102
}
330
23B1
100
AcDbScale
 70
     0
300
1:40
140
1.0
141
40.0
290
     0
  0
SCALE
  5
23BC
102
{ACAD_REACTORS
330
23B1
102
}
330
23B1
100
AcDbScale
 70
     0
300
1:50
140
1.0
141
50.0
290
     0
  0
SCALE
  5
23BD
102
{ACAD_REACTORS
330
23B1
102
}
330
23B1
100
AcDbScale
 70
     0
300
1:100
140
1.0
141
100.0
290
     0
  0
SCALE
  5
23BE
102
{ACAD_REACTORS
330
23B1
102
}
330
23B1
100
AcDbScale
 70
     0
300
2:1
140
2.0
141
1.0
290
     0
  0
SCALE
  5
23BF
102
{ACAD_REACTORS
330
23B1
102
}
330
23B1
100
AcDbScale
 70
     0
300
4:1
140
4.0
141
1.0
290
     0
  0
SCALE
  5
23C0
102
{ACAD_REACTORS
330
23B1
102
}
330
23B1
100
AcDbScale
 70
     0
300
8:1
140
8.0
141
1.0
290
     0
  0
SCALE
  5
23C1
102
{ACAD_REACTORS
330
23B1
102
}
330
23B1
100
AcDbScale
 70
     0
300
10:1
140
10.0
141
1.0
290
     0
  0
SCALE
  5
23C2
102
{ACAD_REACTORS
330
23B1
102
}
330
23B1
100
AcDbScale
 70
     0
300
100:1
140
100.0
141
1.0
290
     0
  0
TABLESTYLE
  5
7F
102
{ACAD_XDICTIONARY
360
23D0
102
}
102
{ACAD_REACTORS
330
7E
102
}
330
7E
100
AcDbTableStyle
  3
Standard
 70
     0
 71
     0
 40
1.5
 41
1.5
280
     0
281
     0
  7
Standard
140
4.5
170
     2
 62
     0
 63
     7
283
     0
274
    -2
284
     1
 64
     0
275
    -2
285
     1
 65
     0
276
    -2
286
     1
 66
     0
277
    -2
287
     1
 67
     0
278
    -2
288
     1
 68
     0
279
    -2
289
     1
 69
     0
  7
Standard
140
6.0
170
     5
 62
     0
 63
     7
283
     0
274
    -2
284
     1
 64
     0
275
    -2
285
     1
 65
     0
276
    -2
286
     1
 66
     0
277
    -2
287
     1
 67
     0
278
    -2
288
     1
 68
     0
279
    -2
289
     1
 69
     0
  7
Standard
140
4.5
170
     5
 62
     0
 63
     7
283
     0
274
    -2
284
     1
 64
     0
275
    -2
285
     1
 65
     0
276
    -2
286
     1
 66
     0
277
    -2
287
     1
 67
     0
278
    -2
288
     1
 68
     0
279
    -2
289
     1
 69
     0
  0
VISUALSTYLE
  5
F5
102
{ACAD_XDICTIONARY
360
2440
102
}
102
{ACAD_REACTORS
330
EF
102
}
330
EF
100
AcDbVisualStyle
  2

 70
     4
 71
     0
 72
     2
 73
     1
 90
        0
 40
-0.6
 41
-30.0
 62
     5
 63
     7
 74
     1
 91
        4
 64
     7
 65
   257
 75
     1
175
     1
 42
1.0
 92
        0
 66
   257
 43
1.0
 76
     1
 77
     6
 78
     2
 67
     7
 79
     5
170
     0
171
     0
290
     0
174
     0
 93
        1
 44
0.0
173
     0
291
     0
 45
0.0
1001
ACAD
1000
AcDbSavedByObjectVersion
1070
     0
  0
VISUALSTYLE
  5
F7
102
{ACAD_XDICTIONARY
360
2444
102
}
102
{ACAD_REACTORS
330
EF
102
}
330
EF
100
AcDbVisualStyle
  2

 70
     6
 71
     1
 72
     2
 73
     2
 90
        0
 40
-0.6
 41
-30.0
 62
     5
 63
     7
 74
     2
 91
        2
 64
     7
 65
   257
 75
     2
175
     1
 42
40.0
 92
        0
 66
   257
 43
1.0
 76
     1
 77
     6
 78
     2
 67
     7
 79
     3
170
     0
171
     0
290
     0
174
     0
 93
        1
 44
0.0
173
     0
291
     0
 45
0.0
1001
ACAD
1000
AcDbSavedByObjectVersion
1070
     0
  0
VISUALSTYLE
  5
F6
102
{ACAD_XDICTIONARY
360
2442
102
}
102
{ACAD_REACTORS
330
EF
102
}
330
EF
100
AcDbVisualStyle
  2

 70
     5
 71
     0
 72
     2
 73
     1
 90
        0
 40
-0.6
 41
-30.0
 62
     5
 63
     7
 74
     1
 91
        4
 64
     7
 65
   257
 75
     1
175
     1
 42
1.0
 92
        0
 66
   257
 43
1.0
 76
     1
 77
     6
 78
     2
 67
     7
 79
     5
170
     0
171
     0
290
     0
174
     0
 93
        1
 44
0.0
173
     0
291
     0
 45
0.0
1001
ACAD
1000
AcDbSavedByObjectVersion
1070
     0
  0
VISUALSTYLE
  5
F4
102
{ACAD_XDICTIONARY
360
243E
102
}
102
{ACAD_REACTORS
330
EF
102
}
330
EF
100
AcDbVisualStyle
  2

 70
     7
 71
     1
 72
     0
 73
     1
 90
        0
 40
-0.6
 41
-30.0
 62
     5
 63
     7
 74
     0
 91
        4
 64
     7
 65
   257
 75
     1
175
     1
 42
1.0
 92
        8
 66
     7
 43
1.0
 76
     1
 77
     6
 78
     2
 67
     7
 79
     5
170
     0
171
     0
290
     0
174
     0
 93
        1
 44
0.0
173
     0
291
     1
 45
0.0
1001
ACAD
1000
AcDbSavedByObjectVersion
1070
     0
  0
VISUALSTYLE
  5
FB
102
{ACAD_XDICTIONARY
360
244C
102
}
102
{ACAD_REACTORS
330
EF
102
}
330
EF
100
AcDbVisualStyle
  2

 70
    12
 71
     2
 72
     2
 73
     1
 90
        0
 40
-0.6
 41
-30.0
 62
     5
 63
     7
 74
     1
 91
        4
 64
     7
 65
   257
 75
     1
175
     1
 42
1.0
 92
        8
 66
     7
 43
1.0
 76
     1
 77
     6
 78
     2
 67
     7
 79
     5
170
     0
171
     0
290
     0
174
     0
 93
        1
 44
50.0
173
     0
291
     1
 45
0.0
1001
ACAD
1000
AcDbSavedByObjectVersion
1070
     0
  0
VISUALSTYLE
  5
FF
102
{ACAD_XDICTIONARY
360
2454
102
}
102
{ACAD_REACTORS
330
EF
102
}
330
EF
100
AcDbVisualStyle
  2

 70
    16
 71
     2
 72
     2
 73
     3
 90
        0
 40
-0.6
 41
-30.0
 62
     5
 63
     8
 74
     1
 91
        4
 64
     7
 65
   257
 75
     1
175
     1
 42
1.0
 92
        8
 66
     8
 43
1.0
 76
     1
 77
     6
 78
     2
 67
     7
 79
     5
170
     0
171
     0
290
     0
174
     0
 93
        1
 44
0.0
173
     0
291
     1
 45
0.0
1001
ACAD
1000
AcDbSavedByObjectVersion
1070
     0
  0
VISUALSTYLE
  5
F8
102
{ACAD_XDICTIONARY
360
2446
102
}
102
{ACAD_REACTORS
330
EF
102
}
330
EF
100
AcDbVisualStyle
  2

 70
     9
 71
     3
 72
     2
 73
     1
 90
        0
 40
-0.6
 41
-30.0
 62
     5
 63
     7
 74
     2
 91
        2
 64
     7
 65
   257
 75
     1
175
     1
 42
40.0
 92
        8
 66
     7
 43
1.0
 76
     1
 77
     6
 78
     2
 67
     7
 79
     3
170
     0
171
     0
290
     0
174
     0
 93
        1
 44
0.0
173
     0
291
     0
 45
0.0
1001
ACAD
1000
AcDbSavedByObjectVersion
1070
     0
  0
VISUALSTYLE
  5
FA
102
{ACAD_XDICTIONARY
360
244A
102
}
102
{ACAD_REACTORS
330
EF
102
}
330
EF
100
AcDbVisualStyle
  2

 70
    11
 71
     2
 72
     2
 73
     1
 90
        0
 40
-0.6
 41
-30.0
 62
     5
 63
     7
 74
     1
 91
        4
 64
     7
 65
   257
 75
     1
175
     1
 42
1.0
 92
        8
 66
     7
 43
1.0
 76
     1
 77
     6
 78
     2
 67
     7
 79
     5
170
     0
171
     0
290
     0
174
     0
 93
        1
 44
-50.0
173
     0
291
     1
 45
0.0
1001
ACAD
1000
AcDbSavedByObjectVersion
1070
     0
  0
VISUALSTYLE
  5
23B0
102
{ACAD_XDICTIONARY
360
246F
102
}
102
{ACAD_REACTORS
330
EF
102
}
330
EF
100
AcDbVisualStyle
  2

 70
    22
 71
     2
 72
     2
 73
     0
 90
        0
 40
-0.6
 41
-30.0
 62
     5
 63
     7
 74
     1
 91
        4
 64
     7
 65
   257
 75
     1
175
     1
 42
1.0
 92
        8
 66
     7
 43
1.0
 76
     1
 77
     6
 78
     2
 67
     7
 79
     5
170
     0
171
     0
290
     0
174
     0
 93
        1
 44
0.0
173
     0
291
     1
 45
0.0
1001
ACAD
1000
AcDbSavedByObjectVersion
1070
     0
  0
VISUALSTYLE
  5
FE
102
{ACAD_XDICTIONARY
360
2452
102
}
102
{ACAD_REACTORS
330
EF
102
}
330
EF
100
AcDbVisualStyle
  2

 70
    15
 71
     2
 72
     2
 73
     1
 90
        0
 40
-0.6
 41
-30.0
 62
     5
 63
     7
 74
     1
 91
        4
 64
     7
 65
   257
 75
     1
175
     1
 42
1.0
 92
        8
 66
     7
 43
1.0
 76
     1
 77
     6
 78
     2
 67
     7
 79
     5
170
     0
171
     0
290
     0
174
     0
 93
        1
 44
0.0
173
     0
291
     1
 45
0.0
1001
ACAD
1000
AcDbSavedByObjectVersion
1070
     0
  0
VISUALSTYLE
  5
F0
102
{ACAD_XDICTIONARY
360
2436
102
}
102
{ACAD_REACTORS
330
EF
102
}
330
EF
100
AcDbVisualStyle
  2

 70
     0
 71
     2
 72
     1
 73
     1
 90
        2
 40
-0.6
 41
30.0
 62
     5
 63
     7
 74
     0
 91
        4
 64
     7
 65
   257
 75
     1
175
     1
 42
1.0
 92
        8
 66
     7
 43
1.0
 76
     1
 77
     6
 78
     2
 67
     7
 79
     5
170
     0
171
     0
290
     0
174
     0
 93
        1
 44
0.0
173
     0
291
     1
 45
0.0
1001
ACAD
1000
AcDbSavedByObjectVersion
1070
     0
  0
VISUALSTYLE
  5
F1
102
{ACAD_XDICTIONARY
360
2438
102
}
102
{ACAD_REACTORS
330
EF
102
}
330
EF
100
AcDbVisualStyle
  2

 70
     1
 71
     2
 72
     1
 73
     1
 90
        2
 40
-0.6
 41
30.0
 62
     5
 63
     7
 74
     1
 91
        4
 64
     7
 65
   257
 75
     1
175
     1
 42
1.0
 92
        0
 66
   257
 43
1.0
 76
     1
 77
     6
 78
     2
 67
     7
 79
     5
170
     0
171
     0
290
     0
174
     0
 93
        1
 44
0.0
173
     0
291
     1
 45
0.0
1001
ACAD
1000
AcDbSavedByObjectVersion
1070
     0
  0
VISUALSTYLE
  5
F2
102
{ACAD_XDICTIONARY
360
243A
102
}
102
{ACAD_REACTORS
330
EF
102
}
330
EF
100
AcDbVisualStyle
  2

 70
     2
 71
     2
 72
     2
 73
     1
 90
        2
 40
-0.6
 41
30.0
 62
     5
 63
     7
 74
     0
 91
        4
 64
     7
 65
   257
 75
     1
175
     1
 42
1.0
 92
        0
 66
     7
 43
1.0
 76
     1
 77
     6
 78
     2
 67
     7
 79
     5
170
     0
171
     0
290
     0
174
     0
 93
        1
 44
0.0
173
     0
291
     1
 45
0.0
1001
ACAD
1000
AcDbSavedByObjectVersion
1070
     0
  0
VISUALSTYLE
  5
F3
102
{ACAD_XDICTIONARY
360
243C
102
}
102
{ACAD_REACTORS
330
EF
102
}
330
EF
100
AcDbVisualStyle
  2

 70
     3
 71
     2
 72
     2
 73
     1
 90
        2
 40
-0.6
 41
30.0
 62
     5
 63
     7
 74
     1
 91
        4
 64
     7
 65
   257
 75
     1
175
     1
 42
1.0
 92
        0
 66
   257
 43
1.0
 76
     1
 77
     6
 78
     2
 67
     7
 79
     5
170
     0
171
     0
290
     0
174
     0
 93
        1
 44
0.0
173
     0
291
     1
 45
0.0
1001
ACAD
1000
AcDbSavedByObjectVersion
1070
     0
  0
VISUALSTYLE
  5
23A8
102
{ACAD_XDICTIONARY
360
245F
102
}
102
{ACAD_REACTORS
330
EF
102
}
330
EF
100
AcDbVisualStyle
  2

 70
     6
 71
     1
 72
     2
 73
     2
 90
        0
 40
-0.6
 41
-30.0
 62
     5
 63
     7
 74
     2
 91
        2
 64
     7
 65
   257
 75
     2
175
     1
 42
40.0
 92
        0
 66
   257
 43
1.0
 76
     1
 77
     6
 78
     2
 67
     7
 79
     3
170
     0
171
     0
290
     0
174
     0
 93
        1
 44
0.0
173
     0
291
     0
 45
0.0
1001
ACAD
1000
AcDbSavedByObjectVersion
1070
     0
  0
VISUALSTYLE
  5
23AE
102
{ACAD_XDICTIONARY
360
246B
102
}
102
{ACAD_REACTORS
330
EF
102
}
330
EF
100
AcDbVisualStyle
  2

 70
    20
 71
     2
 72
     2
 73
     0
 90
        0
 40
-0.6
 41
-30.0
 62
     5
 63
     7
 74
     1
 91
        4
 64
     7
 65
   257
 75
     1
175
     1
 42
1.0
 92
       10
 66
     7
 43
1.0
 76
     1
 77
     6
 78
     2
 67
     7
 79
     5
170
     0
171
     0
290
     0
174
     0
 93
        1
 44
0.0
173
     0
291
     1
 45
0.0
1001
ACAD
1000
AcDbSavedByObjectVersion
1070
     0
  0
VISUALSTYLE
  5
FD
102
{ACAD_XDICTIONARY
360
2450
102
}
102
{ACAD_REACTORS
330
EF
102
}
330
EF
100
AcDbVisualStyle
  2

 70
    14
 71
     2
 72
     2
 73
     1
 90
        0
 40
-0.6
 41
-30.0
 62
     5
 63
     7
 74
     1
 91
        4
 64
     7
 65
   257
 75
     7
175
     7
 42
1.0
 92
        8
 66
     7
 43
1.0
 76
     1
 77
     6
 78
     2
 67
     7
 79
     5
170
     0
171
     0
290
     0
174
     0
 93
        1
 44
0.0
173
     0
291
     1
 45
0.0
1001
ACAD
1000
AcDbSavedByObjectVersion
1070
     0
  0
VISUALSTYLE
  5
23AF
102
{ACAD_XDICTIONARY
360
246D
102
}
102
{ACAD_REACTORS
330
EF
102
}
330
EF
100
AcDbVisualStyle
  2

 70
    21
 71
     2
 72
     2
 73
     0
 90
        0
 40
-0.6
 41
-30.0
 62
     5
 63
     7
 74
     1
 91
        4
 64
     7
 65
   257
 75
     1
175
     1
 42
1.0
 92
        9
 66
     7
 43
1.0
 76
     1
 77
     6
 78
     2
 67
     7
 79
     5
170
     0
171
     0
290
     0
174
     0
 93
        1
 44
0.0
173
     0
291
     1
 45
0.0
1001
ACAD
1000
AcDbSavedByObjectVersion
1070
     0
  0
VISUALSTYLE
  5
F9
102
{ACAD_XDICTIONARY
360
2448
102
}
102
{ACAD_REACTORS
330
EF
102
}
330
EF
100
AcDbVisualStyle
  2

 70
     8
 71
     2
 72
     2
 73
     1
 90
        0
 40
-0.6
 41
-30.0
 62
     5
 63
     7
 74
     1
 91
        0
 64
     7
 65
   257
 75
     1
175
     1
 42
1.0
 92
        8
 66
     8
 43
1.0
 76
     1
 77
     6
 78
     2
 67
     7
 79
     5
170
     0
171
     0
290
     0
174
     0
 93
       13
 44
0.0
173
     0
291
     0
 45
0.0
1001
ACAD
1000
AcDbSavedByObjectVersion
1070
     0
  0
VISUALSTYLE
  5
23AD
102
{ACAD_XDICTIONARY
360
2469
102
}
102
{ACAD_REACTORS
330
EF
102
}
330
EF
100
AcDbVisualStyle
  2

 70
    27
 71
     2
 72
     2
 73
     1
 90
        2
 40
-0.6
 41
30.0
 62
     5
 63
     7
 74
     0
 91
        4
 64
     7
 65
   257
 75
     1
175
     1
 42
1.0
 92
        8
 66
   257
 43
1.0
 76
     1
 77
     6
 78
     2
 67
     8
 79
     3
170
     0
171
     0
290
     0
174
     0
 93
        5
 44
0.0
173
     0
291
     0
 45
0.0
1001
ACAD
1000
AcDbSavedByObjectVersion
1070
     0
  0
VISUALSTYLE
  5
23AC
102
{ACAD_XDICTIONARY
360
2467
102
}
102
{ACAD_REACTORS
330
EF
102
}
330
EF
100
AcDbVisualStyle
  2

 70
    26
 71
     2
 72
     2
 73
     1
 90
        2
 40
-0.6
 41
30.0
 62
     5
 63
     7
 74
     1
 91
       10
 64
     7
 65
   257
 75
     2
175
     1
 42
1.0
 92
        8
 66
   257
 43
1.0
 76
     1
 77
     6
 78
     2
 67
     7
 79
     3
170
     0
171
     0
290
     0
174
     0
 93
        5
 44
0.0
173
     0
291
     0
 45
0.0
1001
ACAD
1000
AcDbSavedByObjectVersion
1070
     0
  0
VISUALSTYLE
  5
23A9
102
{ACAD_XDICTIONARY
360
2461
102
}
102
{ACAD_REACTORS
330
EF
102
}
330
EF
100
AcDbVisualStyle
  2

 70
    23
 71
     2
 72
     2
 73
     3
 90
        0
 40
-0.6
 41
-30.0
 62
     5
 63
     7
 74
     2
 91
        2
 64
     7
 65
     7
 75
     1
175
     1
 42
40.0
 92
        8
 66
     7
 43
1.0
 76
     1
 77
     6
 78
     2
 67
     7
 79
     3
170
     0
171
     0
290
     0
174
     0
 93
        1
 44
0.0
173
     0
291
     0
 45
0.0
1001
ACAD
1000
AcDbSavedByObjectVersion
1070
     0
  0
VISUALSTYLE
  5
23AA
102
{ACAD_XDICTIONARY
360
2463
102
}
102
{ACAD_REACTORS
330
EF
102
}
330
EF
100
AcDbVisualStyle
  2

 70
    24
 71
     1
 72
     2
 73
     2
 90
        0
 40
-0.6
 41
-30.0
 62
     5
 63
     7
 74
     2
 91
        2
 64
     7
 65
     7
 75
     1
175
     1
 42
40.0
 92
       11
 66
     7
 43
1.0
 76
     1
 77
     6
 78
     2
 67
     7
 79
     6
170
     0
171
     0
290
     0
174
     0
 93
        1
 44
0.0
173
     0
291
     0
 45
0.0
1001
ACAD
1000
AcDbSavedByObjectVersion
1070
     0
  0
VISUALSTYLE
  5
FC
102
{ACAD_XDICTIONARY
360
244E
102
}
102
{ACAD_REACTORS
330
EF
102
}
330
EF
100
AcDbVisualStyle
  2

 70
    13
 71
     2
 72
     2
 73
     1
 90
        0
 40
-0.6
 41
-30.0
 62
     5
 63
     7
 74
     1
 91
        4
 64
     7
 65
   257
 75
     1
175
     1
 42
1.0
 92
       12
 66
     7
 43
1.0
 76
     1
 77
     6
 78
     2
 67
     7
 79
     5
170
     0
171
     0
290
     0
174
     0
 93
        1
 44
0.0
173
     0
291
     1
 45
0.0
1001
ACAD
1000
AcDbSavedByObjectVersion
1070
     0
  0
VISUALSTYLE
  5
23A7
102
{ACAD_XDICTIONARY
360
245D
102
}
102
{ACAD_REACTORS
330
EF
102
}
330
EF
100
AcDbVisualStyle
  2

 70
     5
 71
     0
 72
     2
 73
     0
 90
        0
 40
-0.6
 41
-30.0
 62
     5
 63
     7
 74
     1
 91
        4
 64
     7
 65
   257
 75
     1
175
     1
 42
1.0
 92
        0
 66
   257
 43
1.0
 76
     1
 77
     6
 78
     2
 67
     7
 79
     3
170
     0
171
     0
290
     0
174
     0
 93
        1
 44
0.0
173
     0
291
     0
 45
0.0
1001
ACAD
1000
AcDbSavedByObjectVersion
1070
     0
  0
VISUALSTYLE
  5
23AB
102
{ACAD_XDICTIONARY
360
2465
102
}
102
{ACAD_REACTORS
330
EF
102
}
330
EF
100
AcDbVisualStyle
  2

 70
    25
 71
     2
 72
     2
 73
     1
 90
        1
 40
0.5
 41
-30.0
 62
     5
 63
     7
 74
     1
 91
        0
 64
     7
 65
   257
 75
     1
175
     1
 42
1.0
 92
        8
 66
     7
 43
1.0
 76
     1
 77
     6
 78
     2
 67
     7
 79
     3
170
     0
171
     0
290
     0
174
     0
 93
       13
 44
0.0
173
     0
291
     0
 45
0.0
1001
ACAD
1000
AcDbSavedByObjectVersion
1070
     0
  0
DICTIONARYVAR
  5
23CB
102
{ACAD_REACTORS
330
5E
102
}
330
5E
100
DictionaryVariables
280
     0
  1
1:1
  0
DICTIONARYVAR
  5
23CA
102
{ACAD_REACTORS
330
5E
102
}
330
5E
100
DictionaryVariables
280
     0
  1
STANDARD
  0
DICTIONARYVAR
  5
84
102
{ACAD_REACTORS
330
5E
102
}
330
5E
100
DictionaryVariables
280
     0
  1
STANDARD
  0
DICTIONARYVAR
  5
5F
102
{ACAD_REACTORS
330
5E
102
}
330
5E
100
DictionaryVariables
280
     0
  1
2
  0
DICTIONARYVAR
  5
63
102
{ACAD_REACTORS
330
5E
102
}
330
5E
100
DictionaryVariables
280
     0
  1
1
  0
DICTIONARYVAR
  5
70A
102
{ACAD_REACTORS
330
5E
102
}
330
5E
100
DictionaryVariables
280
     0
  1
0
  0
DICTIONARYVAR
  5
242E
102
{ACAD_REACTORS
330
5E
102
}
330
5E
100
DictionaryVariables
280
     0
  1
80.000000
  0
DICTIONARYVAR
  5
242D
102
{ACAD_REACTORS
330
5E
102
}
330
5E
100
DictionaryVariables
280
     0
  1
5.000000
  0
DICTIONARYVAR
  5
709
102
{ACAD_REACTORS
330
5E
102
}
330
5E
100
DictionaryVariables
280
     0
  1
127
  0
DICTIONARYVAR
  5
242F
102
{ACAD_REACTORS
330
5E
102
}
330
5E
100
DictionaryVariables
280
     0
  1
2
  0
DICTIONARY
  5
1CC9
330
1CC8
100
AcDbDictionary
280
     1
281
     1
  3
ACAD_XREC_ROUNDTRIP
360
245A
  3
ADSK_XREC_LAYOUTTHUMBNAIL
360
1CCA
  0
DICTIONARY
  5
2433
330
22
100
AcDbDictionary
280
     1
281
     1
  3
ACAD_XREC_ROUNDTRIP
360
2434
  0
DICTIONARY
  5
718
330
ED
100
AcDbDictionary
280
     1
281
     1
  3
ACAD_XREC_ROUNDTRIP
360
719
  0
DICTIONARY
  5
716
330
EC
100
AcDbDictionary
280
     1
281
     1
  3
ACAD_XREC_ROUNDTRIP
360
717
  0
DICTIONARY
  5
71A
330
EE
100
AcDbDictionary
280
     1
281
     1
  3
ACAD_XREC_ROUNDTRIP
360
71B
  0
DICTIONARY
  5
23D0
330
7F
100
AcDbDictionary
280
     1
281
     1
  3
ACAD_ROUNDTRIP_2008_TABLESTYLE_CELLSTYLEMAP
360
2430
  3
ACAD_XREC_ROUNDTRIP
360
2435
  0
DICTIONARY
  5
2440
330
F5
100
AcDbDictionary
280
     1
281
     1
  3
ACAD_XREC_ROUNDTRIP
360
2441
  0
DICTIONARY
  5
2444
330
F7
100
AcDbDictionary
280
     1
281
     1
  3
ACAD_XREC_ROUNDTRIP
360
2445
  0
DICTIONARY
  5
2442
330
F6
100
AcDbDictionary
280
     1
281
     1
  3
ACAD_XREC_ROUNDTRIP
360
2443
  0
DICTIONARY
  5
243E
330
F4
100
AcDbDictionary
280
     1
281
     1
  3
ACAD_XREC_ROUNDTRIP
360
243F
  0
DICTIONARY
  5
244C
330
FB
100
AcDbDictionary
280
     1
281
     1
  3
ACAD_XREC_ROUNDTRIP
360
244D
  0
DICTIONARY
  5
2454
330
FF
100
AcDbDictionary
280
     1
281
     1
  3
ACAD_XREC_ROUNDTRIP
360
2455
  0
DICTIONARY
  5
2446
330
F8
100
AcDbDictionary
280
     1
281
     1
  3
ACAD_XREC_ROUNDTRIP
360
2447
  0
DICTIONARY
  5
244A
330
FA
100
AcDbDictionary
280
     1
281
     1
  3
ACAD_XREC_ROUNDTRIP
360
244B
  0
DICTIONARY
  5
246F
330
23B0
100
AcDbDictionary
280
     1
281
     1
  3
ACAD_XREC_ROUNDTRIP
360
2470
  0
DICTIONARY
  5
2452
330
FE
100
AcDbDictionary
280
     1
281
     1
  3
ACAD_XREC_ROUNDTRIP
360
2453
  0
DICTIONARY
  5
2436
330
F0
100
AcDbDictionary
280
     1
281
     1
  3
ACAD_XREC_ROUNDTRIP
360
2437
  0
DICTIONARY
  5
2438
330
F1
100
AcDbDictionary
280
     1
281
     1
  3
ACAD_XREC_ROUNDTRIP
360
2439
  0
DICTIONARY
  5
243A
330
F2
100
AcDbDictionary
280
     1
281
     1
  3
ACAD_XREC_ROUNDTRIP
360
243B
  0
DICTIONARY
  5
243C
330
F3
100
AcDbDictionary
280
     1
281
     1
  3
ACAD_XREC_ROUNDTRIP
360
243D
  0
DICTIONARY
  5
245F
330
23A8
100
AcDbDictionary
280
     1
281
     1
  3
ACAD_XREC_ROUNDTRIP
360
2460
  0
DICTIONARY
  5
246B
330
23AE
100
AcDbDictionary
280
     1
281
     1
  3
ACAD_XREC_ROUNDTRIP
360
246C
  0
DICTIONARY
  5
2450
330
FD
100
AcDbDictionary
280
     1
281
     1
  3
ACAD_XREC_ROUNDTRIP
360
2451
  0
DICTIONARY
  5
246D
330
23AF
100
AcDbDictionary
280
     1
281
     1
  3
ACAD_XREC_ROUNDTRIP
360
246E
  0
DICTIONARY
  5
2448
330
F9
100
AcDbDictionary
280
     1
281
     1
  3
ACAD_XREC_ROUNDTRIP
360
2449
  0
DICTIONARY
  5
2469
330
23AD
100
AcDbDictionary
280
     1
281
     1
  3
ACAD_XREC_ROUNDTRIP
360
246A
  0
DICTIONARY
  5
2467
330
23AC
100
AcDbDictionary
280
     1
281
     1
  3
ACAD_XREC_ROUNDTRIP
360
2468
  0
DICTIONARY
  5
2461
330
23A9
100
AcDbDictionary
280
     1
281
     1
  3
ACAD_XREC_ROUNDTRIP
360
2462
  0
DICTIONARY
  5
2463
330
23AA
100
AcDbDictionary
280
     1
281
     1
  3
ACAD_XREC_ROUNDTRIP
360
2464
  0
DICTIONARY
  5
244E
330
FC
100
AcDbDictionary
280
     1
281
     1
  3
ACAD_XREC_ROUNDTRIP
360
244F
  0
DICTIONARY
  5
245D
330
23A7
100
AcDbDictionary
280
     1
281
     1
  3
ACAD_XREC_ROUNDTRIP
360
245E
  0
DICTIONARY
  5
2465
330
23AB
100
AcDbDictionary
280
     1
281
     1
  3
ACAD_XREC_ROUNDTRIP
360
2466
  0
XRECORD
  5
245A
102
{ACAD_REACTORS
330
1CC9
102
}
330
1CC9
100
AcDbXrecord
280
     1
102
SHADEPLOT
 70
     0
102
SHADEPLOTRESLEVEL
 70
     2
102
SHADEPLOTCUSTOMDPI
 70
   300
  0
XRECORD
  5
1CCA
102
{ACAD_REACTORS
330
1CC9
102
}
330
1CC9
100
AcDbXrecord
280
     1
310
28000000B40000007F00000001000800000000004C59000000000000000000000001000000000000FFFFFF0000000000FFFFFF000000000000000000000000000000000000000000000000000000000000000000330000006600000099000000CC000000FF00000000330000333300006633000099330000CC330000FF3300
310
0000660000336600006666000099660000CC660000FF66000000990000339900006699000099990000CC990000FF99000000CC000033CC000066CC000099CC0000CCCC0000FFCC000000FF000033FF000066FF000099FF0000CCFF0000FFFF000000003300330033006600330099003300CC003300FF003300003333003333
310
33006633330099333300CC333300FF33330000663300336633006666330099663300CC663300FF66330000993300339933006699330099993300CC993300FF99330000CC330033CC330066CC330099CC3300CCCC3300FFCC330000FF330033FF330066FF330099FF3300CCFF3300FFFF330000006600330066006600660099
310
006600CC006600FF00660000336600333366006633660099336600CC336600FF33660000666600336666006666660099666600CC666600FF66660000996600339966006699660099996600CC996600FF99660000CC660033CC660066CC660099CC6600CCCC6600FFCC660000FF660033FF660066FF660099FF6600CCFF6600
310
FFFF660000009900330099006600990099009900CC009900FF00990000339900333399006633990099339900CC339900FF33990000669900336699006666990099669900CC669900FF66990000999900339999006699990099999900CC999900FF99990000CC990033CC990066CC990099CC9900CCCC9900FFCC990000FF99
310
0033FF990066FF990099FF9900CCFF9900FFFF99000000CC003300CC006600CC009900CC00CC00CC00FF00CC000033CC003333CC006633CC009933CC00CC33CC00FF33CC000066CC003366CC006666CC009966CC00CC66CC00FF66CC000099CC003399CC006699CC009999CC00CC99CC00FF99CC0000CCCC0033CCCC0066CC
310
CC0099CCCC00CCCCCC00FFCCCC0000FFCC0033FFCC0066FFCC0099FFCC00CCFFCC00FFFFCC000000FF003300FF006600FF009900FF00CC00FF00FF00FF000033FF003333FF006633FF009933FF00CC33FF00FF33FF000066FF003366FF006666FF009966FF00CC66FF00FF66FF000099FF003399FF006699FF009999FF00CC
310
99FF00FF99FF0000CCFF0033CCFF0066CCFF0099CCFF00CCCCFF00FFCCFF0000FFFF0033FFFF0066FFFF0099FFFF00CCFFFF00FFFFFF00000000000D0D0D001A1A1A00282828003535350043434300505050005D5D5D006B6B6B00787878008686860093939300A1A1A100AEAEAE00BBBBBB00C9C9C900D6D6D600E4E4E400
310
F1F1F100FFFFFF0000000000000000000000000000000000000000000000000000000000000000000000000000000000E2E2E2E2E2E2E2E2E2E2E2E2E2E2E2E2E2E2E2E2E2E2E2E2E2E2E2E2E2E2E2E2E2E2E2E2E2E2E2E2E2E2E2E2E2E2E2E2E2E2E2E2E2E2E2E2E2E2E2E2E2E2E2E2E2E2E2E2E2E2E2E2E2E2E2E2E2E2E2
310
E2E2E2E2E2E2E2E2E2E2E2E2E2E2E2E2E2E2E2E2E2E2E2E2E2E2E2E2E2E2E2E2E2E2E2E2E2E2E2E2E2E2E2E2E2E2E2E2E2E2E2E2E2E2E2E2E2E2E2E2E2E2E2E2E2E2E2E2E2E2E2E2E2E2E2E2E2E2E2E2E2E2E2E2E2E2E2E2E2E2E2E2E2E2E2E2E2E2E2E2EFE2E2E2E2E2E2E2E2E2E2E2E2E2E2E2E2E2E2E2E2E2E2E2E2E2E2
310
E2E2E2E2E2E2E2E2E2E2E2E2E2E2E2E2E2E2E2E2E2E2E2E2E2E2E2E2E2E2E2E2E2E2E2E2E2E2E2E2E2E2E2E2E2E2E2E2E2E2E2E2E2E2E2E2E2E2E2E2E2E2E2E2E2E2E2E2E2E2E2E2E2E2E2E2E2E2E2E2E2E2E2E2E2E2E2E2E2E2E2E2E2E2E2E2E2E2E2E2E2E2E2E2E2E2E2E2E2E2E2E2E2E2E2E2E2E2E2E2E2E2E2E2E2E2E2
310
E2E2E2E2E2E2E2E2E2E2E2E2E2E2E2E2E2E2E2E2E2E2E2E2E2E2EFE2F5E2E2E2E2E2E2E2E2F5F5F5F5F5F5F5F5F5E2E2E2E2E2E2E2E2E2E2E2E2E2E2E2E2F5F5F5F5F5F5F5F5F5E2E2E2E2E2E2E2E2E2E2E2E2E2E2E2E2F5F5F5F5F5F5F5F5F5E2E2E2E2E2E2E2E2E2E2E2E2E2E2E2E2F5F5F5F5F5F5F5F5E2E2E2E2E2E2E2
310
E2E2E2E2E2E2E2E2E2F5F5F5F5F5F5F5F5F5E2E2E2E2E2E2E2E2E2E2E2E2E2E2E2E2F5F5F5F5F5F5F5F5F5E2E2E2E2E2E2E2E2E2E2E2E2E2E2E2E2F5F5F5F5F5F5F5F5F5E2E2E2E2E2E2E2E2F5E2E2EFE2F5E2F5F5F5F5F5F5F5F5F5F5F5F5F5F5F5F5F5F5F5F5F5F5F5F5F5F5F5F5F5F5F5F5F5F5F5F5F5F5F5F5F5F5F5F5
310
F5F5F5F5F5F5F5F5F5F5F5F5F5F5F5F5F5F5F5F5F5F5F5F5F5F5F5F5F5F5F5F5F5F5F5F5F5F5F5F5F5F5F5F5F5F5F5F5F5F5F5F5F5F5F5F5F5F5F5F5F5F5F5F5F5F5F5F5F5F5F5F5F5F5F5F5F5F5F5F5F5F5F5F5F5F5F5F5F5F5F5F5F5F5F5F5F5F5F5F5F5F5F5F5F5F5F5F5F5F5F5F5F5F5F5F5F5F5F5F5F5F5F5F5F5F5F5
310
F5E2F5E2E2EFE2F5E2E2E2E2E2E2E2E2E2E2E2E2E2E2E2E2E2E2E2E2E2E2E2E2E2E2E2E2E2E2E2E2E2E2E2E2E2E2E2E2E2E2E2E2E2E2E2E2E2E2E2E2E2E2E2E2E2E2E2E2E2E2E2E2E2E2E2E2E2E2E2E2E2E2E2E2E2E2E2E2E2E2E2E2E2E2E2E2E2E2E2E2E2E2E2E2E2E2E2E2E2E2E2E2E2E2E2E2E2E2E2E2E2E2E2E2E2E2E2
310
E2E2E2E2E2E2E2E2E2E2E2E2E2E2E2E2E2E2E2E2E2E2E2E2E2E2E2E2E2E2E2E2E2E2E2E2E2E2E2E2E2E2E2E2E2E2E2E2E2E2E2E2E2E2E2F5E2E2EFE2F5E2E2F5F5F5F5F5F5F5F5F5F5F5F5F5F5F5F5F5F5F5F5F5F5F5F5F5F5F5F5F5F5F5F5F5F5F5F5F5F5F5F5F5F5F5F5F5F5F5F5F5F5F5F5F5F5F5F5F5F5F5F5F5F5F5F5
310
F5F5F5F5F5F5F5F5F5F5F5F5F5F5F5F5F5F5F5F5F5F5F5F5F5F5F5F5F5F5F5F5F5F5F5F5F5F5F5F5F5F5F5F5F5F5F5F5F5F5F5F5F5F5F5F5F5F5F5F5F5F5F5F5F5F5F5F5F5F5F5F5F5F5F5F5F5F5F5F5F5F5F5F5F5F5F5F5F5F5F5F5F5F5F5F5F5F5F5F5F5F5F5F5F5F5E2E2F5E2E2EFE2F5E2E2F5F5F5F5F5F5F5F5F5F5F5
310
F5F5F5F5F5F5F5F5F5F5F5F5F5F5F5F5F5F5F5F5F5F5F5F5F5F5F5F5F5F5F5F5F5F5F5F5F5F5F5F5F5F5F5F5F5F5F5F5F5F5F5F5F5F5F5F5F5F5F5F5F5F5F5F5F5F5F5F5F5F5F5F5F5F5F5F5F5F5F5F5F5F5F5F5F5F5F5F5F5F5F5F5F5F5F5F5F5F5F5F5F5F5F5F5F5F5F5F5F5F5F5F5F5F5F5F5F5F5F5F5F5F5F5F5F5F5F5
310
F5F5F5F5F5F5F5F5F5F5F5F5F5F5F5F5F5F5F5F5F5F5F5F5F5F5F5F5F5F5F5F5E2E2F5E2E2EFE2F5E2E2F5F5F5F5F5F5F5F5F5F5BEF5F5F5BEF5F5F5F5F5F5F5F5F5F5F5F5F5F5F5F5F5F5F5F5F5F5F5F5F5F5F5F5F5F5F5F5F5F5F5F5F5F5F5F5F5F5F5F5F5F5F5F5BEF5F5F5F5F5F5F5F5F5F5F5F5F5F5F5F5F5F5F5F5F5
310
F5F5F5F5F5F5F5F5F5F5F5F5F5F5F5BEF5F5BEF5F5F5F5F5F5F5F5F5F5F5F5F5F5F5F5F5F5F5F5F5F5F5F5F5F5F5F5F5F5F5F5F5F5F5F5F5F5F5F5F5F5F5F5F5F5F5F5F5F5F5F5F5F5F5F5F5F5F5F5F5F5F5F5F5F5E2E2F5E2E2EFE2F5E2E2F5F5F5F5F5F5F5F5F5BEBEBEBEBEBEBEF5F5F5F5F5F5F5F50F0F0F0F0F0F0F0F
310
0F0F0F0FEC0F0F0F0F0F0FEC0F0F0F0F0F0F0F0FF5F5F5F5F5F5BEBEBEBEBEBEF5F5F5F5F5F5F5F5F5F5F5F5F5F5F5F5F5F5F5F5F5F5F5F5F5F5F5F5F5F5F5F5F5F5BEBEBEBEBEBEBEBEF5F5F5F5F5F5F5F50F0F0F0F0F0F0F0F0F0F0FEC0F0F0F0F0F0F0F0F0F0F0F0F0F0F0F0F0F0F0F0F0FF5F5F5F5F5F5F5F5F5F5F5F5
310
F5F5F5F5F5F5F5F5F5F5F5E2E2F5E2E2EFE2F5E2E2F5F5F5F5F5F5F5F5F5BEBEF5BEBEF5F5F5F5F5F5F5F5F5F50FF50FF50F0FF5F50F0FF5F5EC0FF50FF5F50FEC0FF5F5F50F0FF50F0FF5F5F5F5F5F5F5F5F5BEBEF5F5F5F5F5F5F5F5F5F5F5F5F5F5F5F5F5F5F5F5F5F5F5F5F5F5F5F5F5F5F5F5F5F5BEBEF5F5BEBEF5F5
310
F5F5F5F5F5F5F50F0FF5F50FF50FF50FF50FF5ECF50F0FF5F5F50F0FF50FF5F5F50FF50FF5F50FF50FF5F5F5F5F5F5F5F5F5F5F5F5F5F5F5F5F5F5F5F5F5F5F5E2E2F5E2E2EFE2F5F5E2F5F5F5F5F5F5F5F5F5F5BEF5F5BEF5F5F5F5F5F5F5F5F50F0FF5F50F0F0F0F0F0FF5F5F5ECF50FF5F50FF5EC0F0FF5F5F50F0FF50F
310
F5F5F5F5F5F5F5F5F5F5BEF5F5F5F5F5F5F5F5F5F5F5F5F5F5F5F5F5F5F5F5F5F5F5F5F5F5F5F5F5F5F5F5F5F5F5BEF5F5F5BEF5F5F5F5F5F5F5F5F50FF50FF5F50F0F0FF50FF5F5EC0F0FF5F5F50F0F0F0FF50FF5F5F50FF50FF5F50F0F0FF5F5F5F5F5F5F5F5F5F5F5F5F5F5F5F5F5F5F5F5F5F5E2F5F5E2E2EFE2F5F5E2
310
F5F5F5F5F5F5F5F5F5F5BEF5F5BEF5F5F5F5F5F5F5F5F50F0FF5F5F50F0FF50FF5F5F50FEC0FF5F50FF50FEC0FF50FF5F50FF50F0FF5F5F5F5F5F5F5F5F5F5BEF5F5F5F5F5F5F5F5F5F5F5F5F5F5F5F5F5F5F5F5F5F5F5F5F5F5F5F5F5F5F5F5F5F5F5BEF5F5F5BEF5F5F5F5F5F5F5F5F50F0FF50FF5F50FF50FF5F5F5EC0F
310
F5F5F50F0FF50FF50FF50FF5F5F50FF50FF5F5F50FF5F5F5F5F5F5F5F5F5F5F5F5F5F5F5F5F5F5F5F5F5F5E2F5F5E2E2EFE2F5F5E2F5F5F5F5F5F5F5F5F5F5BEF5F5BEF5F5F5F5F5F5F5F5F50FF50FF5F5F50F0FF5F5F50FF50FF5F50FF50FF5F50F0FF50FF5F50FF50FF5F5F5F5F5F5F5F5F5F5BEF5F5F5F5F5F5F5F5F5F5
310
F5F5F5F5F5F5F5F5F5F5F5F5F5F5F5F5F5F5F5F5F5F5F5F5F5BEF5F5F5BEF5F5F5F5F5F5F5F5F50FF50FF50FF50F0FF5F5F50F0FF5F5F50F0FF5F50FF5F50FF50FF5F5F50FF50FF5F50FF5F5F5F5F5F5F5F5F5F5F5F5F5F5F5F5F5F5F5F5F5F5E2F5F5E2E2EFE2F5F5E2F5F5F5F5F5F5F5F5F5F5BEF5F5BEF5F5F5F5F5F5F5
310
F5F50F0FF50FF5F50FF5F5F50F0F0FECF50FF50FF5F5EC0FF50FF50FF5F50F0FF5F5F5F5F5F5F5F5F5F5BEF5F5F5F5F5F5F5F5F5F5F5F5F5F5F5F5F5F5F5F5F5F5F5F5F5F5F5F5F5F5F5F5F5F5F5BEF5F5F5BEF5F5F5F5F5F5F5F5F50FF5F50FF50F0FF5F5F50F0FECF5F50F0FF5F5F50FF5F5F50FF50FF5F5F50FF50FF50F
310
F5F5F5F5F5F5F5F5F5F5F5F5F5F5F5F5F5F5F5F5F5F5E2F5F5E2E2EFE2F5F5E2F5F5F5F5F5F5F5F5F5F5BEF5F5BEF5F5F5F5F5F5F5F5F50FF50FF50FF50FF5F50F0FF5F5EC0FF50FF5F5F5EC0FF5F50FF50FF5F50FF5F5F5F5F5F5F5F5F5F5BEF5F5F5F5F5F5F5F5F5F5F5F5F5F5F5F5F5F5F5F5F5F5F5F5F5F5F5F5F5F5F5
310
F5F5F5F5BEF5F5F5BEF5F5F5F5F5F5F5F5F50FF5F5F50FF50FF5F50F0FF5ECF50F0FF5F5F50F0F0FF5F5F50FF50F0FF5F50FF50F0FF5F5F5F5F5F5F5F5F5F5F5F5F5F5F5F5F5F5F5F5F5F5E2F5F5E2E2EFE2F5F5E2F5F5F5F5F5F5F5F5F5F5BEF5F5BEF5F5F5F5F5F5F5F5F50FF5F50FF50F0FF50F0FF5F5F5ECF50FF5F5F5
310
0FEC0F0FF5F50FF50FF50FF5F5F5F5F5F5F5F5F5F5BEF5F5F5F5F5F5F5F5F5F5F5F5F5F5F5F5F5F5F5F5F5F5F5F5F5F5F5F5F5F5F5F5F5F5F5BEF5F5F5BEF5F5F5F5F5F5F5F5F50F0FF5F5F50F0FF50F0FF5F5EC0FF50FF5F50FF50F0F0FF5F5F50FF5F50FF5F50FF50FF5F5F5F5F5F5F5F5F5F5F5F5F5F5F5F5F5F5F5F5F5
310
F5E2F5F5E2E2EFE2F5F5E2F5F5F5F5F5F5F5F5F5F5BEBEBEBEF5F5F5F5F5F5F5F5F50F0FF5F50FF50F0F0FF5F5F50FEC0FF5F5F50FF5EC0FF50FF5F50FF50F0FF5F5F5F5F5F5F5F5BEBEBEF5F5F5F5F5F5F5F5F5F5F5F5F5F5F5F5F5F5F5F5F5F5F5F5F5F5F5F5F5F5F5F5F5F5F5BEF5BEBEBEF5F5F5F5F5F5F5F5F50FF50F
310
F5F5F50F0F0FF5F5F5ECF50FF5F50FF50F0FF50F0FF5F5F50F0FF50FF5F50F0FF5F5F5F5F5F5F5F5F5F5F5F5F5F5F5F5F5F5F5F5F5F5E2F5F5E2E2EFE2F5F5E2F5F5F5F5F5F5F5F5F5F5BEBEBEBEF5F5F5F5F5F5F5F5F50FF50FF5F50F0F0FF5F5F50FF5ECF5F5F50FF50FEC0F0FF50FF5F50FF50FF5F5F5F5F5F5F5F5BEBE
310
BEF5F5F5F5F5F5F5F5F5F5F5F5F5F5F5F5F5F5F5F5F5F5F5F5F5F5F5F5F5F5F5F5F5F5F5BEF5BEBEBEF5F5F5F5F5F5F5F5F50F0FF50FF5F50F0FF5F5F50FEC0FF5F5F50F0FF50FF5F50F0FF5F5F5F50FF50FF5F50FF5F5F5F5F5F5F5F5F5F5F5F5F5F5F5F5F5F5F5F5F5F5E2F5F5E2E2EFE2F5F5E2F5F5F5F5F5F5F5F5BEBE
310
BEBEBEBEF5F5F5F5F5F5F5F5F50F0FF50FF5F50FF5F5F50FF50FECF5F50FF50FF5EC0FF50FF50FF5F50F0FF5F5F5F5F5F5F5F5BEBEBEF5F5F5F5F5F5F5F5F5F5F5F5F5F5F5F5F5F5F5F5F5F5F5F5F5F5F5F5F5F5F5F5F5BEBEBEF5BEBEBEF5F5F5F5F5F5F5F5F50FF50FF50FF50FF5F5F50FF5ECF5F5F50F0FF5F50FF5F5F5
310
0F0FF5F5F5F50FF50FF50FF5F5F5F5F5F5F5F5F5F5F5F5F5F5F5F5F5F5F5F5F5F5E2F5F5E2E2EFE2F5E2E2F5F5F5F5F5F5F5F5BEBEBEF5F5BEF5F5F5F5F5F5F5F5F50FF50FF50FF50FF5F50FF50FF5ECF50FF50FF5F5EC0FF5F50FF50FF5F50FF5F5F5F5F5F5F5F5F5F5BEF5F5F5F5F5F5F5F5F5F5F5F5F5F5F5F5F5F5F5F5
310
F5F5F5F5F5F5F5F5F5F5F5F5F5BEBEBEF5F5F5BEF5F5F5F5F5F5F5F5F50FF5F50F0F0F0FF5F50FF50FECF5F50F0FF5F50F0F0FF5F5F50F0FF5F5F5F50FF50F0FF5F5F5F5F5F5F5F5F5F5F5F5F5F5F5F5F5F5F5F5F5F5E2E2F5E2E2EFE2F5E2E2F5F5F5F5F5F5F5F5F5F5BEF5F5BEF5F5F5F5F5F5F5F5F50FF5F50FF50F0FF5
310
0FF50FF5F5EC0FF50FF5F50FEC0F0FF5F50FF50FF50FF5F5F5F5F5F5F5F5F5F5BEF5F5F5F5F5F5F5F5F5F5F5F5F5F5F5F5F5F5F5F5F5F5F5F5F5F5F5F5F5F5F5F5F5F5F5BEF5F5F5BEF5F5F5F5F5F5F5F5F50F0FF5F5F50F0FF50FF50FF5ECF50F0FF5F50FF50FF50FF5F5F50F0F0FF5F5F50FF50FF5F5F5F5F5F5F5F5F5F5
310
F5F5F5F5F5F5F5F5F5F5F5F5E2E2F5E2E2EFE2F5E2E2F5F5F5F5F5F5F5F5F5F5BEF5F5BEF5F5F5F5F5F5F5F5F50FF5F5F50FF50F0FF50FF5F5F5BEF50FF5F50FF5EC0FF50FF5F50FF50F0FF5F5F5F5F5F5F5F5F5F5BEF5F5F5F5F5F5F5F5F5F5F5F5F5F5F5F5F5F5F5F5F5F5F5F5F5F5F5F5F5F5F5F5F5F5F5BEF5F5F5BEF5
310
F5F5F5F5F5F5F5F50FF50FF5F5F50F0F0F0FF5F5BE0F0FF5F50FF50F0F0FF50FF5F5F50F0F0FF5F5F50F0FF5F5F5F5F5F5F5F5F5F5F5F5F5F5F5F5F5F5F5F5F5F5E2E2F5E2E2EFE2F5E2E2F5F5F5F5F5ECF5F5F5F5BEF5F5BEF5F5F5F5F5F5F5F5F50F0FF5F5F50F0FF50FF5BEBEBEBEF5BEBEBEF50FF50F0FF50FF5F50FF5
310
0FF5F5F5F5F5F5F5F5F5F5BEF5F5F5F5F5F5F5F5F5F5F5F5F5F5F5F5F5F5F5F5F5F5F5F5F5F5F5F5F5F5ECECF5F5F5BEF5F5F5BEF5F5F5F5F5F5F5F5F50F0FF50FF5F50F0FF5BEF5BEBEBEBEBEBEBE0FF50FF50FF50FF5F5F5F50F0FF5F5F50FF5F5F5F5F5F5F5F5F5F5F5F5F5F5F5F5F5F5F5F5F5F5E2E2F5E2E2EFE2F5E2
310
E2F5F5F5F5ECECF5F5F5F5BEF5F5BEF5F5BEF5F5F5F5F5F5BE0F0FF5F5F50F0FF5F5BEBEBEECBEBEBEBE0FF5EC0FF50FF50FF5F5BEBEF5F5F5BEBEF5F5F5F5F5BEF5F5F5F5F5F5F5F5F5F5F5F5F5F5F5F5F5F5F5F5F5F5F5F5F5F5F5F5F5F5ECECF5F5F5BEF5F5F5BEF5BEF5F5F5F5F5F5BE0FF50FF50FF50F0FF5BEF5BEBE
310
BEBEBEBEBEF5F50FF5F50FF50FF5F5F5F50F0FF5F50FF5F5F5F5F5F5F5F5F5F5F5F5F5F5F5F5F5F5F5F5F5F5E2E2F5E2E2EFE2F5E2E2F5F5F5F5ECECF5F5F5F5BEF5F5BEF5F5BEBEBEBEBEBEBEBEBE0F0FF5F50FF5F5F5F5BEBEECBEBEBEBEF5F5EC0FF5F50FF50FF5F5BEBEBEBEBEBEBEF5F5F5F5BEF5F5F5F5F5F5F5F5F5
310
F5F5F5F5F5F5F5F5F5F5F5F5F5F5F5F5F5F5F5F5F5ECECF5F5F5BEF5F5F5BEF5F5BEBEBEBEBEBEBEBEF5F50FF50F0FF5F5F5BEBEBEF5BEBEBEBEF5F50F0FF5F50FF50FF5F5F5F50F0FF50FF5F5F5F5F5F5F5F5F5F5F5F5F5F5F5F5F5F5F5F5F5F5E2E2F5E2E2EFE2F5E2E2F5F5F5F5ECECF5F5F5F5BEF5F5BEBEF5BEBEF5BE
310
BEBEF5BEBEF50F0FF50FF5F5BEBEBEBEECBEBEBEBEF5F5EC0FF5F5F50FF50FF5BEF5BEBEF5BEF5F5F5F5F5BEF5F5F5F5F5F5F5F5F5F5F5F5F5F5F5F5F5F5F5F5F5F5F5F5F5F5F5F5F5F5ECECF5F5F5BEF5F5F5BEF5F5BEBEF5BEBEF5F5BEBEF5F50FF50FF50FBEBEBEECF5BEBEBEF5F50F0FF50FF5F50FF50F0FF5F5F50F0F
310
0FF5F5F5F5F5F5F5F5F5F5F5F5F5F5F5F5F5F5F5F5F5F5E2E2F5E2E2EFE2F5E2E2F5F5F5F5ECECF5F5F5F5BEF5BEBEBEBEF50F0FBEBEBEF50FF5F5F50F0F0F0F0FF50FF5F5ECF50FF5F5F50FEC0F0FF5F5F50FF50F0F0F0F0F0FBEF5BEBEBEBEBEF5F5F5F5F5F5F5F5F5F5F5F5F5F5F5F5F5F5F5F5F5F5F5F5F5F5F5F5F5F5
310
ECECF5F5F5BEF5F5BEBEBEBEF50F0FBEBEF5F50FF50FF5F50F0F0FF5F50FF5EC0FF50FF5F50F0F0F0FF50FF5F50FF5F50FF5F5F50F0FF5F5F5F5F5F5F5F5F5F5F5F5F5F5F5F5F5F5F5F5F5F5E2E2F5E2E2EFE2F5E2E2F5F5F5F5ECECF5F5F5F5BEF5BEF5F5F50F0FF50F0F0FF50F0FF5F5F50F0FF5F50FF5F50FEC0FF5F5F5
310
0F0FEC0FF50FF5F5F50FF50FF5F50FF5BEF5F5F5F5BEF5F5F5F5F5F5F5F5F5F5F5F5F5F5F5F5F5F5F5F5F5F5F5F5F5F5F5F5F5F5F5ECECF5F5F5BEF5F5BEF5F5F50FF5F50F0F0FF50F0FF50FF5F50FF5F50FF5F5ECF50FF5F50F0FF50FF50FF50FF5F50F0FF50FF5F5F50FF5F5F5F5F5F5F5F5F5F5F5F5F5F5F5F5F5F5F5F5
310
F5F5E2E2F5E2E2EFE2F5E2E2F5F5F5F5ECECF5F5F5F5BEF5F5F5F5F50FF50FF50FF50F0FF50FF5F5F50F0F0FF5F50FF50FF5F5F50F0FF5F50F0FF50FF5F5F50FF50FF5F50F0FF5F5F5F5F5F5F5F5F5F5F5F5F5F5F5F5F5F5F5F5F5F5F5F5F5F5F5F5F5F5F5F5F5F5F5F5ECECF5F5F5BEBEF5F5F5F5F50FF5F5F50F0FF50FF5
310
0FF50FF50F0F0FF5F50FF50FF5F50F0FF5F50FF5F50FF50FF5F5F50FF50FF5F50FF5F5F5F5F5F5F5F5F5F5F5F5F5F5F5F5F5F5F5F5F5F5E2E2F5E2E2EFE2F5E2E2F5F5F5F5ECECF5F5F5BEBEBEBEBEBEBE0FF5F50FF50F0FEC0FF50FF5F50FF5F50F0FF50FECF5F50F0FF5F5EC0FF50FF50FF5F5F50FF50FF5F50FF5F5F5F5
310
F5F5F5F5F5F5F5F5F5F5F5F5F5F5F5F5F5F5F5F5F5F5F5F5F5F5F5F5F5F5F5F5ECECF5F5BEBEBEBEBEBEBEF50F0FF5F5F50F0FECF5F50FF50F0FF5F50F0FF5ECF5F50F0FF5F5F50FF5F5F50FF50FF5F5F50FF50FF50FF5F5F5F5F5F5F5F5F5F5F5F5F5F5F5F5F5F5F5F5F5F5E2E2F5E2E2EFE2F5E2E2F5F5F5F5ECECF5F5F5
310
BEF5F5F5F5F5F50F0FF5F50FF50FECF50FF50FF50FF50FF50F0FF5ECF50F0FF5F5F5EC0FF5F50FF50FF5F5F50FF50FF50FF5F5F5F5F5F5F5F5F5F5F5F5F5F5F5F5F5F5F5F5F5F5F5F5F5F5F5F5F5F5F5F5F5F5F5F5ECECF5F5BEF5F5F5F5F5F5F50FF50FF5F5F50F0FF5F5F50FF50FF50FF50F0FECF50F0FF5F5F50F0F0FF5
310
F5F50FF50F0FF5F50FF50F0FF5F5F5F5F5F5F5F5F5F5F5F5F5F5F5F5F5F5F5F5F5F5E2E2F5E2E2EFE2F5E2E2F5F5F5F5ECECF5F5F5F5F5F5F5F5F5F50FF50FF5F50FF50FF5F50FF50F0F0FF50FF5F5F5EC0F0FF5F5F50FEC0F0FF5F50FF50F0FF5F50FF50F0FF5F5F5F5F5F5F5F5F5F5F5F5F5F5F5F5F5F5F5F5F5F5F5F5F5
310
F5F5F5F5F5F5F5F5F5F5F5ECECF5F5F5F5F5F5F5F5F5F50F0FF50FF5F5F50F0FF5F5F50F0F0FF50FF5F5EC0F0FF5F5F50FF50F0F0FF5F5F50FF5F50FF5F50FF50FF5F5F5F5F5F5F5F5F5F5F5F5F5F5F5F5F5F5F5F5F5F5E2E2F5E2E2EFE2F5E2E2F5F5F5F5ECECF5F5F5F5F5F5F5F5F5F50F0FF50FF5F50FEC0FF5F50FF50F
310
F50FF5F5F50FEC0FF5F5F50FF5EC0FF50FF5F50FF5F50FF5F50FF50FF5F5F5F5F5F5F5F5F5F5F5F5F5F5F5F5F5F5F5F5F5F5F5F5F5F5F5F5F5F5F5F5F5F5F5F5ECECF5F5F5F5F5F5F5F5F5F50FF50FF50FF5F5EC0F0FF5F5F50FF50FF5F5F5EC0FF5F5F50FF50F0FF50F0FF5F5F50FF5F50FF5F50F0FF5F5F5F5F5F5F5F5F5
310
F5F5F5F5F5F5F5F5F5F5F5F5F5E2E2F5E2E2EFE2F5E2E2F5F5F5F5ECECECECECECECECECECECF50FF50FF50FF5F50FF50FF5F50F0F0FF5F5F50FF5ECF5F5F50FF50FEC0F0FF50FF5F50FF5F50FF5F50F0FF5F5F5F5F5F5F5F5F5F5F5F5F5F5F5F5F5F5F5F5F5F5F5F5F5F5F5F5F5F5F5F5F5F5F5F5ECECECECECECECECECEC
310
F5F50FF5F50FF50FF5F5F50F0FF5F50F0FF5F5F50FEC0FF5F50FF50FF50FF5F50F0FF5F5F50FF5F50FF5F50FF5F5F5F5F5F5F5F5F5F5F5F5F5F5F5F5F5F5F5F5F5F5E2E2F5E2E2EFE2F5E2E2F5F5F5F5ECECECECECECECECECEC282828F5F50FF50FF5EC0FF50FF5F50FF5F5F50FF50FF5F5F50FF50FF5F50FF50FF50FF5F5
310
0FF5F50FF5F50FF5F5F5F5F5F5F5F5F5F5F5F5F5F5F5F5F5F5F5F5F5F5F5F5F5F5F5F5F5F5F5F5F5F5F5F5ECECECECECECECECECEC2828280FF5F50FF50FECF5F50F0FF50FF5F5F50FF50FF5F50FF50FF5F50FF5F5F50F0F0FF5F50FF5F50FF50FF5F5F5F5F5F5F5F5F5F5F5F5F5F5F5F5F5F5F5F5F5F5E2E2F5E2E2EFE2F5
310
F5E2F5F5F5F5ECECF5F5F5EC2828282828F528F5F5F50FF50FECF50FF50FF50FF5F50FF50FF5ECF50FF50FF5F5EC0FF5F50FF50FF5F50FF5F50FF50FF5F5F5F5F5F5F5F5F5F5F5F5F5F5F5F5F5F5F5F5F5F5F5F5F5F5F5F5F5F5F5F5F5F5F5F5ECECF5F5F5EC2828282828F528F50FF5F50FF50FF5F5F50F0F0FF5F50FF50F
310
ECF50FF50FF5F50F0F0FF5F5F50FF50FF5F50FF5F50F0FF5F5F5F5F5F5F5F5F5F5F5F5F5F5F5F5F5F5F5F5F5F5E2F5F5E2E2EFE2F5F5E2F5F5F5F5ECECF5F5F5F528F5F52828F5280FF5F5F50FF50FF5F50FF50F0FF50FF50FF5F5EC0FF50FF5F50FEC0F0FF5F50FF50FF5F50FF5F50F0FF5F5F5F5F5F5F5F5F5F5F5F5F5F5
310
F5F5F5F5F5F5F5F5F5F5F5F5F5F5F5F5F5F5F5F5F5F5ECECF5F5F5F528F5F52828F5280FF50FF5F50FEC0FF5F5F50F0FF50FF50FF5EC0FF50FF5F5F50F0FF50FF5F5F50FF50FF5F50FF5F50FF5F5F5F5F5F5F5F5F5F5F5F5F5F5F5F5F5F5F5F5F5F5E2F5F5E2E2EFE2F5F5E2F5F5F5F5ECECF5F5F5F528F5F52828F528F50F
310
F5F5F50FEC0FF5F50FF50F0FF50FF5F50FECF50FF5F50FF5EC0F0FF5F5F50FF50FF5F50FF5F50FF5F5F5F5F5F5F5F5F5F5F5F5F5F5F5F5F5F5F5F5F5F5F5F5F5F5F5F5F5F5F5F5F5F5F5F5ECECF5F5F5F528F5F52828F528F50FF50FF5F50FF50FF5F5F50F0FF50FF5F5ECF50FF5F5F50FF50F0F0F0FF5F5F50FF50FF5F50F
310
0F0FF5F5F5F5F5F5F5F5F5F5F5F5F5F5F5F5F5F5F5F5F5F5E2F5F5E2E2EFE2F5F5E2F5F5F5F5ECECF5F5F5F5282828282828280FF50FF5F5F50FF50FF5F50F0FF50FF5F50FF5EC0FF50F0F0F0FEC0F0F0F0F0F0F0F0F0F0F0F0F0FF5F5F5F5F5F5F5F5F5F5F5F5F5F5F5F5F5F5F5F5F5F5F5F5F5F5F5F5F5F5F5F5F5F5F5F5
310
F5ECECF5F5F5F528282828282828F5F50FF50FF5EC0FF50FF5F50FF50FF5F50FEC0FF5F50F0F0F0F0F0F0F0F0F0F0F0F0F0F0F0F0F0FF5F5F5F5F5F5F5F5F5F5F5F5F5F5F5F5F5F5F5F5F5F5F5E2F5F5E2E2EFE2F5F5E2F5F5F5F5ECECF5F5F5F528F5282828F5280F0FF50FF5F5F50FF50FF5F50F0FF5F50FF50FECF5F50F
310
F5F5F5F5F5F5F5F5F5F5F5F5F5F5F5F5F5F5F5F5F5F5F5F5F5F5F5F5F5F5F5F5F5F5F5F5F5F5F5F5F5F5F5F5F5F5F5F5F5F5F5F5F5F5ECECF5F5F5F52828F52828F5280FF5F50FF50FF5F50FF50FF50F0FF5F50FF5ECF5F5F50FF5F5F5F5F5F5F5F5F5F5F5F5F5F5F5F5F5F5F5F5F5F5F5F5F5F5F5F5F5F5F5F5F5F5F5F5F5
310
F5F5F5E2F5F5E2E2EFE2F5F5E2F5F5F5F5ECECF5F5F5F528F5282828EC280FF50FF50FF5ECF50FF50FF50FF5F50FF50FF5F5F50F0FF5F5F5F5F5F5F5F5F5F5F5F5F5F5F5F5F5F5F5F5F5F5F5F5F5F5F5F5F5F5F5F5F5F5F5F5F5F5F5F5F5F5F5F5F5F5F5F5F5F5F5F5F5F5ECECF5F5F5F52828F52828F5280FF5F5F50FF50F
310
F5F50FF50F0FF5F50FF50FF5F5F50F0FF5F5F5F5F5F5F5F5F5F5F5F5F5F5F5F5F5F5F5F5F5F5F5F5F5F5F5F5F5F5F5F5F5F5F5F5F5F5F5F5E2F5F5E2E2EFE2F5F5E2F5F5F5F5ECECF5F5F5F528F52828282828F50FF50FF50FECF5F50FF50F0FF50FF50FF5F5EC0FF50FF5F5F5F5F5F5F5F5F5F5F5F5F5F5F5F5F5F5F5F5F5
310
F5F5F5F5F5F5F5F5F5F5F5F5F5F5F5F5F5F5F5F5F5F5F5F5F5F5F5F5F5F5F5F5F5ECECF5F5F5F528282828282828F50FF5F5F50FEC0FF5F50FF50FF50FF50FF5ECF50FF50FF5F5F5F5F5F5F5F5F5F5F5F5F5F5F5F5F5F5F5F5F5F5F5F5F5F5F5F5F5F5F5F5F5F5F5F5F5F5F5F5E2F5F5E2E2EFE2F5F5E2F5F5F5F5ECECF5F5
310
F5F52828F52828F528F5F50FF50FF50FF5F5F50FF50F0FF50FF5F5F5ECF50F0FF5F5F5F5F5F5F5F5F5F5F5F5F5F5F5F5F5F5F5F5F5F5F5F5F5F5F5F5F5F5F5F5F5F5F5F5F5F5F5F5F5F5F5F5F5F5F5F5F5F5F5F5F5F5ECECF5F5F5F528F5F52828F5280FF50FF5F5F50FF50FF5F50F0F0FF50FF5F5EC0FF50F0FF5F5F5F5F5
310
F5F5F5F5F5F5F5F5F5F5F5F5F5F5F5F5F5F5F5F5F5F5F5F5F5F5F5F5F5F5F5F5F5F5F5E2F5F5E2E2EFE2F5E2E2F5F5F5F5ECECF5F5F5F528F5F52828F5280FF50FF5F50FEC0FF5F5F50F0FF50FF5F5F50FEC0FF50FF5F5F5F5F5F5F5F5F5F5F5F5F5F5F5F5F5F5F5F5F5F5F5F5F5F5F5F5F5F5F5F5F5F5F5F5F5F5F5F5F5F5
310
F5F5F5F5F5F5F5F5F5F5F5F5ECECF5F5F5F528F5F52828F528F50FF50FF5F5EC0FF50FF5F50FF50FF5F5F5ECF50FF50FF5F5F5F5F5F5F5F5F5F5F5F5F5F5F5F5F5F5F5F5F5F5F5F5F5F5F5F5F5F5F5F5F5F5F5F5F5F5F5F5E2E2F5E2E2EFE2F5E2E2F5F5F5F5ECECF5F5F5EC2828282828F528F50FF50FF5F50FF50FF5F5F5
310
0F0FF5F50F0FF5ECF5F50FF5F5F5F5F5F5F5F5F5F5F5F5F5F5F5F5F5F5F5F5F5F5F5F5F5F5F5F5F5F5F5F5F5F5F5F5F5F5F5F5F5F5F5F5F5F5F5F5F5F5F5F5F5F5ECECF5F5F5EC2828282828F528F5F50F0F0FF5ECF50FF50FF50F0FF5F50F0FEC0FF5F50FF5F5F5F5F5F5F5F5F5F5F5F5F5F5F5F5F5F5F5F5F5F5F5F5F5F5
310
F5F5F5F5F5F5F5F5F5F5F5F5F5F5E2E2F5E2E2EFE2F5E2E2F5F5F5F5ECECECECECECECECECEC282828F5F50FF50F0FC30F0F0FF5F50FF5F50FF5F50FECF50F0FF5F5F5F5F5F5F5F5F5F5F5F5F5F5F5F5F5F5F5F5F5F5F5F5F5F5F5F5F5F5F5F5F5F5F5F5F5F5F5F5F5F5F5F5F5F5F5F5F5F5F5F5F5F5ECECECECECECECECEC
310
EC2828280FF5F5F50FC3C30F0F0FF50F0FF5F50FF5F5ECF5F50F0FF5F5F5F5F5F5F5F5F5F5F5F5F5F5F5F5F5F5F5F5F5F5F5F5F5F5F5F5F5F5F5F5F5F5F5F5F5F5F5F5E2E2F5E2E2EFE2F5E2E2F5F5F5F5ECECECECECECECECECECECC3C30FF5F50FF5C3C3C3C3F50FF50FF50FF5F50FF5F50FF50FF5F5F5F5F5F5F5F5F5F5
310
F5F5F5F5F5F5F5F5F5F5F5F5F5F5F5F5F5F5F5F5F5F5F5F5F5F5F5F5F5F5F5F5F5F5F5F5F5F5F5F5F5F5F5F5ECECECECECECECECECECECC3C3F50FF5F5F5C3C3C30FF50FF50FF50FF5F50FF5F50FF50FF5F5F5F5F5F5F5F5F5F5F5F5F5F5F5F5F5F5F5F5F5F5F5F5F5F5F5F5F5F5F5F5F5F5F5F5F5F5F5F5E2E2F5E2E2EFE2
310
F5E2E2F5F5F5F5ECECF5F5F5F5F5F5F5ECECC3C3F50FF5F50FC3C3C3C30FF50F0F0FF5F50FF5F5EC0F0F0FF5F5F5F5F5F5F5F5F5F5F5F5F5F5F5F5F5F5F5F5F5F5F5F5F5F5F5F5F5F5F5F5F5F5F5F5F5F5F5F5F5F5F5F5F5F5F5F5F5F5F5F5F5F5ECECF5F5F5F5F5F5F5ECECC3C30FF50FF5F5C3C3C3C3F5F50F0F0FF5F50F
310
F5EC0FF50F0FF5F5F5F5F5F5F5F5F5F5F5F5F5F5F5F5F5F5F5F5F5F5F5F5F5F5F5F5F5F5F5F5F5F5F5F5F5F5F5F5E2E2F5E2E2EFE2F5E2E2F5F5F5F5ECECF5F5F5F5F5F5F5ECECECC30FF50FF5F5C3C3C3C3F50FF50FF5F50FF5F5F5ECF50F0FF5F5F5F5F5F5F5F5F5F5F5F5F5F5F5F5F5F5F5F5F5F5F5F5F5F5F5F5F5F5F5
310
F5F5F5F5F5F5F5F5F5F5F5F5F5F5F5F5F5F5F5F5F5F5F5ECECF5F5F5F5F5F5F5ECECECC3F50FF50FF5C3C3C3C30FF5F50FF5F50FF5F5ECF50FF50FF5F5F5F5F5F5F5F5F5F5F5F5F5F5F5F5F5F5F5F5F5F5F5F5F5F5F5F5F5F5F5F5F5F5F5F5F5F5F5F5E2E2F5E2E2EFE2F5E2E2F5F5F5F5ECECF5F5F5F5F5C3C3F5C3C3C3F5
310
0FF50FF5C3C3C3C3F5F50F0FF50FF5F5F50FEC0F0F0FF5F5F5F5F5F5F5F5F5F5F5F5F5F5F5F5F5F5F5F5F5F5F5F5F5F5F5F5F5F5F5F5F5F5F5F5F5F5F5F5F5F5F5F5F5F5F5F5F5F5F5F5F5F5ECECF5F5F5F5F5C3C3F5C3C3C3F5F50FF50FC3C3C3C30FF5F50FF50FF5F50FEC0FF50F0FF5F5F5F5F5F5F5F5F5F5F5F5F5F5F5
310
F5F5F5F5F5F5F5F5F5F5F5F5F5F5F5F5F5F5F5F5F5F5F5F5F5E2E2F5E2E2EFE2F5E2E2F5F5F5F5ECECF5F5F5F5F5C3C3C3C3C3C3C3C3C3C3C3C3C3C3C3C3C30F0F0F0F0F0F0F0FEC0F0FF5F5F5F5F5F5F5F5F5F5F5F5F5F5F5F5F5F5F5F5F5F5F5F5F5F5F5F5F5F5F5F5F5F5F5F5F5F5F5F5F5F5F5F5F5F5F5F5F5F5F5F5F5
310
F5F5ECECF5F5F5F5F5C3C3C3C3C3C3C3C3C3C3C3C3C3C3C3C3C30F0F0F0F0F0F0FEC0F0F0FF5F5F5F5F5F5F5F5F5F5F5F5F5F5F5F5F5F5F5F5F5F5F5F5F5F5E2F5F5F5F5F5F5F5F5F5F5F5F5F5F5E2E2F5E2E2EFE2F5E2E2F5F5F5F5ECECF5F5F5F5F5F5C3C3C3C3C3C3C3C3C3C3C3C3C3C3F5F5F5F5F5F5F5F5F5F5F5F5F5
310
F5F5F5F5F5F5F5F5F5F5F5F5F5F5F5F5E2E2F5F5F5F5F5F5F5F5F5F5F5F5F5F5F5F5F5F5F5F5F5F5F5F5F5F5F5F5F5F5F5F5F5F5F5F5F5ECECF5F5F5F5F5F5C3C3C3C3C3C3C3C3C3C3C3C3C3C3F5F5E2E2E2E2F5F5E2E2F5F5F5F5F5F5F5E2E2E2E2E2E2F5E2E2E2E2E2E2E2F5E2E2E2E2E2E2E2E2E2F5F5E2E2E2E2E2F5E2
310
E2E2F5F5E2E2F5E2E2EFE2F5E2E2F5F5F5F5ECECF5F5F5F5F5F5F5F5F5F5F5F5F5F5F5F5F5C3C3C3F5F5F5F5E2F5E2F5F5F5E2E2F5F5F5F5F5F5F5E2E2F5E2E2E2F5E2E2E2E2E2F5F5E2E2E2E2E2E2E2E2F5F5F5E2E2E2F5E2F5F5F5E2E2E2E2E2E2E2F5E2F5F5F5F5F5F5F5ECECF5F5F5F5F5F5F5F5F5F5F5F5F5F5F5F5C3
310
C3C3C3F5F5E2E2E2E2F5F5E2E2F5F5F5F5F5F5F5E2E2E2E2E2E2E2E2E2E2E2E2E2E2E2E2E2E2E2E2E2E2E2E2F5E2E2E2E2E2E2E2E2E2E2F5F5E2E2F5E2E2EFE2F5E2E2F5F5F5F5ECECF5F5F5F5F5F5F5F5F5F5F5F5F5F5F5F5F5C3C3C3C3F5F5E2E2E2E2E2F5F5F5E2F5F5F5F5F5F5F5E2E2F5E2E2E2E2E2E2E2E2E2F5F5E2
310
E2E2E2E2E2E2E2F5F5E2E2E2E2E2E2F5F5E2E2E2E2E2E2E2E2F5E2F5F5F5F5F5F5F5ECECF5F5F5F5F5F5F5F5F5F5F5F5F5F5F5F5F5C3C3C3C3F5E2E2E2E2F5F5F5E2F5F5E2E2E2F5F5E2F5E2F5E2E2E2E2E2E2E2E2E2E2E2E2E2E2E2E2E2E2E2E2F5E2E2E2F5E2E2E2E2E2E2F5F5E2E2F5E2E2EFE2F5E2E2F5F5F5F5ECECF5
310
F5F5F5F5F5F5F5F5F5F5F5F5F5F5F5F5C3C3C3C3F5F5F5E2E2E2E2F5F5F5E2F5F5E2E2E2F5F5E2E2E2E2E2E2E2E2E2E2E2E2F5F5E2E2E2E2E2E2E2E2F5F5E2E2E2E2E2E2F5F5E2E2E2E2E2E2E2E2E2E2F5F5F5F5F5F5F5ECECF5F5F5F5F5F5F5F5F5F5F5F5F5F5F5F5F5C3C3C3C3F5E2E2E2E2F5F5E2E2F5F5F5F5F5F5F5E2
310
F5E2F5E2F5F5F5F5F5E2F5E2F5E2E2F5F5F5F5F5F5F5F5F5F5F5F5F5E2E2F5F5F5F5F5F5E2E2F5E2E2EFE2F5E2E2F5F5F5F5ECECF5F5F5F5F5F5F5F5F5F5F5F5F5F5F5F5F5F5C3C3C3F5F5E2E2E2E2E2F5F5E2E2F5F5F5F5F5F5F5E2E2F5E2E2F5F5F5F5F5F5F5F5F5E2F5F5F5F5F5F5F5F5F5F5F5F5F5F5E2F5F5F5F5F5F5
310
E2E2F5F5F5F5F5F5F5F5F5F5F5ECECF5F5F5F5F5F5F5F5F5F5F5F5F5F5F5F5F5C3C3C3C3F5F5F5F5F5F5F5F5F5F5F5F5F5F5F5F5F5F5F5F5F5F5F5F5F5F5F5F5F5F5F5F5F5F5F5F5F5F5F5F5F5F5F5F5F5F5F5F5F5F5F5F5F5E2E2F5E2E2EFE2F5E2E2F5F5F5F5ECECF5F5F5F5F5F5F5ECECECECF5F5F5F5F5F5F5F5F5F5F5
310
F5F5F5F5F5F5F5F5F5F5F5F5F5F5F5F5F5F5F5F5F5F5F5F5F5F5F5F5F5F5F5F5F5F5F5F5F5F5F5F5F5F5F5F5F5F5F5F5F5F5F5F5F5F5F5F5F5F5F5F5F5F5F5F5F5F5ECECF5F5F5F5F5F5ECECECECF5F5F5F5F5F5F5F5F5F5F5F5F5F5F5F5F5F5F5F5F5F5F5F5F5F5F5F5F5F5F5F5F5F5F5F5F5F5F5F5F5F5F5F5F5F5F5F5F5
310
F5F5F5F5F5F5F5F5F5F5F5F5F5F5F5E2E2F5E2E2EFE2F5E2E2F5F5F5F5F5ECECF5F5F5F5F5ECECECECECF5F5F5F5F5F5F5F5F5F5F5F5F5F5F5F5F5F5F5F5F5F5F5F5F5F5F5F5F5F5F5F5F5F5F5F5F5F5F5F5F5F5F5F5F5F5F5F5F5F5F5F5F5F5F5F5F5F5F5F5F5F5F5F5F5F5F5F5F5F5F5F5F5F5F5F5F5ECECECF5F5F5F5F5
310
ECECECECF5F5F5F5F5F5F5F5F5F5F5F5F5F5F5F5F5F5F5F5F5F5F5F5F5F5F5F5F5F5F5F5F5F5F5F5F5F5F5F5F5F5F5F5F5F5F5F5F5F5F5F5F5F5F5F5F5F5F5F5F5F5F5F5E2E2F5E2E2EFE2F5E2E2F5F5F5F5F5ECECECECECF5F5ECECF5ECF5F5F5F5F5F5F5F5F5F5F5F5F5F5F5F5F5F5F5F5F5F5F5F5F5F5F5F5F5F5F5F5F5
310
F5F5F5F5F5F5F5F5F5F5F5F5F5F5F5F5F5F5F5F5F5F5F5F5F5F5F5F5F5F5F5F5F5F5F5F5F5F5F5F5F5F5F5F5F5F5ECECECECF5F5F5ECECF5ECF5F5F5F5F5F5F5F5F5F5F5F5F5F5F5F5F5F5F5F5F5F5F5F5F5F5F5F5F5F5F5F5F5F5F5F5F5F5F5F5F5F5F5F5F5F5F5F5F5F5F5F5F5F5F5F5F5F5F5F5F5F5F5F5E2E2F5E2E2EF
310
E2F5F5E2F5F5F5F5F5F5F5ECECECECECECECF5F5F5F5F5F5F5F5F5F5F5F5F5F5F5F5F5F5F5F5F5F5F5F5F5F5F5F5F5F5F5F5F5F5F5F5F5F5F5F5F5F5F5F5F5F5F5F5F5F5F5F5F5F5F5F5F5F5F5F5F5F5F5F5F5F5F5F5F5F5F5F5F5F5F5F5F5F5F5F5F5F5F5ECECECECF5ECECF5F5F5F5F5F5F5F5F5F5F5F5F5F5F5F5F5F5F5
310
F5F5F5F5F5F5F5F5F5F5F5F5F5F5F5F5F5F5F5F5F5F5F5F5F5F5F5F5F5F5F5F5F5F5F5F5F5F5F5F5F5F5F5F5F5F5F5E2F5F5E2E2EFE2F5F5E2F5F5F5F5F5F5F5F5F5ECF5ECECECECECECF5F5F5F5F5F5F5F5F5F5F5F5F5F5F5F5F5F5F5F5F5F5F5F5F5F5F5F5F5F5F5F5F5F5F5F5F5F5F5F5F5F5F5F5F5F5F5F5F5F5F5F5F5
310
F5F5F5F5F5F5F5F5F5F5F5F5F5F5F5F5F5F5F5F5F5F5F5F5F5F5F5F5F5ECF5ECECECECECF5F5F5F5F5F5F5F5F5F5F5F5F5F5F5F5F5F5F5F5F5F5F5F5F5F5F5F5F5F5F5F5F5F5F5F5F5F5F5F5F5F5F5F5F5F5F5F5F5F5F5F5F5F5F5F5F5F5F5F5F5F5F5F5E2F5F5E2E2EFE2F5F5E2F5F5F5F5F5F5F5F5F5F5F5F5F5ECECECEC
310
F5F5F5F5F5F5F5F5F5F5F5F5F5F5F5F5F5F5F5F5F5F5F5F5F5F5F5F5F5F5F5F5F5F5F5F5F5F5F5F5F5F5F5F5F5F5F5F5F5F5F5F5F5F5F5F5F5F5F5F5F5F5F5F5F5F5F5F5F5F5F5F5F5F5F5F5F5F5F5F5F5F5F5F5F5F5ECECECF5F5F5F5F5F5F5F5F5F5F5F5F5F5F5F5F5F5F5F5F5F5F5F5F5F5F5F5F5F5F5F5F5F5F5F5F5F5
310
F5F5F5F5F5F5F5F5F5F5F5F5F5F5F5F5F5F5F5F5F5F5F5F5F5F5E2F5F5E2E2EFE2F5F5E2F5F5F5F5F5F5F5F5F5F5F5F5F5F5F5ECF5F5F5F5F5F5F5F5F5F5F5F5F5F5F5F5F5F5F5F5F5F5F5F5F5F5F5F5F5F5F5F5F5F5F5F5F5F5F5F5F5F5F5F5F5F5F5F5F5F5F5F5F5F5F5F5F5F5F5F5F5F5F5F5F5F5F5F5F5F5F5F5F5F5F5
310
F5F5F5F5F5F5F5F5F5F5F5F5F5ECF5F5F5F5F5F5F5F5F5F5F5F5F5F5F5F5F5F5F5F5F5F5F5F5F5F5F5F5F5F5F5F5F5F5F5F5F5F5F5F5F5F5F5F5F5F5F5F5BEF5F5F5F5F5F5F5F5F5F5F5F5F5F5F5F5E2F5F5E2E2EFE2F5F5E2F5F5F5F5ECECECECECECECECECF5F5F5F50F0F0F0F0F0FEC0F0F0F0F0F0F0F0F0F0F0F0FEC0F
310
0F0F0F0F0FEC0F0F0F0F0F0F0F0F0F0F0F0F0FF5F5F5F5F5F5F5F5F5F5F5F5F5F5F5F5F5F5F5F5F5F5F5F5F5F5F5F5F5F5F5F5F5F5F5F5F5ECECECECECECECECF5F5F5F5F50F0F0F0F0F0FEC0F0F0F0F0F0F0F0F0F0F0FEC0F0F0F0F0F0F0F0F0F0F0F0F0F0F0F0FF5F5F5F5F5F5BEBEBEBEBEBEF5F5F5F5F5F5F5F5F5F5F5
310
F5F5F5F5F5E2F5F5E2E2EFE2F5F5E2F5F5F5F5ECECECECECECECECECEC2828280FF5F50FF50FECF50FF50FF50FF5F50F0FF5F5EC0FF50FF5F50FEC0FF5F50FF50FF5F50FF50FF5F50FF5F5F5F5F5F5F5F5F5F5F5F5F5F5F5F5F5F5F5F5F5F5F5F5F5F5F5F5F5F5F5F5F5F5F5F5ECECECECECECECECECEC282828F50FF5F50F
310
F50FF5F50FF50F0FF50FF50FF5ECF50F0FF5F5F50F0F0FF5F5F50FF50F0F0FF5F5F5F5F5F5F5F5F5BEF5F5F5F5F5F5F5F5F5F5F5F5F5F5F5F5F5E2F5F5E2E2EFE2F5F5E2F5F5F5F5ECECF5F5F5F5F5F5F5EC28F5280FF5F5F50FF50FF5F50FF50F0F0F0F0FF5F5F5ECF50FF5F50FF5EC0FF5F5F50FF50FF5F50FF50FF50FF5
310
F5F5F5F5F5F5F5F5F5F5F5F5F5F5F5F5F5F5F5F5F5F5F5F5F5F5F5F5F5F5F5F5F5F5F5ECF5F5F5F5F5F5F5F5EC28F528F5F50FF5F50FEC0FF5F50FF50F0FF50FF5F5EC0F0FF5F5F50F0F0FF50FF5F5F50FF50F0FF5F5F5F5F5F5F5F5F5BEF5F5F5F5F5F5F5F5F5F5F5F5F5F5F5F5F5E2F5F5E2E2EFE2F5F5E2F5F5F5F5ECEC
310
ECECECF52828282828F528F50FF5F5F50FEC0FF5F50FF50FF50FF5F5F50FEC0FF5F50FF50FEC0F0FF5F5F50FF50FF5F50FF50F0FF5F5F5F5F5F5F5F5F5F5F5F5F5F5F5F5F5F5F5F5F5F5F5F5F5F5F5F5F5F5F5F5F5F5F5F5ECECECECECF52828282828F5280FF5F50FF5F50FF50FF5F50F0FF50FF5F5F5EC0FF5F5F50F0FF5
310
0F0FF50FF5F5F50FF50FF5F5F5F5F5F5F5F5F5BEF5F5F5F5F5F5F5F5F5F5F5F5F5F5F5F5F5E2F5F5E2E2EFE2F5F5E2F5F5F5F5ECECECECECF52828282828F5280FF50FF5F5F50FF50FF5F50F0F0FF5F50F0FF50FF5F50FF50FF5F50FF50FF5F5F50FF50FF5F50FF50FF5F5F5F5F5F5F5F5F5F5F5F5F5F5F5F5F5F5F5F5F5F5
310
F5F5F5F5F5F5F5F5F5F5F5F5F5F5ECECECECEC282828282828F528F50FF5F50FF5F50FF50FF5F50F0FF5F50F0F0FF5F5F50F0FF5F50FF50FF50FF5F5F50F0FF5F5F5F5F5F5F5F5F5BEF5F5F5F5F5F5F5F5F5F5F5F5F5F5F5F5F5E2F5F5E2E2EFE2F5E2E2F5F5F5F5ECECF5F5F5F52828282828F528F50FF50FF5F5EC0F0FF5
310
F5F50FF5F50FF50F0FECF50FF50FF5F5EC0F0FF50FF5F5F50FF50FF5F50F0FF5F5F5F5F5F5F5F5F5F5F5F5F5F5F5F5F5F5F5F5F5F5F5F5F5F5F5F5F5F5F5F5F5F5F5F5ECECF5F5F528F528282828F528F5F50FF5F50FECF50FF50FF50FF5F50FF50FECF5F50F0FF5F5F50FF5F50FF50FF5F5F50FF5F5F5F5F5F5F5F5F5BEF5
310
F5F5F5F5F5F5F5F5F5F5F5F5F5F5F5F5E2E2F5E2E2EFE2F5E2E2F5F5F5F5ECECECECECEC282828F5282828F5F50FF50FF5EC0FF50FF5F50FF50FF50FF5F5EC0FF50FF5F5F5EC0FF50FF50FF5F5F50FF50FF5F50FF5F5F5F5F5F5F5F5F5F5F5F5F5F5F5F5F5F5F5F5F5F5F5F5F5F5F5F5F5F5F5F5F5F5F5F5ECECECECEC2828
310
2828282828280FF5F50FF5F50FF5F50FF50F0FF50FF50FF5ECF50F0FF5F5F50F0FF5F5F50F0F0FF5F50FF5F5F5F5F5F5F5F5F5BEF5F5F5F5F5F5F5F5F5F5F5F5F5F5F5F5F5E2E2F5E2E2EFE2F5E2E2F5F5F5F5ECECF5F5F5F528F5F5EC28282828282828282828280FF50FF50F0FF50FF5F5F5ECF50FF5F5F50FEC0FF5F50F
310
F50FF5F5F50FF50FF50FF5F5F5F5F5F5F5F5F5F5F5F5F5F5F5F5F5F5F5F5F5F5F5F5F5F5F5F5F5F5F5F5F5F5F5F5ECF5F5F5F528F5F5F5EC2828282828282828282828F5F50FF50F0FF50FF5F5EC0FF50FF5F50FF50F0FF5F5F5F50F0FF50FF5F5F5F5F5F5F5F5F5BEF5F5F5F5F5F5F5F5F5F5F5F5F5F5F5F5F5E2E2F5E2E2
310
EFE2F5E2E2F5F5F5F5ECECF5F5F5F528282828282828F50FF5F50FF50FF5F50FF50F0FF50FF5F5F50FF50FF5F5F50FF50F0F0FF5F50FF50FF5F5F50FF50F0FF5F5F5F5F5F5F5F5F5F5F5F5F5F5F5F5F5F5F5F5F5F5F5F5F5F5F5F5F5F5F5F5F5F5F5F5ECECF5F5F528282828282828280FF50FF5F50FEC0FF5F5F50F0FF50F
310
F5F5F50FF50FF5F50FF50F0F0F0FF5F5F5F50F0F0FF5F5F5F5F5F5F5BEBEBEF5F5F5F5F5F5F5F5F5F5F5F5F5F5F5F5F5E2E2F5E2E2EFE2F5E2E2F5F5F5F5ECECF5F5F5F52828282828F5280FF50FF5F50FEC0FF5F50FF50F0FF5F5F50FF5ECF5F5F50FF50FEC0FF50FF5F50FF50FF5F5F50FF50FF5F5F5F5F5F5F5F5F5F5F5
310
F5F5F5F5F5F5F5F5F5F5F5F5F5F5F5F5F5F5F5F5F5F5F5F5F5ECECF5F5F5282828282828F528F50FF50FF5F50FF50FF5F5F50F0FF5F5F50FEC0FF5F5F50F0FF50FF50F0FF5F5F5F50F0FF5F5F5F5F5F5F5BEBEBEF5F5F5F5F5F5F5F5F5F5F5F5F5F5F5F5F5E2E2F5E2E2EFE2F5E2E2F5F5F5F5ECECECECECF52828F52828F5
310
28F50FF50FF5F50FF50FF5F50F0FF5F5F50FF50FECF5F50FF50FF5EC0F0FF50FF5F50FF50FF5F5F50F0FF5F5F5F5F5F5F5F5F5F5F5F5F5F5F5F5F5F5F5F5F5F5F5F5F5F5F5F5F5F5F5F5F5F5F5F5ECECECECECF528F5282828F528F5F50FF50FF5F50FF50FF5F50FF5F5F50FF5ECF5F5F50F0FF5F50FF5F50F0F0FF5F5F50F
310
F5F5F5F5F5F5F5BEBEBEF5F5F5F5F5F5F5F5F5F5F5F5F5F5F5F5F5E2E2F5E2E2EFE2F5E2E2F5F5F5F5F5F5ECECECECECEC282828F528F5F50FF50FF5EC0FF50FF5F50FF5F50FF50FF5ECF50FF50FF5F5EC0FF50FF50FF5F50FF50FF5F5F50FF5F5F5F5F5F5F5F5F5F5F5F5F5F5F5F5F5F5F5F5F5F5F5F5F5F5F5F5F5F5F5F5
310
F5F5F5F5F5F5ECECECECEC2828EC28F5280FF5F50FF50FECF50FF50FF50FF5F50FF50FECF5F50F0FF5F50F0FF5F5F50FF50FF5F50FF5F5F5F5F5F5F5F5F5BEF5F5F5F5F5F5F5F5F5F5F5F5F5F5F5F5F5E2E2F5E2E2EFE2F5E2E2F5F5F5F5F5F5F5F5F5ECECECECEC282828F5F5F50FF50FECF50FF50FF50FF50FF50FF5F5EC
310
0FF50FF5F50FEC0FF5F50FF50FF5F50FF50FF5F50FF5F5F5F5F5F5F5F5F5F5F5F5F5F5F5F5F5F5F5F5F5F5F5F5F5F5F5F5F5F5F5F5F5F5F5F5F5F5F5F5F5ECECECECEC282828F50FF5F50FF50FF5F50FF50F0FF50FF50FF5ECF50F0FF5F50FF50F0FF5F5F50FF50FF50FF5F5F5F5F5F5F5F5F5BEF5F5F5F5F5F5F5F5F5F5F5
310
F5F5F5F5F5F5E2E2F5E2E2EFE2F5E2E2F5F5F5F5F5F5F5F5F5F5F5ECECECECF50F0FF5F5F50FF50FF5F50FF50F0F0FF50FF5F5F5BEF50FF5F50FF5EC0F0FF5F50FF50FF5F50FF50FF50FF5F5F5F5F5F5F5F5F5F5F5F5F5F5F5F5F5F5F5F5F5F5F5F5F5F5F5F5F5F5F5F5F5F5F5F5F5F5F5F5F5F5F5ECECECECF50F0FF50FF5
310
F50FEC0FF5F50FF50F0F0F0FF5F5BE0F0FF5F50FF50F0FF50FF5F5F50FF50F0FF5F5F5F5F5F5F5F5F5BEF5F5F5F5F5F5F5F5F5F5F5F5F5F5F5F5F5E2E2F5E2E2EFE2F5E2E2F5F5BEBEBEBEF5F5F5F5F5F5F5ECECF50FF50FF5F5F50FEC0FF5F50FF50FF50FF5BEBEBEBEBEBEBEBEF50FF50FF50FF5F50FF50FF5F50FF50F0F
310
F5F5F5F5F5F5F5F5F5F5F5F5F5F5F5F5F5F5F5F5F5F5F5F5F5F5F5F5F5F5F5F5BEBEBEF5ECECF5F5F5F5F5F5F5ECECF50FF50FF50FF5F50FF50FF5F50F0F0FF5BEF5BEBEBEBEBEBEBE0FF50F0FF50FF5F5F50FF50FF5F5F5F5F5F5F5F5F5BEF5F5F5F5F5F5F5F5F5F5F5F5F5F5F5F5F5E2E2F5E2E2EFE2F5E2E2F5F5BEF5EC
310
ECF5F5F5F5F5F5F5C3C3C3C30FF50FF5F5F50FF50FF5F50F0F0FF5F5BEBEBEECBEBEBEBE0FF5EC0F0FF50FF5F50FF50FF5F50FF50FF5F5F5F5F5F5F5F5F5F5F5F5F5F5F5F5F5F5F5F5F5F5F5F5F5F5F5F5F5F5F5F5BEBEF5F5ECECF5F5F5F5F5F5ECC3C3C3C3F5F50FF50FF5EC0FF50FF5F50F0FF5BEF5BEBEBEBEBEBEBEF5
310
F50FF50FF50FF5F5F5BEBEF5F5F5BEBEF5F5F5F5BEF5F5F5F5F5F5F5F5F5F5F5F5F5F5F5F5F5E2E2F5E2E2EFE2F5E2E2F5F5BEF5ECECF5F5F5F5F5F5ECC3C3C3C3F50FF50FF5F5F50FF50FF5F50FF5F5F5F5BEBEECBEBEBEBEF5F5EC0FF50FF50FF5F50FF50FF5F50F0FF5F5F5F5F5BEBEBEBEBEBEF5BEBEBEF5BEBEBEBEBE
310
BEF5F5F5F5F5F5F5F5F5F5F5BEF5F5ECECF5F5F5F5F5ECECC3C3C3C3F5F5F50FF50FF5F50FF50FF50FF5F5F5BEBEBEF5BEBEBEBEF5F50FF5F50FF50FF5F5F5BEBEBEBEBEBEF5F5F5F5BEF5F5F5F5F5F5F5F5F5F5F5F5F5F5F5F5F5E2E2F5E2E2EFE2F5E2E2F5F5BEF5ECECF5F5F5F5ECECC3C3C3C3C3F5F50FF50FF5ECF50F
310
F50FF50FF5F5BEBEBEBEECBEBEBEBEF5F5EC0FF5F50FF50FF5F50FF50FF5F50FF5F5F5F5F5BEBEBEBEBEBEBEBEBEBEBEBEBEBEBEBEBEF5F5F5F5F5F5F5F5F5F5F5BEF5F5ECECF5F5F5F5ECECC3C3C3C3C30FF5F5F50FF50FF5F50FF50F0FF50FBEBEBEECF5BEBEBEF5F50F0F0FF5F50FF50FF5F5BEF5BEBEF5BEF5F5F5F5BE
310
BEF5F5F5F5F5F5F5F5F5F5F5F5F5F5F5F5E2E2F5E2E2EFE2F5E2E2F5F5BEF5ECECF5F5F5F5ECC3C3C3C3C3C30FF5F50FF50FECF5F50FF50F0F0F0FF50FF5F5ECF50FF5F5F50FEC0FF5F5F50FF50FF5F50FF50FF50FF5F5F5F5F5BEBEBEF5F5F5F5F5BEF5F5BEBEF5F5F5BEF5F5F5F5F5F5F5F5F5F5F5BEF5F5ECECF5F5F5F5
310
ECC3C3C3C3C3C3F50FF5F5F50FEC0FF5F50FF50F0FF5F50FF5EC0FF50FF5F50F0F0FF50FF5F50FF50F0F0F0F0F0F0FBEF5BEBEBEBEBEF5F5F5F5F5F5F5F5F5F5F5F5F5F5F5F5E2E2F5E2E2EFE2F5E2E2F5F5BEF5ECECF5F5F5F5ECC3C3C3C3C3C3F50FF5F50FF50FF5F5F50FF50FF5F50FF5F50FEC0FF5F5F50F0FEC0F0FF5
310
F5F50FF50FF5F50FF50F0FF5F5F5F5F5BEBEBEBEBEBEBEBEBEBEBEBEBEBEBEBEBEBEBEBEBEBEF5F5F5F5F5F5BEF5F5ECECF5F5F5F5ECC3C3C3C3C3C30FF50FF5F5F50FF50FF5F50F0FF5F50FF5F5ECF50FF5F50F0FF50F0FF50FF5F50FF5F50FF5F50FF5BEF5F5F5F5BEF5F5F5F5F5F5F5F5F5F5F5F5F5F5F5F5F5E2E2F5E2
310
E2EFE2F5E2E2F5F5BEF5ECECF5F5F5F5ECECC3C3C3C3C30FF50FF5F50FEC0FF5F5F50F0F0F0FF5F50FF50FF5F5F50F0FF5F50FF50FF5F5F50FF50FF5F50FF50FF5F5F5F5F5BEBEBEBEBEBEBEBEBEBEBEBEBEBEBEBEBEBEBEBEBEBEF5F5F5F5F5F5BEF5F5ECECF5F5F5F5ECC3C3C3C3C3C3F50FF50FF5F5EC0FF50FF5F50F0F
310
0FF5F50FF50FF5F50F0FF5F50FF50FF50FF5F50F0FF50FF5F50F0FF5F5F5F5F5F5F5F5F5F5F5F5F5F5F5F5F5F5F5F5F5F5E2E2F5E2E2EFE2F5F5E2F5F5BEF5ECECF5F5F5F5F5F5ECC3C3C3C3F50FF50FF5F50FF50FF5F5F50FF5F50F0FF50FECF5F50F0FF5F5EC0F0FF50FF5F5F50FF50FF5F50F0FF5F5F5F5F5BEBEBEF5BE
310
BEBEBEBEF5BEF5F5F5BEF5BEBEF5F5F5F5F5F5F5F5F5F5BEF5F5ECECF5F5F5F5F5ECECC3C3C3C3F5F50FF50FF5ECF50FF50FF50FF5F50F0FF5ECF5F50F0FF5F5F50FF5F50FF50FF5F5F50FF50FF5F50FF5F5F5F5F5F5F5F5F5F5F5F5F5F5F5F5F5F5F5F5F5F5E2F5F5E2E2EFE2F5F5E2F5F5BEF5ECECF5F5F5F5F5F5C3C3C3
310
C3C3F5F50FF50FF5F50FF50FF5F50FF50FF50F0FF5ECF50F0FF5F5F5EC0FF50FF50FF5F5F50FF50FF5F50FF5F5F5F5F5F5BEBEBEBEBEBEBEBEBEBEBEBEBEBEBEBEBEBEBEBEBEBEF5F5F5F5F5BEF5F5ECECF5F5F5F5F5F5C3C3C3C3C30FF5F50FF50FF5F5F50FF50F0FF50FF50F0FECF50F0FF5F5F50F0FF5F5F50FF50FF5F5
310
F50FF50FF50FF5F5F5F5F5F5F5F5F5F5F5F5F5F5F5F5F5F5F5F5F5F5E2F5F5E2E2EFE2F5F5E2F5F5BEF5ECECF5F5F5F5F5F5F5F5F5C3C30FF5F50FF50FECF50FF50FF50F0FF50FF5F5F5EC0F0FF5F5F50FEC0FF5F50FF50FF5F5F50FF50FF50FF5F5F5F5F5BEBEBEBEBEBEBEBEBEBEBEBEBEBEBEBEBEBEBEBEBEBEBEF5F5F5
310
F5F5BEF5F5ECECF5F5F5F5F5F5F5F5C3C3C3F50FF5F50FF50FF5F5F50FF50F0FF50FF5F5EC0F0FF5F5F50FF50F0FF5F5F50FF50FF5F5F50FF50F0FF5F5F5F5F5F5F5F5F5F5F5F5F5F5F5F5F5F5F5F5F5F5E2F5F5E2E2EFE2F5F5E2F5F5BEF5ECECF5F5F5F5F5F5F5F5F5F50FF50FF5F50FF50FF5F50FF50F0FF50FF5F5F50F
310
EC0FF5F5F50FF5EC0F0FF5F50FF50FF5F5F50FF50F0FF5F5F5F5F5BEBEBEBEBEBEBEBEBEF5BEBEBEBEBEBEF5BEBEBEF5BEBEBEBEBEBEF5BEF5F5ECECF5F5F5F5F5F5F5F5F5F50F0FF50FF5F50FEC0FF5F5F50F0FF50FF5F5F5EC0FF5F5F50FF50F0F0F0FF5F5F50FF50FF5F5F50FF50FF5F5F5F5F5F5F5F5F5F5F5F5F5F5F5
310
F5F5F5F5F5F5F5E2F5F5E2E2EFE2F5F5E2F5F5BEF5ECECECECECECECECECECECF50F0FF50FF5F50FEC0FF5F50FF50F0FF5F5F50FF5ECF5F5F50FF50FEC0FF50FF5F50FF50FF5F5F50FF50FF5F5F5F5F5BEBEBEBEBEBEBEBEBEF5BEBEBEBEBEBEF5BEBEBEF5BEBEBEBEBEBEF5BEF5F5ECECECECECECECECECECF5F50FF50FF5
310
0FF5F50FF50FF5F5F50F0FF5F5F50FEC0FF5F50FF50FF50FF50F0FF5F5F50FF50FF5F5F50F0FF5F5F5F5F5F5F5F5F5F5F5F5F5F5F5F5F5F5F5F5F5F5E2F5F5E2E2EFE2F5F5E2F5F5BEF5ECECECECECECECECECEC282828F50FF50FF5F50FF50FF5F50F0FF5F5F50FF50FF5F5F50FF50FF5F50F0FF50FF5F50FF50FF5F5F50F
310
0FF5F5F5F5F5F5BEF5F5BEF5BEF5F5F5F5F5BEF5BEF5F5BEF5F5F5BEBEBEBEF5F5F5BEF5F5ECECECECECECECECECEC282828F5F50FF50FF5EC0FF50FF5F50FF5F5F50FF50FF5F50FF50FF5F50FF5F50F0F0FF5F50FF50FF5F5F50FF5F5F5F5F5F5F5F5F5F5F5F5F5F5F5F5F5F5F5F5F5F5E2F5F5E2E2EFE2F5F5E2F5F5BEF5
310
ECECF5F5F5EC2828282828F528F5F50FF50FF5EC0FF50FF5F50FF5F50FF50FF5ECF50FF50FF5F5EC0FF50FF50FF5F50FF50FF5F5F50FF5F5F5F5F5F5F5F5F5F5F5F5F5F5F5F5F5F5F5F5F5F5F5F5F5F5F5F5F5F5F5F5F5BEF5F5ECECF5F5F5EC2828282828F5280FF5F50FF50FECF50FF50FF50FF5F50FF50FECF50FF50FF5
310
F50F0FF5F5F50FF50FF5F50FF50FF5F50FF5F5F5F5F5F5F5F5F5F5F5F5F5F5F5F5F5F5F5F5F5F5E2F5F5E2E2EFE2F5F5E2F5F5BEF5ECECF5F5F5F528F5F52828F528F5F5F50FF50FF5F50FF50FF50FF50FF50FF5F5EC0FF50FF5F50FEC0FF5F50FF50FF5F50FF50FF5F50FF5F5F5F5F5F5F5F5F5F5F5F5F5F5F5F5F5F5F5F5
310
F5F5F5F5F5F5F5F5F5F5F5F5F5BEF5F5ECECF5F5F5F528F5F52828F528F50FF5F50FF50FF5F50FF50F0FF50FF50FF5EC0FF50FF5F5F50F0F0FF5F5F50FF50FF5F50FF50FF50FF5F5F5F5F5F5F5F5F5F5F5F5F5F5F5F5F5F5F5F5F5F5E2F5F5E2E2EFE2F5E2E2F5F5BEF5ECECF5F5F5F528F5F52828F5280FF5F5F50FF50FF5
310
F50FF50F0F0FF50FF5F50FECF50FF5F50FF5EC0F0FF5F50FF50FF5F50FF50FF50FF5F5F5F5F5F5F5F5F5F5F5F5F5F5F5F5F5F5F5F5F5F5F5F5F5F5F5F5F5F5F5F5F5BEF5F5ECECF5F5F5F528F5F52828F5280FF50FF5F50FEC0FF5F50FF50F0FF50FF5F5ECF50FF5F5F50FF50FF50FF5F5F50FF50FF5F50FF50F0FF5F5F5F5
310
F5F5F5F5F5F5F5F5F5F5F5F5F5F5F5F5F5F5E2E2F5E2E2EFE2F5E2E2F5F5BEF5ECECF5F5F5F528282828282828F50FF5F5F50FEC0FF5F50FF50FF50FF5F50FF5EC0FF50F0F0F0FEC0F0F0F0F0F0F0F0F0F0F0F0F0FF5F5F5F5F5F5F5F5F5F5F5F5F5F5F5F5F5F5F5F5F5F5F5F5F5F5F5F5F5F5F5F5F5F5BEF5F5ECECF5F5F5
310
F528282828282828F50FF50FF5F50FF50FF5F50F0FF50FF5F50FEC0FF5F50F0F0F0F0F0F0F0F0F0F0F0F0F0F0F0F0F0FF5F5F5F5F5F5F5F5F5F5F5F5F5F5F5F5F5F5F5F5F5F5F5E2E2F5E2E2EFE2F5E2E2F5F5BEF5ECECF5F5F5F528F5282828F5280FF50FF5F5F50FF50FF5F50F0F0FF5F50FF50FECF5F50FF5F5F5F5F5F5
310
F5F5F5F5F5F5F5F5F5F5F5F5F5F5F5F5F5F5F5F5F5F5F5F5F5F5F5F5F5F5F5F5F5F5F5F5F5F5F5F5F5F5F5F5F5BEF5F5ECECF5F5F5F52828F52828F5280FF50FF50FF5EC0FF50FF5F50F0FF5F50FF5ECF5F5F50FF5F5F5F5F5F5F5F5F5F5F5F5F5F5F5F5F5F5F5F5F5F5F5F5F5F5F5F5F5F5F5F5F5F5F5F5F5F5F5F5E2E2F5
310
E2E2EFE2F5E2E2F5F5BEF5ECECF5F5F5F528F5282828EC280F0FF50FF5F5EC0FF50FF5F50FF5F50FF50FF5F5F50F0FF5F5F5F5F5F5F5F5F5F5F5F5F5F5F5F5F5F5F5F5F5F5F5F5F5F5F5F5F5F5F5F5F5F5F5F5F5F5F5F5F5F5F5F5F5F5F5F5F5F5F5BEF5F5ECECF5F5F5F52828F52828F5280FF5F50FF50FECF50FF50FF50F
310
F5F50FF50FF5F5F50F0FF5F5F5F5F5F5F5F5F5F5F5F5F5F5F5F5F5F5F5F5F5F5F5F5F5F5F5F5F5F5F5F5F5F5F5F5F5F5F5F5E2E2F5E2E2EFE2F5E2E2F5BEBEF5ECECF5F5F5F528F52828282828F5F50FF50FF5ECF50FF50FF50FF50FF50FF5F5EC0FF50FF5F5F5F5F5F5F5F5F5F5F5F5F5F5F5F5F5F5F5F5F5F5F5F5F5F5F5
310
F5F5F5F5F5F5F5F5F5F5F5F5F5F5F5F5F5F5F5F5F5F5BEBEBEF5F5ECECF5F5F5F5282828282828280FF5F50FF5F50FF5F50FF50F0FF50FF50FF5ECF50FF50FF5F5F5F5F5F5F5F5F5F5F5F5F5F5F5F5F5F5F5F5F5F5F5F5F5F5F5F5F5F5F5F5F5F5F5F5F5F5F5F5E2E2F5E2E2EFE2F5E2E2F5BEBEF5ECECF5F5F5F52828F528
310
28F5280FF5F50FF50FF5F5F50FF50F0F0FF50FF5F5F5ECF50F0FF5F5F5F5F5F5F5F5F5F5F5F5F5F5F5F5F5F5F5F5F5F5F5F5F5F5F5F5F5F5F5F5F5F5F5F5F5F5F5F5F5F5F5F5F5F5F5F5F5BEBEBEF5F5ECECF5F5F5F528F5F52828F5280F0FF5F50FF5F50FF5F50FF50F0FF50FF5F5EC0FF50F0FF5F5F5F5F5F5F5F5F5F5F5
310
F5F5F5F5F5F5F5F5F5F5F5F5F5F5F5F5F5F5F5F5F5F5F5F5F5F5F5F5F5E2E2F5E2E2EFE2F5E2E2F5BEBEF5ECECF5F5F5F528F5F52828F528F50FF5F50FF50FF5F5F50FF50FF50FF5F5F50FEC0FF50FF5F5F5F5F5F5F5F5F5F5F5F5F5F5F5F5F5F5F5F5F5F5F5F5F5F5F5F5F5F5F5F5F5F5F5F5F5F5F5F5F5F5F5F5F5F5F5F5
310
F5BEBEBEF5F5ECECF5F5F5F528F5F52828F528F50F0FF5F50FECF50FF5F50F0FF50FF5F5F5ECF50FF50FF5F5F5F5F5F5F5F5F5F5F5F5F5F5F5F5F5F5F5F5F5F5F5F5F5F5F5F5F5F5F5F5F5F5F5F5F5F5F5F5E2E2F5E2E2EFE2F5E2E2F5F5BEF5ECECF5F5F5EC2828282828F5280FF50FF5F50FEC0FF5F5F50F0F0FF5F50F0F
310
F5ECF5F50FF5F5F5F5F5F5F5F5F5F5F5F5F5F5F5F5F5F5F5F5F5F5F5F5F5F5F5F5F5F5F5F5F5F5F5F5F5F5F5F5F5F5F5F5F5F5F5F5F5F5F5BEF5F5ECECF5F5F5EC2828282828F528F5F50F0FF5F50FF5F50FF5F50F0FF5F50F0FEC0FF5F50FF5F5F5F5F5F5F5F5F5F5F5F5F5F5F5F5F5F5F5F5F5F5F5F5F5F5F5F5F5F5F5F5
310
F5F5F5F5F5F5F5F5E2E2F5E2E2EFE2F5E2E2F5F5BEF5ECECECECECECECECECEC282828F50FF50FF50FC30F0FF5F5F50FF5F50FF5F50FECF50F0FF5F5F5F5F5F5F5F5F5F5F5F5F5F5F5F5F5F5F5F5F5F5F5F5F5F5F5F5F5F5F5F5F5F5F5F5F5F5F5F5F5F5F5F5F5F5F5F5F5F5F5BEF5F5ECECECECECECECECECEC282828F5F5
310
F50F0FC3C30F0FF50FF50FF5F50FF5F5ECF5F50F0FF5F5F5F5F5F5F5F5F5F5F5F5F5F5F5F5F5F5F5F5F5F5F5F5F5F5F5F5F5F5F5F5F5F5F5F5F5F5F5F5E2E2F5E2E2EFE2F5E2E2F5F5BEF5ECECECECECECECECECECECC3C3F5F50FF50FC3C3C3C30FF5F50FF50FF5F50FF5F50FF50FF5F5F5F5F5F5F5F5F5F5F5F5F5F5F5F5
310
F5F5F5F5F5F5F5F5F5F5F5F5F5F5F5F5F5F5F5F5F5F5F5F5F5F5F5F5F5F5F5F5F5F5F5BEF5F5ECECECECECECECECECECECC3C30FF5F5F50FC3C3C30F0FF50F0FF50FF5F50FF5F50FF50FF5F5F5F5F5F5F5F5F5F5F5F5F5F5F5F5F5F5F5F5F5F5F5F5F5F5F5F5F5F5F5F5F5F5F5F5F5F5F5F5E2E2F5E2E2EFE2F5E2E2F5F5BE
310
F5ECECF5F5F5F5F5F5F5ECECF5C30FF5F50FF5C3C3C3C30F0FF50F0FF5F50FF5F5EC0F0F0FF5F5E2E2E2E2E2F5F5E2E2E2E2E2E2F5E2E2E2E2E2E2E2E2E2E2E2E2E2E2E2E2E2E2E2E2E2E2E2F5F5F5F5F5F5F5F5F5F5F5F5BEF5F5ECECF5F5F5F5F5F5F5ECECC3C3F50FF5F5F5C3C3C3C3F50FF50F0FF5F50FF5EC0FF50F0F
310
F5F5F5F5F5F5F5F5F5F5F5F5F5F5F5F5F5F5F5F5F5F5F5F5F5F5F5F5F5F5F5F5F5F5F5F5F5F5F5F5E2E2F5E2E2EFE2F5E2E2F5F5BEF5ECECF5F5F5F5F5F5F5ECECECC3F50FF5F50FC3C3C3C3F50F0F0FF5F50FF5F5F5ECF50F0FF5F5E2E2E2E2F5F5F5E2E2E2E2E2E2F5E2E2E2E2E2E2E2F5E2E2E2E2E2E2E2E2E2E2E2E2E2
310
E2E2F5F5F5F5F5F5F5F5F5F5F5F5BEF5F5ECECF5F5F5F5F5F5F5ECECECC30FF50FF5F5C3C3C3C3F5F50F0FF5F50FF5F5ECF50FF50FF5F5F5F5F5F5F5F5F5F5F5F5F5F5F5F5F5F5F5F5F5F5F5F5F5F5F5F5F5F5F5F5F5F5F5F5F5F5F5F5E2E2F5E2E2EFE2F5E2E2F5F5BEF5ECECF5F5F5F5F5C3C3C3C3C3C30FF50FF5F5C3C3
310
C3C3F50FF50FF50FF5F5F50FEC0F0F0FF5F5E2E2E2E2E2F5F5E2E2E2E2E2E2E2E2E2E2E2E2E2E2E2E2E2E2E2E2E2E2E2E2E2E2E2E2E2E2F5F5F5F5F5F5F5F5F5F5F5F5BEF5F5ECECF5F5F5F5F5C3C3C3C3C3C3F50FF50FF5C3C3C3C30FF5F50FF50FF5F50FEC0FF50F0FF5F5F5F5F5F5F5F5F5F5F5F5F5F5F5F5F5F5F5F5F5
310
F5F5F5F5F5F5F5F5F5F5F5F5F5F5F5F5F5F5F5E2E2F5E2E2EFE2F5E2E2F5F5BEF5ECECF5F5F5F5F5C3C3C3C3C3C3C3C3C3C3C3C3C3C3C3C3C30F0F0F0F0F0F0F0FEC0F0FF5F5F5F5F5E2E2F5F5F5E2E2E2F5F5E2F5E2F5F5F5F5F5E2F5F5F5F5F5F5F5F5E2F5E2F5F5F5F5F5F5F5F5F5F5F5F5F5F5F5F5F5BEF5F5ECECF5F5
310
F5F5F5C3C3C3C3C3C3C3C3C3C3C3C3C3C3C3C3C30F0F0F0F0F0F0FEC0F0F0FF5F5F5F5F5F5F5F5F5F5F5F5F5F5F5F5F5F5F5F5F5F5F5F5F5F5F5F5F5F5F5F5F5F5F5F5F5F5F5F5F5E2E2F5E2E2EFE2F5E2E2F5F5BEF5ECECF5F5F5F5F5F5C3C3C3C3C3C3C3C3C3C3C3C3C3C3F5F5F5F5F5F5F5F5F5F5F5F5F5F5F5F5F5F5F5
310
F5F5F5F5F5F5F5F5F5F5F5F5F5F5F5F5F5F5F5F5F5F5F5F5F5F5F5F5F5F5F5F5E2E2F5F5F5F5F5F5F5F5F5F5F5F5BEF5F5ECECF5F5F5F5F5F5C3C3C3C3C3C3C3C3C3C3C3C3C3C3F5F5F5F5F5F5F5F5F5F5F5F5F5F5F5E2E2E2E2E2F5F5E2E2E2E2E2E2E2E2E2E2E2E2E2E2E2E2E2E2E2E2E2E2E2E2E2E2E2E2E2E2F5F5E2E2
310
F5E2E2EFE2F5E2E2F5F5BEF5ECECF5F5F5F5F5F5F5F5F5F5F5F5F5F5F5F5F5C3C3C3F5F5F5F5F5F5F5F5F5F5F5F5F5F5F5F5E2E2E2E2F5F5E2E2F5F5F5F5F5F5F5E2E2E2E2F5E2E2F5F5E2F5E2E2E2E2E2E2E2E2E2E2E2F5F5F5F5F5F5F5F5F5F5F5F5BEF5F5ECECF5F5F5F5F5F5F5F5F5F5F5F5F5F5F5F5C3C3C3C3F5F5F5
310
F5F5F5F5F5F5F5F5F5F5F5F5E2E2E2E2E2F5F5F5E2E2E2E2E2E2E2F5E2E2E2E2E2E2E2E2E2E2E2E2E2E2E2E2E2E2E2E2E2F5F5E2E2F5E2E2EFE2F5F5E2F5F5BEF5ECECF5F5F5F5F5F5F5F5F5F5F5F5F5F5F5F5F5C3C3C3C3F5F5F5F5F5F5F5F5F5F5F5F5F5F5F5E2E2E2E2F5F5E2E2F5F5E2E2E2F5F5E2E2E2E2F5E2E2F5F5
310
E2F5E2E2E2E2E2E2E2E2E2E2E2F5F5F5F5F5F5F5F5F5F5F5F5BEF5F5ECECF5F5F5F5F5F5F5F5F5F5F5F5F5F5F5F5F5C3C3C3C3F5F5F5F5F5F5F5F5F5F5F5F5F5F5E2E2E2E2E2F5F5E2E2E2E2E2E2E2E2E2F5E2E2E2E2E2E2E2E2E2E2E2E2E2E2E2E2E2E2E2E2F5F5E2F5F5E2E2EFE2F5F5E2F5F5BEF5ECECF5F5F5F5F5F5F5
310
F5F5F5F5F5F5F5F5F5F5C3C3C3C3F5F5F5F5F5F5F5F5F5F5F5F5F5F5F5E2E2E2E2F5F5E2E2F5F5F5F5F5F5F5E2E2E2E2E2E2E2F5F5E2E2E2E2E2E2E2E2E2E2E2E2E2F5F5F5F5F5F5F5F5F5F5F5F5BEF5F5ECECF5F5F5F5F5F5F5F5F5F5F5F5F5F5F5F5F5C3C3C3C3F5F5F5F5F5F5F5F5F5F5F5F5F5F5F5F5F5E2E2F5F5E2E2
310
E2F5F5E2F5E2F5F5F5F5F5E2F5F5F5F5F5F5F5F5E2F5E2F5F5F5F5F5F5F5E2F5F5E2E2EFE2F5F5E2F5F5BEF5ECECF5F5F5F5F5F5F5F5F5F5F5F5F5F5F5F5F5F5C3C3C3F5F5F5F5F5F5F5F5F5F5F5F5F5F5F5E2E2E2E2F5F5E2E2F5F5F5F5F5F5F5F5F5E2F5F5F5F5F5F5E2E2E2E2E2F5F5F5F5F5F5F5F5F5F5F5F5F5F5F5F5
310
F5F5F5F5BEF5F5ECECF5F5F5F5F5F5F5F5F5F5F5F5F5F5F5F5F5F5C3C3C3F5F5F5F5F5F5F5F5F5F5F5F5F5F5F5F5F5F5F5F5F5F5F5F5F5F5F5F5F5F5F5E2E2F5F5F5F5F5F5F5F5F5F5F5F5F5F5F5F5F5F5F5F5E2F5F5E2E2EFE2F5F5E2F5F5BEF5ECECF5F5F5F5F5F5F5ECECECECF5F5F5F5F5F5F5F5F5F5F5F5F5F5F5F5F5
310
F5F5F5F5F5F5F5F5F5F5F5F5F5F5F5F5F5F5F5F5F5F5F5F5F5F5F5F5F5F5F5F5F5F5F5F5F5F5F5F5F5F5F5F5F5F5F5F5F5F5F5F5F5F5F5F5F5BEF5F5ECECF5F5F5F5F5F5ECECECECF5F5F5F5F5F5F5F5F5F5E2E2E2E2F5F5F5E2F5F5F5F5F5F5F5E2E2E2E2F5F5E2F5E2E2E2E2E2E2E2E2E2E2E2F5F5E2F5E2E2E2E2E2E2F5
310
F5F5F5F5F5F5F5F5F5E2F5F5E2E2EFE2F5F5E2F5F5BEF5F5ECECF5F5F5F5F5ECECECECECF5F5F5F5F5F5F5F5F5F5F5F5F5F5F5F5F5F5F5F5F5F5F5F5F5F5F5F5F5F5F5F5F5F5F5F5F5F5F5F5F5F5F5F5F5F5F5F5F5F5F5F5F5F5F5F5F5F5F5F5F5F5F5F5F5F5F5F5F5F5F5F5F5F5BEF5F5ECECECF5F5F5F5F5ECECECECF5F5
310
F5F5F5F5F5F5F5F5F5E2E2E2F5F5F5E2F5F5E2E2E2F5F5E2E2E2E2E2E2E2E2E2E2E2E2E2E2E2E2E2E2E2F5F5E2F5E2E2E2E2E2E2F5F5F5F5F5F5F5F5F5F5E2F5F5E2E2EFE2F5F5E2F5F5BEF5F5ECECECECECF5F5ECECF5ECF5F5E2E2E2E2E2E2E2E2E2E2E2E2E2E2E2E2E2E2E2E2E2E2E2E2E2E2E2E2E2E2E2E2E2E2E2E2E2
310
E2E2E2E2E2E2E2E2E2E2E2E2F5F5F5F5F5F5F5F5F5F5F5F5F5F5F5F5F5F5F5F5F5F5F5F5BEF5F5F5ECECECECF5F5F5ECECF5ECF5F5F5F5F5F5F5F5F5F5E2E2E2E2F5F5E2E2F5F5F5F5F5F5F5E2E2F5E2F5F5E2F5E2E2E2E2E2E2E2E2E2E2E2F5F5E2E2E2E2E2E2E2E2F5F5F5F5F5F5F5F5F5F5E2F5F5E2E2EFE2F5F5E2F5F5
310
BEF5F5F5F5ECECECECECECECF5F5F5F5E2E2E2E2E2E2E2E2E2E2E2E2E2E2E2E2E2E2E2E2E2E2E2E2E2E2E2E2E2E2E2E2E2E2E2E2E2E2E2E2E2E2E2E2E2E2E2E2E2F5F5F5F5F5F5F5F5F5F5F5F5F5F5F5F5F5F5F5F5F5F5F5F5BEF5F5F5F5F5ECECECECECECECF5F5F5F5F5F5F5F5F5F5F5F5E2E2E2E2F5F5F5E2F5F5F5F5F5
310
F5F5E2E2E2E2F5F5E2E2F5E2E2F5F5F5F5F5F5F5F5F5F5E2F5F5F5F5F5F5F5F5F5F5F5F5F5F5F5F5F5E2F5F5E2E2EFE2F5F5E2F5F5BEF5F5F5F5F5F5ECF5ECECECECECECF5E2E2E2E2E2E2E2E2E2E2E2E2E2E2E2E2E2E2E2E2E2E2E2E2E2E2E2E2E2E2E2E2E2E2E2E2E2E2E2E2E2E2E2E2E2E2E2E2E2F5F5F5F5F5F5F5F5F5
310
F5F5F5F5F5F5F5F5F5F5F5F5F5F5F5BEF5F5F5F5F5F5F5ECF5ECECECECECF5F5F5F5F5F5F5F5F5F5F5F5F5F5F5F5F5F5F5F5F5F5F5F5F5F5F5F5F5F5F5F5F5F5F5F5F5F5F5F5F5F5F5F5F5F5F5F5F5F5F5F5F5F5F5F5F5F5F5F5F5F5F5F5E2F5F5E2E2EFE2F5F5E2F5F5BEBEBEBEBEBEBEBEBEBEBEBEBEBEECF5F5F5F5F5F5
310
F5F5F5F5F5F5F5F5F5F5F5F5F5F5F5F5F5F5F5F5F5F5F5F5F5F5F5F5F5F5F5F5F5F5F5F5F5F5F5F5F5F5F5F5F5F5F5F5F5F5F5F5F5F5F5F5F5F5F5F5F5F5F5F5F5F5F5BEBEBEBEBEBEF5F5F5F5F5F5F5ECECECF5F5F5F5F5F5F5F5F5F5F5F5F5F5F5F5F5F5F5F5F5F5F5F5F5F5F5F5F5F5F5F5F5F5F5F5F5F5F5F5F5F5F5F5
310
F5F5F5F5F5F5F5F5F5F5F5F5F5F5F5F5F5F5F5F5E2F5F5E2E2EFE2F5E2E2F5F5BEF5F5F5F5F5F5F5F5F5F5F5F5F5F5F5E2E2E2E2E2E2E2E2E2E2E2E2E2E2E2E2E2E2E2E2E2E2E2E2E2E2E2E2E2E2E2E2E2E2E2E2E2E2E2E2E2E2E2E2E2E2E2E2E2E2E2E2E2E2E2E2E2E2E2E2E2E2E2E2E2E2E2F5F5F5F5F5BEBEF5F5F5F5F5
310
F5F5F5F5F5F5F5F5F5F5F5F5F5F5F5F5F5F5F5F5F5F5F5F5F5F5F5F5F5F5F5F5F5F5F5F5F5F5F5F5F5F5F5F5F5F5F5F5F5F5F5F5F5F5F5F5F5F5F5F5F5F5F5F5F5F5F5F5F5F5F5F5F5E2E2F5E2E2EFE2F5E2E2F5F5F5F5F5F5F5F5F5F5F5F5F5F5F5F5F5F5E2E2E2E2E2E2E2E2E2E2E2E2E2E2E2E2E2E2E2E2E2E2E2E2E2E2
310
E2E2E2E2E2E2E2E2E2E2E2E2E2E2E2E2E2E2E2E2E2E2E2E2E2E2E2E2E2E2E2E2E2E2E2E2E2E2E2E2E2F5F5F5F5F5F5F5F5F5F5F5F5F5F5F5F5F5F5F5F5F5F5F5F5F5F5F5F5F5F5F5F5F5F5F5F5F5F5F5F5F5F5F5F5F5F5F5F5F5F5F5F5F5F5F5F5F5F5F5F5F5F5F5F5F5F5F5F5F5F5F5F5F5F5F5F5F5F5F5F5F5F5F5F5F5E2
310
E2F5E2E2EFE2F5E2E2F5F5F5F5F5F5F5F5F5F5F5F5F5F5F5F5F5F5E2E2E2E2E2E2E2E2E2E2E2E2E2E2E2E2E2E2E2E2E2E2E2E2E2E2E2E2E2E2E2E2E2E2E2E2E2E2E2E2E2E2E2E2E2E2E2E2E2E2E2E2E2E2E2E2E2E2E2E2E2E2E2E2E2E2E2F5F5F5F5F5F5F5F5F5F5F5F5F5F5F5F5F5F5F5F5F5F5F5F5F5F5F5F5F5F5F5F5F5
310
F5F5F5F5F5F5F5F5F5F5F5F5F5F5F5F5F5F5F5F5F5F5F5F5F5F5F5F5F5F5F5F5F5F5F5F5F5F5F5F5F5F5F5F5F5F5F5F5F5F5F5F5E2E2F5E2E2EFE2F5E2E2F5F5F5F5F5F5F5F5F5F5F5F5F5F5F5F5F5F5E2E2E2E2E2E2E2E2E2E2E2E2E2E2E2E2E2E2E2E2E2E2E2E2E2E2E2E2E2E2E2E2E2E2E2E2E2E2E2E2E2E2E2E2E2E2E2
310
E2E2E2E2E2E2E2E2E2E2E2E2E2E2E2E2E2E2E2E2F5F5F5F5F5F5F5F5F5F5F5F5F5F5F5F5F5F5F5F5F5F5F5F5F5F5F5F5F5F5F5F5F5F5F5F5F5F5F5F5F5F5F5F5F5F5F5F5F5F5F5F5F5F5F5F5F5F5F5F5F5F5F5F5F5F5F5F5F5F5F5F5F5F5F5F5F5F5F5F5F5F5F5F5F5E2E2F5E2E2EFE2F5E2E2F5F5F5F5F5F5F5F5F5F5F5F5
310
F5F5F5F5F5F5F5F5F5F5F5F5F5F5F5F5F5F5F5F5F5F5F5F5F5F5F5F5F5F5F5F5F5F5F5F5F5F5F5F5F5F5F5F5F5F5F5F5F5F5F5F5F5F5F5F5F5F5F5F5F5F5F5F5F5F5F5F5F5F5F5F5F5F5F5F5F5F5F5F5F5F5F5F5F5F5F5F5F5F5F5F5F5F5F5F5F5F5F5F5F5F5F5F5F5F5F5F5F5F5F5F5F5F5F5F5F5F5F5F5F5F5F5F5F5F5F5
310
F5F5F5F5F5F5F5F5F5F5F5F5F5F5F5F5F5F5F5F5F5F5F5F5F5F5F5F5F5F5F5E2E2F5E2E2EFE2F5E2E2E2E2E2E2E2E2E2E2E2E2E2E2E2E2E2E2E2E2E2E2E2E2E2E2E2E2E2E2E2E2E2E2E2E2E2E2E2E2E2E2E2E2E2E2E2E2E2E2E2E2E2E2E2E2E2E2E2E2E2E2E2E2E2E2E2E2E2E2E2E2E2E2E2E2E2E2E2E2E2E2E2E2E2E2E2E2
310
E2E2E2E2E2E2E2E2E2E2E2E2E2E2E2E2E2E2E2E2E2E2E2E2E2E2E2E2E2E2E2E2E2E2E2E2E2E2E2E2E2E2E2E2E2E2E2E2E2E2E2E2E2E2E2E2E2E2E2E2E2E2E2E2E2E2E2E2E2E2E2E2E2E2E2E2E2E2E2E2E2E2E2E2E2E2F5E2E2EFE2F5E2F5F5F5F5F5F5F5F5F5F5F5F5F5F5F5F5F5F5F5F5F5F5F5F5F5F5F5F5F5F5F5F5F5F5
310
F5F5F5F5F5F5F5F5F5F5F5F5F5F5F5F5F5F5F5F5F5F5F5F5F5F5F5F5F5F5F5F5F5F5F5F5F5F5F5F5F5F5F5F5F5F5F5F5F5F5F5F5F5F5F5F5F5F5F5F5F5F5F5F5F5F5F5F5F5F5F5F5F5F5F5F5F5F5F5F5F5F5F5F5F5F5F5F5F5F5F5F5F5F5F5F5F5F5F5F5F5F5F5F5F5F5F5F5F5F5F5F5F5F5F5F5F5F5F5F5F5F5F5F5F5F5F5
310
F5F5F5F5F5F5F5F5F5F5F5E2F5E2E2EFE2F5E2E2E2E2E2E2E2E2F5F5F5F5F5F5F5F5F5E2E2E2E2E2E2E2E2E2E2E2E2E2E2E2E2F5F5F5F5F5F5F5F5F5E2E2E2E2E2E2E2E2E2E2E2E2E2E2E2E2F5F5F5F5F5F5F5F5F5E2E2E2E2E2E2E2E2E2E2E2E2E2E2E2E2F5F5F5F5F5F5F5F5E2E2E2E2E2E2E2E2E2E2E2E2E2E2E2E2F5F5
310
F5F5F5F5F5F5F5E2E2E2E2E2E2E2E2E2E2E2E2E2E2E2E2F5F5F5F5F5F5F5F5F5E2E2E2E2E2E2E2E2E2E2E2E2E2E2E2E2F5F5F5F5F5F5F5F5F5E2E2E2E2E2E2E2E2F5E2E2EFE2E2E2E2E2E2E2E2E2E2E2E2E2E2E2E2E2E2E2E2E2E2E2E2E2E2E2E2E2E2E2E2E2E2E2E2E2E2E2E2E2E2E2E2E2E2E2E2E2E2E2E2E2E2E2E2E2E2
310
E2E2E2E2E2E2E2E2E2E2E2E2E2E2E2E2E2E2E2E2E2E2E2E2E2E2E2E2E2E2E2E2E2E2E2E2E2E2E2E2E2E2E2E2E2E2E2E2E2E2E2E2E2E2E2E2E2E2E2E2E2E2E2E2E2E2E2E2E2E2E2E2E2E2E2E2E2E2E2E2E2E2E2E2E2E2E2E2E2E2E2E2E2E2E2E2E2E2E2E2E2E2E2E2E2E2E2E2E2E2E2E2E2E2E2E2E2E2E2E2EFEFE2E2E2E2E2
310
E2E2E2E2E2E2E2E2E2E2E2E2E2E2E2E2E2E2E2E2E2E2E2E2E2E2E2E2E2E2E2E2E2E2E2E2E2E2E2E2E2E2E2E2E2E2E2E2E2E2E2E2E2E2E2E2E2E2E2E2E2E2E2E2E2E2E2E2E2E2E2E2E2E2E2E2E2E2E2E2E2E2E2E2E2E2E2E2E2E2E2E2E2E2E2E2E2E2E2E2E2E2E2E2E2E2E2E2E2E2E2E2E2E2E2E2E2E2E2E2E2E2E2E2E2E2E2
310
E2E2E2E2E2E2E2E2E2E2E2E2E2E2E2E2E2E2E2E2E2E2E2E2E2E2E2E2E2E2E2E2E2E2E2E2E2E2E2E2E2E2E2E2E2E2EFEF
  0
XRECORD
  5
2434
102
{ACAD_REACTORS
330
2433
102
}
330
2433
100
AcDbXrecord
280
     1
102
SHADEPLOT
 70
     0
102
SHADEPLOTRESLEVEL
 70
     2
102
SHADEPLOTCUSTOMDPI
 70
   300
  0
XRECORD
  5
719
102
{ACAD_REACTORS
330
718
102
}
330
718
100
AcDbXrecord
280
     1
102
MATERIAL
148
0.0
149
0.0
149
0.0
 93
        0
 94
      127
282
     0
 72
     1
 77
     1
171
     1
175
     1
179
     1
273
     0
  0
XRECORD
  5
717
102
{ACAD_REACTORS
330
716
102
}
330
716
100
AcDbXrecord
280
     1
102
MATERIAL
148
0.0
149
0.0
149
0.0
 93
        0
 94
      127
282
     0
 72
     1
 77
     1
171
     1
175
     1
179
     1
273
     0
  0
XRECORD
  5
71B
102
{ACAD_REACTORS
330
71A
102
}
330
71A
100
AcDbXrecord
280
     1
102
MATERIAL
148
0.0
149
0.0
149
0.0
 93
        0
 94
      127
282
     0
 72
     1
 77
     1
171
     1
175
     1
179
     1
273
     0
  0
CELLSTYLEMAP
  5
2430
102
{ACAD_REACTORS
330
23D0
102
}
330
23D0
100
AcDbCellStyleMap
 90
        3
300
CELLSTYLE
  1
TABLEFORMAT_BEGIN
 90
        5
170
     1
 91
        0
 92
    32768
 62
   257
 93
        1
300
CONTENTFORMAT
  1
CONTENTFORMAT_BEGIN
 90
        0
 91
        0
 92
      512
 93
        0
300

 40
0.0
140
1.0
 94
        5
 62
     0
340
11
144
6.0
309
CONTENTFORMAT_END
171
     1
301
MARGIN
  1
CELLMARGIN_BEGIN
 40
1.5
 40
1.5
 40
1.5
 40
1.5
 40
0.18
 40
0.18
309
CELLMARGIN_END
 94
        6
 95
        1
302
GRIDFORMAT
  1
GRIDFORMAT_BEGIN
 90
        0
 91
        1
 62
     0
 92
       -2
340
0
 93
        0
 40
0.045
309
GRIDFORMAT_END
 95
        2
302
GRIDFORMAT
  1
GRIDFORMAT_BEGIN
 90
        0
 91
        1
 62
     0
 92
       -2
340
0
 93
        0
 40
0.045
309
GRIDFORMAT_END
 95
        4
302
GRIDFORMAT
  1
GRIDFORMAT_BEGIN
 90
        0
 91
        1
 62
     0
 92
       -2
340
0
 93
        0
 40
0.045
309
GRIDFORMAT_END
 95
        8
302
GRIDFORMAT
  1
GRIDFORMAT_BEGIN
 90
        0
 91
        1
 62
     0
 92
       -2
340
0
 93
        0
 40
0.045
309
GRIDFORMAT_END
 95
       16
302
GRIDFORMAT
  1
GRIDFORMAT_BEGIN
 90
        0
 91
        1
 62
     0
 92
       -2
340
0
 93
        0
 40
0.045
309
GRIDFORMAT_END
 95
       32
302
GRIDFORMAT
  1
GRIDFORMAT_BEGIN
 90
        0
 91
        1
 62
     0
 92
       -2
340
0
 93
        0
 40
0.045
309
GRIDFORMAT_END
309
TABLEFORMAT_END
  1
CELLSTYLE_BEGIN
 90
        1
 91
        1
300
_TITLE
309
CELLSTYLE_END
300
CELLSTYLE
  1
TABLEFORMAT_BEGIN
 90
        5
170
     1
 91
        0
 92
        0
 62
   257
 93
        1
300
CONTENTFORMAT
  1
CONTENTFORMAT_BEGIN
 90
        0
 91
        0
 92
      512
 93
        0
300

 40
0.0
140
1.0
 94
        5
 62
     0
340
11
144
4.5
309
CONTENTFORMAT_END
171
     1
301
MARGIN
  1
CELLMARGIN_BEGIN
 40
1.5
 40
1.5
 40
1.5
 40
1.5
 40
0.18
 40
0.18
309
CELLMARGIN_END
 94
        6
 95
        1
302
GRIDFORMAT
  1
GRIDFORMAT_BEGIN
 90
        0
 91
        1
 62
     0
 92
       -2
340
0
 93
        0
 40
0.045
309
GRIDFORMAT_END
 95
        2
302
GRIDFORMAT
  1
GRIDFORMAT_BEGIN
 90
        0
 91
        1
 62
     0
 92
       -2
340
0
 93
        0
 40
0.045
309
GRIDFORMAT_END
 95
        4
302
GRIDFORMAT
  1
GRIDFORMAT_BEGIN
 90
        0
 91
        1
 62
     0
 92
       -2
340
0
 93
        0
 40
0.045
309
GRIDFORMAT_END
 95
        8
302
GRIDFORMAT
  1
GRIDFORMAT_BEGIN
 90
        0
 91
        1
 62
     0
 92
       -2
340
0
 93
        0
 40
0.045
309
GRIDFORMAT_END
 95
       16
302
GRIDFORMAT
  1
GRIDFORMAT_BEGIN
 90
        0
 91
        1
 62
     0
 92
       -2
340
0
 93
        0
 40
0.045
309
GRIDFORMAT_END
 95
       32
302
GRIDFORMAT
  1
GRIDFORMAT_BEGIN
 90
        0
 91
        1
 62
     0
 92
       -2
340
0
 93
        0
 40
0.045
309
GRIDFORMAT_END
309
TABLEFORMAT_END
  1
CELLSTYLE_BEGIN
 90
        2
 91
        1
300
_HEADER
309
CELLSTYLE_END
300
CELLSTYLE
  1
TABLEFORMAT_BEGIN
 90
        5
170
     1
 91
        0
 92
        0
 62
   257
 93
        1
300
CONTENTFORMAT
  1
CONTENTFORMAT_BEGIN
 90
        0
 91
        0
 92
      512
 93
        0
300

 40
0.0
140
1.0
 94
        2
 62
     0
340
11
144
4.5
309
CONTENTFORMAT_END
171
     1
301
MARGIN
  1
CELLMARGIN_BEGIN
 40
1.5
 40
1.5
 40
1.5
 40
1.5
 40
0.18
 40
0.18
309
CELLMARGIN_END
 94
        6
 95
        1
302
GRIDFORMAT
  1
GRIDFORMAT_BEGIN
 90
        0
 91
        1
 62
     0
 92
       -2
340
0
 93
        0
 40
0.045
309
GRIDFORMAT_END
 95
        2
302
GRIDFORMAT
  1
GRIDFORMAT_BEGIN
 90
        0
 91
        1
 62
     0
 92
       -2
340
0
 93
        0
 40
0.045
309
GRIDFORMAT_END
 95
        4
302
GRIDFORMAT
  1
GRIDFORMAT_BEGIN
 90
        0
 91
        1
 62
     0
 92
       -2
340
0
 93
        0
 40
0.045
309
GRIDFORMAT_END
 95
        8
302
GRIDFORMAT
  1
GRIDFORMAT_BEGIN
 90
        0
 91
        1
 62
     0
 92
       -2
340
0
 93
        0
 40
0.045
309
GRIDFORMAT_END
 95
       16
302
GRIDFORMAT
  1
GRIDFORMAT_BEGIN
 90
        0
 91
        1
 62
     0
 92
       -2
340
0
 93
        0
 40
0.045
309
GRIDFORMAT_END
 95
       32
302
GRIDFORMAT
  1
GRIDFORMAT_BEGIN
 90
        0
 91
        1
 62
     0
 92
       -2
340
0
 93
        0
 40
0.045
309
GRIDFORMAT_END
309
TABLEFORMAT_END
  1
CELLSTYLE_BEGIN
 90
        3
 91
        2
300
_DATA
309
CELLSTYLE_END
  0
XRECORD
  5
2435
102
{ACAD_REACTORS
330
23D0
102
}
330
23D0
100
AcDbXrecord
280
     1
102
ACAD_ROUNDTRIP_PRE2007_TABLESTYLE
 90
      512
 91
        0
  1

 92
      512
 93
        0
  2

 94
      512
 95
        0
  3

  0
XRECORD
  5
2441
102
{ACAD_REACTORS
330
2440
102
}
330
2440
100
AcDbXrecord
280
     1
102
RTVSPropertyOp0
 70
     1
102
RTVSPropertyOp1
 70
     1
102
RTVSPropertyOp2
 70
     1
102
RTVSPropertyOp3
 70
     1
102
RTVSPropertyOp4
 70
     1
102
RTVSPropertyOp5
 70
     1
102
RTVSPropertyOp6
 70
     1
102
RTVSPropertyOp7
 70
     1
102
RTVSPropertyOp8
 70
     1
102
RTVSPropertyOp9
 70
     1
102
RTVSPropertyOp10
 70
     1
102
RTVSPropertyOp11
 70
     1
102
RTVSPropertyOp12
 70
     1
102
RTVSPropertyOp13
 70
     1
102
RTVSPropertyOp14
 70
     1
102
RTVSPropertyOp15
 70
     1
102
RTVSPropertyOp16
 70
     1
102
RTVSPropertyOp17
 70
     1
102
RTVSPropertyOp18
 70
     1
102
RTVSPropertyOp19
 70
     1
102
RTVSPropertyOp20
 70
     1
102
RTVSPropertyOp21
 70
     1
102
RTVSPropertyOp22
 70
     1
102
RTVSPropertyOp23
 70
     1
102
RTVSPropertyOp24
 70
     1
102
RTVSPropertyOp25
 70
     1
102
RTVSPropertyOp26
 70
     1
102
RTVSPropertyOp27
 70
     1
102
RTVSPropertyOp28
 70
     1
102
RTVSPropertyOp29
 70
     1
102
RTVSPropertyOp30
 70
     1
102
RTVSPropertyOp31
 70
     1
102
RTVSPropertyOp32
 70
     1
  0
XRECORD
  5
2445
102
{ACAD_REACTORS
330
2444
102
}
330
2444
100
AcDbXrecord
280
     1
102
RTVSPropertyOp0
 70
     1
102
RTVSPropertyOp1
 70
     1
102
RTVSPropertyOp2
 70
     1
102
RTVSPropertyOp3
 70
     1
102
RTVSPropertyOp4
 70
     1
102
RTVSPropertyOp5
 70
     1
102
RTVSPropertyOp6
 70
     1
102
RTVSPropertyOp7
 70
     1
102
RTVSPropertyOp8
 70
     1
102
RTVSPropertyOp9
 70
     1
102
RTVSPropertyOp10
 70
     1
102
RTVSPropertyOp11
 70
     1
102
RTVSPropertyOp12
 70
     1
102
RTVSPropertyOp13
 70
     1
102
RTVSPropertyOp14
 70
     1
102
RTVSPropertyOp15
 70
     1
102
RTVSPropertyOp16
 70
     1
102
RTVSPropertyOp17
 70
     1
102
RTVSPropertyOp18
 70
     1
102
RTVSPropertyOp19
 70
     1
102
RTVSPropertyOp20
 70
     1
102
RTVSPropertyOp21
 70
     1
102
RTVSPropertyOp22
 70
     1
102
RTVSPropertyOp23
 70
     1
102
RTVSPropertyOp24
 70
     1
102
RTVSPropertyOp25
 70
     1
102
RTVSPropertyOp26
 70
     1
102
RTVSPropertyOp27
 70
     1
102
RTVSPropertyOp28
 70
     1
102
RTVSPropertyOp29
 70
     1
102
RTVSPropertyOp30
 70
     1
102
RTVSPropertyOp31
 70
     1
102
RTVSPropertyOp32
 70
     1
  0
XRECORD
  5
2443
102
{ACAD_REACTORS
330
2442
102
}
330
2442
100
AcDbXrecord
280
     1
102
RTVSPropertyOp0
 70
     1
102
RTVSPropertyOp1
 70
     1
102
RTVSPropertyOp2
 70
     1
102
RTVSPropertyOp3
 70
     1
102
RTVSPropertyOp4
 70
     1
102
RTVSPropertyOp5
 70
     1
102
RTVSPropertyOp6
 70
     1
102
RTVSPropertyOp7
 70
     1
102
RTVSPropertyOp8
 70
     1
102
RTVSPropertyOp9
 70
     1
102
RTVSPropertyOp10
 70
     1
102
RTVSPropertyOp11
 70
     1
102
RTVSPropertyOp12
 70
     1
102
RTVSPropertyOp13
 70
     1
102
RTVSPropertyOp14
 70
     1
102
RTVSPropertyOp15
 70
     1
102
RTVSPropertyOp16
 70
     1
102
RTVSPropertyOp17
 70
     1
102
RTVSPropertyOp18
 70
     1
102
RTVSPropertyOp19
 70
     1
102
RTVSPropertyOp20
 70
     1
102
RTVSPropertyOp21
 70
     1
102
RTVSPropertyOp22
 70
     1
102
RTVSPropertyOp23
 70
     1
102
RTVSPropertyOp24
 70
     1
102
RTVSPropertyOp25
 70
     1
102
RTVSPropertyOp26
 70
     1
102
RTVSPropertyOp27
 70
     1
102
RTVSPropertyOp28
 70
     1
102
RTVSPropertyOp29
 70
     1
102
RTVSPropertyOp30
 70
     1
102
RTVSPropertyOp31
 70
     1
102
RTVSPropertyOp32
 70
     1
  0
XRECORD
  5
243F
102
{ACAD_REACTORS
330
243E
102
}
330
243E
100
AcDbXrecord
280
     1
102
RTVSPropertyOp0
 70
     1
102
RTVSPropertyOp1
 70
     1
102
RTVSPropertyOp2
 70
     1
102
RTVSPropertyOp3
 70
     1
102
RTVSPropertyOp4
 70
     1
102
RTVSPropertyOp5
 70
     1
102
RTVSPropertyOp6
 70
     1
102
RTVSPropertyOp7
 70
     1
102
RTVSPropertyOp8
 70
     1
102
RTVSPropertyOp9
 70
     1
102
RTVSPropertyOp10
 70
     1
102
RTVSPropertyOp11
 70
     1
102
RTVSPropertyOp12
 70
     1
102
RTVSPropertyOp13
 70
     1
102
RTVSPropertyOp14
 70
     1
102
RTVSPropertyOp15
 70
     1
102
RTVSPropertyOp16
 70
     1
102
RTVSPropertyOp17
 70
     1
102
RTVSPropertyOp18
 70
     1
102
RTVSPropertyOp19
 70
     1
102
RTVSPropertyOp20
 70
     1
102
RTVSPropertyOp21
 70
     1
102
RTVSPropertyOp22
 70
     1
102
RTVSPropertyOp23
 70
     1
102
RTVSPropertyOp24
 70
     1
102
RTVSPropertyOp25
 70
     1
102
RTVSPropertyOp26
 70
     1
102
RTVSPropertyOp27
 70
     1
102
RTVSPropertyOp28
 70
     1
102
RTVSPropertyOp29
 70
     1
102
RTVSPropertyOp30
 70
     1
102
RTVSPropertyOp31
 70
     1
102
RTVSPropertyOp32
 70
     1
  0
XRECORD
  5
244D
102
{ACAD_REACTORS
330
244C
102
}
330
244C
100
AcDbXrecord
280
     1
102
RTVSPropertyOp0
 70
     1
102
RTVSPropertyOp1
 70
     1
102
RTVSPropertyOp2
 70
     1
102
RTVSPropertyOp3
 70
     1
102
RTVSPropertyOp4
 70
     1
102
RTVSPropertyOp5
 70
     1
102
RTVSPropertyOp6
 70
     1
102
RTVSPropertyOp7
 70
     1
102
RTVSPropertyOp8
 70
     1
102
RTVSPropertyOp9
 70
     1
102
RTVSPropertyOp10
 70
     1
102
RTVSPropertyOp11
 70
     1
102
RTVSPropertyOp12
 70
     1
102
RTVSPropertyOp13
 70
     1
102
RTVSPropertyOp14
 70
     1
102
RTVSPropertyOp15
 70
     1
102
RTVSPropertyOp16
 70
     1
102
RTVSPropertyOp17
 70
     1
102
RTVSPropertyOp18
 70
     1
102
RTVSPropertyOp19
 70
     1
102
RTVSPropertyOp20
 70
     1
102
RTVSPropertyOp21
 70
     1
102
RTVSPropertyOp22
 70
     1
102
RTVSPropertyOp23
 70
     1
102
RTVSPropertyOp24
 70
     1
102
RTVSPropertyOp25
 70
     1
102
RTVSPropertyOp26
 70
     1
102
RTVSPropertyOp27
 70
     1
102
RTVSPropertyOp28
 70
     1
102
RTVSPropertyOp29
 70
     1
102
RTVSPropertyOp30
 70
     1
102
RTVSPropertyOp31
 70
     1
102
RTVSPropertyOp32
 70
     1
  0
XRECORD
  5
2455
102
{ACAD_REACTORS
330
2454
102
}
330
2454
100
AcDbXrecord
280
     1
102
RTVSPropertyOp0
 70
     1
102
RTVSPropertyOp1
 70
     1
102
RTVSPropertyOp2
 70
     1
102
RTVSPropertyOp3
 70
     1
102
RTVSPropertyOp4
 70
     1
102
RTVSPropertyOp5
 70
     1
102
RTVSPropertyOp6
 70
     1
102
RTVSPropertyOp7
 70
     1
102
RTVSPropertyOp8
 70
     1
102
RTVSPropertyOp9
 70
     1
102
RTVSPropertyOp10
 70
     1
102
RTVSPropertyOp11
 70
     1
102
RTVSPropertyOp12
 70
     1
102
RTVSPropertyOp13
 70
     1
102
RTVSPropertyOp14
 70
     1
102
RTVSPropertyOp15
 70
     1
102
RTVSPropertyOp16
 70
     1
102
RTVSPropertyOp17
 70
     1
102
RTVSPropertyOp18
 70
     1
102
RTVSPropertyOp19
 70
     1
102
RTVSPropertyOp20
 70
     1
102
RTVSPropertyOp21
 70
     1
102
RTVSPropertyOp22
 70
     1
102
RTVSPropertyOp23
 70
     1
102
RTVSPropertyOp24
 70
     1
102
RTVSPropertyOp25
 70
     1
102
RTVSPropertyOp26
 70
     1
102
RTVSPropertyOp27
 70
     1
102
RTVSPropertyOp28
 70
     1
102
RTVSPropertyOp29
 70
     1
102
RTVSPropertyOp30
 70
     1
102
RTVSPropertyOp31
 70
     1
102
RTVSPropertyOp32
 70
     1
  0
XRECORD
  5
2447
102
{ACAD_REACTORS
330
2446
102
}
330
2446
100
AcDbXrecord
280
     1
102
RTVSPropertyOp0
 70
     1
102
RTVSPropertyOp1
 70
     1
102
RTVSPropertyOp2
 70
     1
102
RTVSPropertyOp3
 70
     1
102
RTVSPropertyOp4
 70
     1
102
RTVSPropertyOp5
 70
     1
102
RTVSPropertyOp6
 70
     1
102
RTVSPropertyOp7
 70
     1
102
RTVSPropertyOp8
 70
     1
102
RTVSPropertyOp9
 70
     1
102
RTVSPropertyOp10
 70
     1
102
RTVSPropertyOp11
 70
     1
102
RTVSPropertyOp12
 70
     1
102
RTVSPropertyOp13
 70
     1
102
RTVSPropertyOp14
 70
     1
102
RTVSPropertyOp15
 70
     1
102
RTVSPropertyOp16
 70
     1
102
RTVSPropertyOp17
 70
     1
102
RTVSPropertyOp18
 70
     1
102
RTVSPropertyOp19
 70
     1
102
RTVSPropertyOp20
 70
     1
102
RTVSPropertyOp21
 70
     1
102
RTVSPropertyOp22
 70
     1
102
RTVSPropertyOp23
 70
     1
102
RTVSPropertyOp24
 70
     1
102
RTVSPropertyOp25
 70
     1
102
RTVSPropertyOp26
 70
     1
102
RTVSPropertyOp27
 70
     1
102
RTVSPropertyOp28
 70
     1
102
RTVSPropertyOp29
 70
     1
102
RTVSPropertyOp30
 70
     1
102
RTVSPropertyOp31
 70
     1
102
RTVSPropertyOp32
 70
     1
  0
XRECORD
  5
244B
102
{ACAD_REACTORS
330
244A
102
}
330
244A
100
AcDbXrecord
280
     1
102
RTVSPropertyOp0
 70
     1
102
RTVSPropertyOp1
 70
     1
102
RTVSPropertyOp2
 70
     1
102
RTVSPropertyOp3
 70
     1
102
RTVSPropertyOp4
 70
     1
102
RTVSPropertyOp5
 70
     1
102
RTVSPropertyOp6
 70
     1
102
RTVSPropertyOp7
 70
     1
102
RTVSPropertyOp8
 70
     1
102
RTVSPropertyOp9
 70
     1
102
RTVSPropertyOp10
 70
     1
102
RTVSPropertyOp11
 70
     1
102
RTVSPropertyOp12
 70
     1
102
RTVSPropertyOp13
 70
     1
102
RTVSPropertyOp14
 70
     1
102
RTVSPropertyOp15
 70
     1
102
RTVSPropertyOp16
 70
     1
102
RTVSPropertyOp17
 70
     1
102
RTVSPropertyOp18
 70
     1
102
RTVSPropertyOp19
 70
     1
102
RTVSPropertyOp20
 70
     1
102
RTVSPropertyOp21
 70
     1
102
RTVSPropertyOp22
 70
     1
102
RTVSPropertyOp23
 70
     1
102
RTVSPropertyOp24
 70
     1
102
RTVSPropertyOp25
 70
     1
102
RTVSPropertyOp26
 70
     1
102
RTVSPropertyOp27
 70
     1
102
RTVSPropertyOp28
 70
     1
102
RTVSPropertyOp29
 70
     1
102
RTVSPropertyOp30
 70
     1
102
RTVSPropertyOp31
 70
     1
102
RTVSPropertyOp32
 70
     1
  0
XRECORD
  5
2470
102
{ACAD_REACTORS
330
246F
102
}
330
246F
100
AcDbXrecord
280
     1
102
RTVSPropertyOp0
 70
     0
102
RTVSPropertyOp1
 70
     0
102
RTVSPropertyOp2
 70
     0
102
RTVSPropertyOp3
 70
     0
102
RTVSPropertyOp4
 70
     0
102
RTVSPropertyOp5
 70
     0
102
RTVSPropertyOp6
 70
     0
102
RTVSPropertyOp7
 70
     0
102
RTVSPropertyOp8
 70
     0
102
RTVSPropertyOp9
 70
     0
102
RTVSPropertyOp10
 70
     0
102
RTVSPropertyOp11
 70
     0
102
RTVSPropertyOp12
 70
     0
102
RTVSPropertyOp13
 70
     0
102
RTVSPropertyOp14
 70
     2
102
RTVSPropertyOp15
 70
     0
102
RTVSPropertyOp16
 70
     0
102
RTVSPropertyOp17
 70
     0
102
RTVSPropertyOp18
 70
     0
102
RTVSPropertyOp19
 70
     0
102
RTVSPropertyOp20
 70
     0
102
RTVSPropertyOp21
 70
     0
102
RTVSPropertyOp22
 70
     0
102
RTVSPropertyOp23
 70
     0
102
RTVSPropertyOp24
 70
     0
102
RTVSPropertyOp25
 70
     0
102
RTVSPropertyOp26
 70
     0
102
RTVSPropertyOp27
 70
     0
102
RTVSPropertyOp28
 70
     0
102
RTVSPropertyOp29
 70
     0
102
RTVSPropertyOp30
 70
     0
102
RTVSPropertyOp31
 70
     0
102
RTVSPropertyOp32
 70
     0
  0
XRECORD
  5
2453
102
{ACAD_REACTORS
330
2452
102
}
330
2452
100
AcDbXrecord
280
     1
102
RTVSPropertyOp0
 70
     1
102
RTVSPropertyOp1
 70
     1
102
RTVSPropertyOp2
 70
     1
102
RTVSPropertyOp3
 70
     1
102
RTVSPropertyOp4
 70
     1
102
RTVSPropertyOp5
 70
     1
102
RTVSPropertyOp6
 70
     1
102
RTVSPropertyOp7
 70
     1
102
RTVSPropertyOp8
 70
     1
102
RTVSPropertyOp9
 70
     1
102
RTVSPropertyOp10
 70
     1
102
RTVSPropertyOp11
 70
     1
102
RTVSPropertyOp12
 70
     1
102
RTVSPropertyOp13
 70
     1
102
RTVSPropertyOp14
 70
     1
102
RTVSPropertyOp15
 70
     1
102
RTVSPropertyOp16
 70
     1
102
RTVSPropertyOp17
 70
     1
102
RTVSPropertyOp18
 70
     1
102
RTVSPropertyOp19
 70
     1
102
RTVSPropertyOp20
 70
     1
102
RTVSPropertyOp21
 70
     1
102
RTVSPropertyOp22
 70
     1
102
RTVSPropertyOp23
 70
     1
102
RTVSPropertyOp24
 70
     1
102
RTVSPropertyOp25
 70
     1
102
RTVSPropertyOp26
 70
     1
102
RTVSPropertyOp27
 70
     1
102
RTVSPropertyOp28
 70
     1
102
RTVSPropertyOp29
 70
     1
102
RTVSPropertyOp30
 70
     1
102
RTVSPropertyOp31
 70
     1
102
RTVSPropertyOp32
 70
     1
  0
XRECORD
  5
2437
102
{ACAD_REACTORS
330
2436
102
}
330
2436
100
AcDbXrecord
280
     1
102
RTVSPropertyOp0
 70
     1
102
RTVSPropertyOp1
 70
     1
102
RTVSPropertyOp2
 70
     1
102
RTVSPropertyOp3
 70
     1
102
RTVSPropertyOp4
 70
     1
102
RTVSPropertyOp5
 70
     1
102
RTVSPropertyOp6
 70
     1
102
RTVSPropertyOp7
 70
     1
102
RTVSPropertyOp8
 70
     1
102
RTVSPropertyOp9
 70
     1
102
RTVSPropertyOp10
 70
     1
102
RTVSPropertyOp11
 70
     1
102
RTVSPropertyOp12
 70
     1
102
RTVSPropertyOp13
 70
     1
102
RTVSPropertyOp14
 70
     1
102
RTVSPropertyOp15
 70
     1
102
RTVSPropertyOp16
 70
     1
102
RTVSPropertyOp17
 70
     1
102
RTVSPropertyOp18
 70
     1
102
RTVSPropertyOp19
 70
     1
102
RTVSPropertyOp20
 70
     1
102
RTVSPropertyOp21
 70
     1
102
RTVSPropertyOp22
 70
     1
102
RTVSPropertyOp23
 70
     1
102
RTVSPropertyOp24
 70
     1
102
RTVSPropertyOp25
 70
     1
102
RTVSPropertyOp26
 70
     1
102
RTVSPropertyOp27
 70
     1
102
RTVSPropertyOp28
 70
     1
102
RTVSPropertyOp29
 70
     1
102
RTVSPropertyOp30
 70
     1
102
RTVSPropertyOp31
 70
     1
102
RTVSPropertyOp32
 70
     1
  0
XRECORD
  5
2439
102
{ACAD_REACTORS
330
2438
102
}
330
2438
100
AcDbXrecord
280
     1
102
RTVSPropertyOp0
 70
     1
102
RTVSPropertyOp1
 70
     1
102
RTVSPropertyOp2
 70
     1
102
RTVSPropertyOp3
 70
     1
102
RTVSPropertyOp4
 70
     1
102
RTVSPropertyOp5
 70
     1
102
RTVSPropertyOp6
 70
     1
102
RTVSPropertyOp7
 70
     1
102
RTVSPropertyOp8
 70
     1
102
RTVSPropertyOp9
 70
     1
102
RTVSPropertyOp10
 70
     1
102
RTVSPropertyOp11
 70
     1
102
RTVSPropertyOp12
 70
     1
102
RTVSPropertyOp13
 70
     1
102
RTVSPropertyOp14
 70
     1
102
RTVSPropertyOp15
 70
     1
102
RTVSPropertyOp16
 70
     1
102
RTVSPropertyOp17
 70
     1
102
RTVSPropertyOp18
 70
     1
102
RTVSPropertyOp19
 70
     1
102
RTVSPropertyOp20
 70
     1
102
RTVSPropertyOp21
 70
     1
102
RTVSPropertyOp22
 70
     1
102
RTVSPropertyOp23
 70
     1
102
RTVSPropertyOp24
 70
     1
102
RTVSPropertyOp25
 70
     1
102
RTVSPropertyOp26
 70
     1
102
RTVSPropertyOp27
 70
     1
102
RTVSPropertyOp28
 70
     1
102
RTVSPropertyOp29
 70
     1
102
RTVSPropertyOp30
 70
     1
102
RTVSPropertyOp31
 70
     1
102
RTVSPropertyOp32
 70
     1
  0
XRECORD
  5
243B
102
{ACAD_REACTORS
330
243A
102
}
330
243A
100
AcDbXrecord
280
     1
102
RTVSPropertyOp0
 70
     1
102
RTVSPropertyOp1
 70
     1
102
RTVSPropertyOp2
 70
     1
102
RTVSPropertyOp3
 70
     1
102
RTVSPropertyOp4
 70
     1
102
RTVSPropertyOp5
 70
     1
102
RTVSPropertyOp6
 70
     1
102
RTVSPropertyOp7
 70
     1
102
RTVSPropertyOp8
 70
     1
102
RTVSPropertyOp9
 70
     1
102
RTVSPropertyOp10
 70
     1
102
RTVSPropertyOp11
 70
     1
102
RTVSPropertyOp12
 70
     1
102
RTVSPropertyOp13
 70
     1
102
RTVSPropertyOp14
 70
     1
102
RTVSPropertyOp15
 70
     1
102
RTVSPropertyOp16
 70
     1
102
RTVSPropertyOp17
 70
     1
102
RTVSPropertyOp18
 70
     1
102
RTVSPropertyOp19
 70
     1
102
RTVSPropertyOp20
 70
     1
102
RTVSPropertyOp21
 70
     1
102
RTVSPropertyOp22
 70
     1
102
RTVSPropertyOp23
 70
     1
102
RTVSPropertyOp24
 70
     1
102
RTVSPropertyOp25
 70
     1
102
RTVSPropertyOp26
 70
     1
102
RTVSPropertyOp27
 70
     1
102
RTVSPropertyOp28
 70
     1
102
RTVSPropertyOp29
 70
     1
102
RTVSPropertyOp30
 70
     1
102
RTVSPropertyOp31
 70
     1
102
RTVSPropertyOp32
 70
     1
  0
XRECORD
  5
243D
102
{ACAD_REACTORS
330
243C
102
}
330
243C
100
AcDbXrecord
280
     1
102
RTVSPropertyOp0
 70
     1
102
RTVSPropertyOp1
 70
     1
102
RTVSPropertyOp2
 70
     1
102
RTVSPropertyOp3
 70
     1
102
RTVSPropertyOp4
 70
     1
102
RTVSPropertyOp5
 70
     1
102
RTVSPropertyOp6
 70
     1
102
RTVSPropertyOp7
 70
     1
102
RTVSPropertyOp8
 70
     1
102
RTVSPropertyOp9
 70
     1
102
RTVSPropertyOp10
 70
     1
102
RTVSPropertyOp11
 70
     1
102
RTVSPropertyOp12
 70
     1
102
RTVSPropertyOp13
 70
     1
102
RTVSPropertyOp14
 70
     1
102
RTVSPropertyOp15
 70
     1
102
RTVSPropertyOp16
 70
     1
102
RTVSPropertyOp17
 70
     1
102
RTVSPropertyOp18
 70
     1
102
RTVSPropertyOp19
 70
     1
102
RTVSPropertyOp20
 70
     1
102
RTVSPropertyOp21
 70
     1
102
RTVSPropertyOp22
 70
     1
102
RTVSPropertyOp23
 70
     1
102
RTVSPropertyOp24
 70
     1
102
RTVSPropertyOp25
 70
     1
102
RTVSPropertyOp26
 70
     1
102
RTVSPropertyOp27
 70
     1
102
RTVSPropertyOp28
 70
     1
102
RTVSPropertyOp29
 70
     1
102
RTVSPropertyOp30
 70
     1
102
RTVSPropertyOp31
 70
     1
102
RTVSPropertyOp32
 70
     1
  0
XRECORD
  5
2460
102
{ACAD_REACTORS
330
245F
102
}
330
245F
100
AcDbXrecord
280
     1
102
RTVSPropertyOp0
 70
     1
102
RTVSPropertyOp1
 70
     1
102
RTVSPropertyOp2
 70
     1
102
RTVSPropertyOp3
 70
     1
102
RTVSPropertyOp4
 70
     1
102
RTVSPropertyOp5
 70
     1
102
RTVSPropertyOp6
 70
     1
102
RTVSPropertyOp7
 70
     1
102
RTVSPropertyOp8
 70
     1
102
RTVSPropertyOp9
 70
     1
102
RTVSPropertyOp10
 70
     1
102
RTVSPropertyOp11
 70
     1
102
RTVSPropertyOp12
 70
     1
102
RTVSPropertyOp13
 70
     1
102
RTVSPropertyOp14
 70
     1
102
RTVSPropertyOp15
 70
     1
102
RTVSPropertyOp16
 70
     1
102
RTVSPropertyOp17
 70
     1
102
RTVSPropertyOp18
 70
     1
102
RTVSPropertyOp19
 70
     1
102
RTVSPropertyOp20
 70
     1
102
RTVSPropertyOp21
 70
     1
102
RTVSPropertyOp22
 70
     1
102
RTVSPropertyOp23
 70
     1
102
RTVSPropertyOp24
 70
     1
102
RTVSPropertyOp25
 70
     1
102
RTVSPropertyOp26
 70
     1
102
RTVSPropertyOp27
 70
     1
102
RTVSPropertyOp28
 70
     1
102
RTVSPropertyOp29
 70
     1
102
RTVSPropertyOp30
 70
     1
102
RTVSPropertyOp31
 70
     1
102
RTVSPropertyOp32
 70
     1
  0
XRECORD
  5
246C
102
{ACAD_REACTORS
330
246B
102
}
330
246B
100
AcDbXrecord
280
     1
102
RTVSPropertyOp0
 70
     0
102
RTVSPropertyOp1
 70
     0
102
RTVSPropertyOp2
 70
     0
102
RTVSPropertyOp3
 70
     0
102
RTVSPropertyOp4
 70
     0
102
RTVSPropertyOp5
 70
     0
102
RTVSPropertyOp6
 70
     0
102
RTVSPropertyOp7
 70
     0
102
RTVSPropertyOp8
 70
     0
102
RTVSPropertyOp9
 70
     0
102
RTVSPropertyOp10
 70
     0
102
RTVSPropertyOp11
 70
     0
102
RTVSPropertyOp12
 70
     0
102
RTVSPropertyOp13
 70
     0
102
RTVSPropertyOp14
 70
     2
102
RTVSPropertyOp15
 70
     0
102
RTVSPropertyOp16
 70
     0
102
RTVSPropertyOp17
 70
     0
102
RTVSPropertyOp18
 70
     0
102
RTVSPropertyOp19
 70
     0
102
RTVSPropertyOp20
 70
     0
102
RTVSPropertyOp21
 70
     0
102
RTVSPropertyOp22
 70
     0
102
RTVSPropertyOp23
 70
     0
102
RTVSPropertyOp24
 70
     0
102
RTVSPropertyOp25
 70
     0
102
RTVSPropertyOp26
 70
     0
102
RTVSPropertyOp27
 70
     0
102
RTVSPropertyOp28
 70
     0
102
RTVSPropertyOp29
 70
     0
102
RTVSPropertyOp30
 70
     0
102
RTVSPropertyOp31
 70
     0
102
RTVSPropertyOp32
 70
     0
  0
XRECORD
  5
2451
102
{ACAD_REACTORS
330
2450
102
}
330
2450
100
AcDbXrecord
280
     1
102
RTVSPropertyOp0
 70
     1
102
RTVSPropertyOp1
 70
     1
102
RTVSPropertyOp2
 70
     1
102
RTVSPropertyOp3
 70
     1
102
RTVSPropertyOp4
 70
     1
102
RTVSPropertyOp5
 70
     1
102
RTVSPropertyOp6
 70
     1
102
RTVSPropertyOp7
 70
     1
102
RTVSPropertyOp8
 70
     1
102
RTVSPropertyOp9
 70
     1
102
RTVSPropertyOp10
 70
     1
102
RTVSPropertyOp11
 70
     1
102
RTVSPropertyOp12
 70
     1
102
RTVSPropertyOp13
 70
     1
102
RTVSPropertyOp14
 70
     1
102
RTVSPropertyOp15
 70
     1
102
RTVSPropertyOp16
 70
     1
102
RTVSPropertyOp17
 70
     1
102
RTVSPropertyOp18
 70
     1
102
RTVSPropertyOp19
 70
     1
102
RTVSPropertyOp20
 70
     1
102
RTVSPropertyOp21
 70
     1
102
RTVSPropertyOp22
 70
     1
102
RTVSPropertyOp23
 70
     1
102
RTVSPropertyOp24
 70
     1
102
RTVSPropertyOp25
 70
     1
102
RTVSPropertyOp26
 70
     1
102
RTVSPropertyOp27
 70
     1
102
RTVSPropertyOp28
 70
     1
102
RTVSPropertyOp29
 70
     1
102
RTVSPropertyOp30
 70
     1
102
RTVSPropertyOp31
 70
     1
102
RTVSPropertyOp32
 70
     1
  0
XRECORD
  5
246E
102
{ACAD_REACTORS
330
246D
102
}
330
246D
100
AcDbXrecord
280
     1
102
RTVSPropertyOp0
 70
     0
102
RTVSPropertyOp1
 70
     0
102
RTVSPropertyOp2
 70
     0
102
RTVSPropertyOp3
 70
     0
102
RTVSPropertyOp4
 70
     0
102
RTVSPropertyOp5
 70
     0
102
RTVSPropertyOp6
 70
     0
102
RTVSPropertyOp7
 70
     0
102
RTVSPropertyOp8
 70
     0
102
RTVSPropertyOp9
 70
     0
102
RTVSPropertyOp10
 70
     0
102
RTVSPropertyOp11
 70
     0
102
RTVSPropertyOp12
 70
     0
102
RTVSPropertyOp13
 70
     0
102
RTVSPropertyOp14
 70
     2
102
RTVSPropertyOp15
 70
     0
102
RTVSPropertyOp16
 70
     0
102
RTVSPropertyOp17
 70
     0
102
RTVSPropertyOp18
 70
     0
102
RTVSPropertyOp19
 70
     0
102
RTVSPropertyOp20
 70
     0
102
RTVSPropertyOp21
 70
     0
102
RTVSPropertyOp22
 70
     0
102
RTVSPropertyOp23
 70
     0
102
RTVSPropertyOp24
 70
     0
102
RTVSPropertyOp25
 70
     0
102
RTVSPropertyOp26
 70
     0
102
RTVSPropertyOp27
 70
     0
102
RTVSPropertyOp28
 70
     0
102
RTVSPropertyOp29
 70
     0
102
RTVSPropertyOp30
 70
     0
102
RTVSPropertyOp31
 70
     0
102
RTVSPropertyOp32
 70
     0
  0
XRECORD
  5
2449
102
{ACAD_REACTORS
330
2448
102
}
330
2448
100
AcDbXrecord
280
     1
102
RTVSPropertyOp0
 70
     1
102
RTVSPropertyOp1
 70
     1
102
RTVSPropertyOp2
 70
     1
102
RTVSPropertyOp3
 70
     1
102
RTVSPropertyOp4
 70
     1
102
RTVSPropertyOp5
 70
     1
102
RTVSPropertyOp6
 70
     1
102
RTVSPropertyOp7
 70
     1
102
RTVSPropertyOp8
 70
     1
102
RTVSPropertyOp9
 70
     1
102
RTVSPropertyOp10
 70
     1
102
RTVSPropertyOp11
 70
     1
102
RTVSPropertyOp12
 70
     1
102
RTVSPropertyOp13
 70
     1
102
RTVSPropertyOp14
 70
     1
102
RTVSPropertyOp15
 70
     1
102
RTVSPropertyOp16
 70
     1
102
RTVSPropertyOp17
 70
     1
102
RTVSPropertyOp18
 70
     1
102
RTVSPropertyOp19
 70
     1
102
RTVSPropertyOp20
 70
     1
102
RTVSPropertyOp21
 70
     1
102
RTVSPropertyOp22
 70
     1
102
RTVSPropertyOp23
 70
     1
102
RTVSPropertyOp24
 70
     1
102
RTVSPropertyOp25
 70
     1
102
RTVSPropertyOp26
 70
     1
102
RTVSPropertyOp27
 70
     1
102
RTVSPropertyOp28
 70
     1
102
RTVSPropertyOp29
 70
     1
102
RTVSPropertyOp30
 70
     1
102
RTVSPropertyOp31
 70
     1
102
RTVSPropertyOp32
 70
     1
  0
XRECORD
  5
246A
102
{ACAD_REACTORS
330
2469
102
}
330
2469
100
AcDbXrecord
280
     1
102
RTVSPropertyOp0
 70
     1
102
RTVSPropertyOp1
 70
     1
102
RTVSPropertyOp2
 70
     1
102
RTVSPropertyOp3
 70
     1
102
RTVSPropertyOp4
 70
     1
102
RTVSPropertyOp5
 70
     1
102
RTVSPropertyOp6
 70
     1
102
RTVSPropertyOp7
 70
     1
102
RTVSPropertyOp8
 70
     1
102
RTVSPropertyOp9
 70
     1
102
RTVSPropertyOp10
 70
     1
102
RTVSPropertyOp11
 70
     1
102
RTVSPropertyOp12
 70
     1
102
RTVSPropertyOp13
 70
     1
102
RTVSPropertyOp14
 70
     1
102
RTVSPropertyOp15
 70
     1
102
RTVSPropertyOp16
 70
     1
102
RTVSPropertyOp17
 70
     1
102
RTVSPropertyOp18
 70
     1
102
RTVSPropertyOp19
 70
     1
102
RTVSPropertyOp20
 70
     1
102
RTVSPropertyOp21
 70
     1
102
RTVSPropertyOp22
 70
     1
102
RTVSPropertyOp23
 70
     1
102
RTVSPropertyOp24
 70
     1
102
RTVSPropertyOp25
 70
     1
102
RTVSPropertyOp26
 70
     1
102
RTVSPropertyOp27
 70
     1
102
RTVSPropertyOp28
 70
     1
102
RTVSPropertyOp29
 70
     1
102
RTVSPropertyOp30
 70
     1
102
RTVSPropertyOp31
 70
     1
102
RTVSPropertyOp32
 70
     1
  0
XRECORD
  5
2468
102
{ACAD_REACTORS
330
2467
102
}
330
2467
100
AcDbXrecord
280
     1
102
RTVSPropertyOp0
 70
     1
102
RTVSPropertyOp1
 70
     1
102
RTVSPropertyOp2
 70
     1
102
RTVSPropertyOp3
 70
     1
102
RTVSPropertyOp4
 70
     1
102
RTVSPropertyOp5
 70
     1
102
RTVSPropertyOp6
 70
     1
102
RTVSPropertyOp7
 70
     1
102
RTVSPropertyOp8
 70
     1
102
RTVSPropertyOp9
 70
     1
102
RTVSPropertyOp10
 70
     1
102
RTVSPropertyOp11
 70
     1
102
RTVSPropertyOp12
 70
     1
102
RTVSPropertyOp13
 70
     1
102
RTVSPropertyOp14
 70
     1
102
RTVSPropertyOp15
 70
     1
102
RTVSPropertyOp16
 70
     1
102
RTVSPropertyOp17
 70
     1
102
RTVSPropertyOp18
 70
     1
102
RTVSPropertyOp19
 70
     1
102
RTVSPropertyOp20
 70
     1
102
RTVSPropertyOp21
 70
     1
102
RTVSPropertyOp22
 70
     1
102
RTVSPropertyOp23
 70
     1
102
RTVSPropertyOp24
 70
     1
102
RTVSPropertyOp25
 70
     1
102
RTVSPropertyOp26
 70
     1
102
RTVSPropertyOp27
 70
     1
102
RTVSPropertyOp28
 70
     1
102
RTVSPropertyOp29
 70
     1
102
RTVSPropertyOp30
 70
     1
102
RTVSPropertyOp31
 70
     1
102
RTVSPropertyOp32
 70
     1
  0
XRECORD
  5
2462
102
{ACAD_REACTORS
330
2461
102
}
330
2461
100
AcDbXrecord
280
     1
102
RTVSPropertyOp0
 70
     1
102
RTVSPropertyOp1
 70
     1
102
RTVSPropertyOp2
 70
     1
102
RTVSPropertyOp3
 70
     1
102
RTVSPropertyOp4
 70
     1
102
RTVSPropertyOp5
 70
     1
102
RTVSPropertyOp6
 70
     1
102
RTVSPropertyOp7
 70
     1
102
RTVSPropertyOp8
 70
     1
102
RTVSPropertyOp9
 70
     1
102
RTVSPropertyOp10
 70
     1
102
RTVSPropertyOp11
 70
     1
102
RTVSPropertyOp12
 70
     1
102
RTVSPropertyOp13
 70
     1
102
RTVSPropertyOp14
 70
     1
102
RTVSPropertyOp15
 70
     1
102
RTVSPropertyOp16
 70
     1
102
RTVSPropertyOp17
 70
     1
102
RTVSPropertyOp18
 70
     1
102
RTVSPropertyOp19
 70
     1
102
RTVSPropertyOp20
 70
     1
102
RTVSPropertyOp21
 70
     1
102
RTVSPropertyOp22
 70
     1
102
RTVSPropertyOp23
 70
     1
102
RTVSPropertyOp24
 70
     1
102
RTVSPropertyOp25
 70
     1
102
RTVSPropertyOp26
 70
     1
102
RTVSPropertyOp27
 70
     1
102
RTVSPropertyOp28
 70
     1
102
RTVSPropertyOp29
 70
     1
102
RTVSPropertyOp30
 70
     1
102
RTVSPropertyOp31
 70
     1
102
RTVSPropertyOp32
 70
     1
  0
XRECORD
  5
2464
102
{ACAD_REACTORS
330
2463
102
}
330
2463
100
AcDbXrecord
280
     1
102
RTVSPropertyOp0
 70
     1
102
RTVSPropertyOp1
 70
     1
102
RTVSPropertyOp2
 70
     1
102
RTVSPropertyOp3
 70
     1
102
RTVSPropertyOp4
 70
     1
102
RTVSPropertyOp5
 70
     1
102
RTVSPropertyOp6
 70
     1
102
RTVSPropertyOp7
 70
     1
102
RTVSPropertyOp8
 70
     1
102
RTVSPropertyOp9
 70
     1
102
RTVSPropertyOp10
 70
     1
102
RTVSPropertyOp11
 70
     1
102
RTVSPropertyOp12
 70
     1
102
RTVSPropertyOp13
 70
     1
102
RTVSPropertyOp14
 70
     1
102
RTVSPropertyOp15
 70
     1
102
RTVSPropertyOp16
 70
     1
102
RTVSPropertyOp17
 70
     1
102
RTVSPropertyOp18
 70
     1
102
RTVSPropertyOp19
 70
     1
102
RTVSPropertyOp20
 70
     1
102
RTVSPropertyOp21
 70
     1
102
RTVSPropertyOp22
 70
     1
102
RTVSPropertyOp23
 70
     1
102
RTVSPropertyOp24
 70
     1
102
RTVSPropertyOp25
 70
     1
102
RTVSPropertyOp26
 70
     1
102
RTVSPropertyOp27
 70
     1
102
RTVSPropertyOp28
 70
     1
102
RTVSPropertyOp29
 70
     1
102
RTVSPropertyOp30
 70
     1
102
RTVSPropertyOp31
 70
     1
102
RTVSPropertyOp32
 70
     1
  0
XRECORD
  5
244F
102
{ACAD_REACTORS
330
244E
102
}
330
244E
100
AcDbXrecord
280
     1
102
RTVSPropertyOp0
 70
     1
102
RTVSPropertyOp1
 70
     1
102
RTVSPropertyOp2
 70
     1
102
RTVSPropertyOp3
 70
     1
102
RTVSPropertyOp4
 70
     1
102
RTVSPropertyOp5
 70
     1
102
RTVSPropertyOp6
 70
     1
102
RTVSPropertyOp7
 70
     1
102
RTVSPropertyOp8
 70
     1
102
RTVSPropertyOp9
 70
     1
102
RTVSPropertyOp10
 70
     1
102
RTVSPropertyOp11
 70
     1
102
RTVSPropertyOp12
 70
     1
102
RTVSPropertyOp13
 70
     1
102
RTVSPropertyOp14
 70
     1
102
RTVSPropertyOp15
 70
     1
102
RTVSPropertyOp16
 70
     1
102
RTVSPropertyOp17
 70
     1
102
RTVSPropertyOp18
 70
     1
102
RTVSPropertyOp19
 70
     1
102
RTVSPropertyOp20
 70
     1
102
RTVSPropertyOp21
 70
     1
102
RTVSPropertyOp22
 70
     1
102
RTVSPropertyOp23
 70
     1
102
RTVSPropertyOp24
 70
     1
102
RTVSPropertyOp25
 70
     1
102
RTVSPropertyOp26
 70
     1
102
RTVSPropertyOp27
 70
     1
102
RTVSPropertyOp28
 70
     1
102
RTVSPropertyOp29
 70
     1
102
RTVSPropertyOp30
 70
     1
102
RTVSPropertyOp31
 70
     1
102
RTVSPropertyOp32
 70
     1
  0
XRECORD
  5
245E
102
{ACAD_REACTORS
330
245D
102
}
330
245D
100
AcDbXrecord
280
     1
102
RTVSPropertyOp0
 70
     1
102
RTVSPropertyOp1
 70
     1
102
RTVSPropertyOp2
 70
     1
102
RTVSPropertyOp3
 70
     1
102
RTVSPropertyOp4
 70
     1
102
RTVSPropertyOp5
 70
     1
102
RTVSPropertyOp6
 70
     1
102
RTVSPropertyOp7
 70
     1
102
RTVSPropertyOp8
 70
     1
102
RTVSPropertyOp9
 70
     1
102
RTVSPropertyOp10
 70
     1
102
RTVSPropertyOp11
 70
     1
102
RTVSPropertyOp12
 70
     1
102
RTVSPropertyOp13
 70
     1
102
RTVSPropertyOp14
 70
     1
102
RTVSPropertyOp15
 70
     1
102
RTVSPropertyOp16
 70
     1
102
RTVSPropertyOp17
 70
     1
102
RTVSPropertyOp18
 70
     1
102
RTVSPropertyOp19
 70
     1
102
RTVSPropertyOp20
 70
     1
102
RTVSPropertyOp21
 70
     1
102
RTVSPropertyOp22
 70
     1
102
RTVSPropertyOp23
 70
     1
102
RTVSPropertyOp24
 70
     1
102
RTVSPropertyOp25
 70
     1
102
RTVSPropertyOp26
 70
     1
102
RTVSPropertyOp27
 70
     1
102
RTVSPropertyOp28
 70
     1
102
RTVSPropertyOp29
 70
     1
102
RTVSPropertyOp30
 70
     1
102
RTVSPropertyOp31
 70
     1
102
RTVSPropertyOp32
 70
     1
  0
XRECORD
  5
2466
102
{ACAD_REACTORS
330
2465
102
}
330
2465
100
AcDbXrecord
280
     1
102
RTVSPropertyOp0
 70
     1
102
RTVSPropertyOp1
 70
     1
102
RTVSPropertyOp2
 70
     1
102
RTVSPropertyOp3
 70
     1
102
RTVSPropertyOp4
 70
     1
102
RTVSPropertyOp5
 70
     1
102
RTVSPropertyOp6
 70
     1
102
RTVSPropertyOp7
 70
     1
102
RTVSPropertyOp8
 70
     1
102
RTVSPropertyOp9
 70
     1
102
RTVSPropertyOp10
 70
     1
102
RTVSPropertyOp11
 70
     1
102
RTVSPropertyOp12
 70
     1
102
RTVSPropertyOp13
 70
     1
102
RTVSPropertyOp14
 70
     1
102
RTVSPropertyOp15
 70
     1
102
RTVSPropertyOp16
 70
     1
102
RTVSPropertyOp17
 70
     1
102
RTVSPropertyOp18
 70
     1
102
RTVSPropertyOp19
 70
     1
102
RTVSPropertyOp20
 70
     1
102
RTVSPropertyOp21
 70
     1
102
RTVSPropertyOp22
 70
     1
102
RTVSPropertyOp23
 70
     1
102
RTVSPropertyOp24
 70
     1
102
RTVSPropertyOp25
 70
     1
102
RTVSPropertyOp26
 70
     1
102
RTVSPropertyOp27
 70
     1
102
RTVSPropertyOp28
 70
     1
102
RTVSPropertyOp29
 70
     1
102
RTVSPropertyOp30
 70
     1
102
RTVSPropertyOp31
 70
     1
102
RTVSPropertyOp32
 70
     1
  0
ENDSEC
  0
EOF
