  0
SECTION
  2
HEADER
  9
$ACADVER
  1
AC1015
  9
$ACADMAINTVER
 70
    20
  9
$DWGCODEPAGE
  3
ANSI_1252
  9
$INSBASE
 10
0.0
 20
0.0
 30
0.0
  9
$EXTMIN
 10
-0.0398992002017167
 20
-0.0181263349739993
 30
-0.0000000349181948
  9
$EXTMAX
 10
297.0413759999397
 20
210.0173506464261
 30
0.0000000814935747
  9
$LIMMIN
 10
0.0
 20
0.0
  9
$LIMMAX
 10
210.0
 20
297.0000000000001
  9
$ORTHOMODE
 70
     1
  9
$REGENMODE
 70
     1
  9
$FILLMODE
 70
     1
  9
$QTEXTMODE
 70
     0
  9
$MIRRTEXT
 70
     0
  9
$LTSCALE
 40
10.0
  9
$ATTMODE
 70
     1
  9
$TEXTSIZE
 40
2.5
  9
$TRACEWID
 40
1.0
  9
$TEXTSTYLE
  7
RomanS
  9
$CLAYER
  8
0
  9
$CELTYPE
  6
ByLayer
  9
$CECOLOR
 62
   256
  9
$CELTSCALE
 40
1.0
  9
$DISPSILH
 70
     0
  9
$DIMSCALE
 40
1.0
  9
$DIMASZ
 40
2.5
  9
$DIMEXO
 40
0.625
  9
$DIMDLI
 40
3.75
  9
$DIMRND
 40
0.0
  9
$DIMDLE
 40
0.0
  9
$DIMEXE
 40
1.25
  9
$DIMTP
 40
0.0
  9
$DIMTM
 40
0.0
  9
$DIMTXT
 40
2.5
  9
$DIMCEN
 40
2.5
  9
$DIMTSZ
 40
0.0
  9
$DIMTOL
 70
     0
  9
$DIMLIM
 70
     0
  9
$DIMTIH
 70
     0
  9
$DIMTOH
 70
     0
  9
$DIMSE1
 70
     0
  9
$DIMSE2
 70
     0
  9
$DIMTAD
 70
     1
  9
$DIMZIN
 70
     8
  9
$DIMBLK
  1
Oblique
  9
$DIMASO
 70
     1
  9
$DIMSHO
 70
     1
  9
$DIMPOST
  1

  9
$DIMAPOST
  1

  9
$DIMALT
 70
     0
  9
$DIMALTD
 70
     3
  9
$DIMALTF
 40
0.03937007874016
  9
$DIMLFAC
 40
1.0
  9
$DIMTOFL
 70
     1
  9
$DIMTVP
 40
0.0
  9
$DIMTIX
 70
     0
  9
$DIMSOXD
 70
     0
  9
$DIMSAH
 70
     0
  9
$DIMBLK1
  1

  9
$DIMBLK2
  1

  9
$DIMSTYLE
  2
IDEAL Holz
  9
$DIMCLRD
 70
     0
  9
$DIMCLRE
 70
     0
  9
$DIMCLRT
 70
     0
  9
$DIMTFAC
 40
1.0
  9
$DIMGAP
 40
0.625
  9
$DIMJUST
 70
     0
  9
$DIMSD1
 70
     0
  9
$DIMSD2
 70
     0
  9
$DIMTOLJ
 70
     0
  9
$DIMTZIN
 70
     8
  9
$DIMALTZ
 70
     0
  9
$DIMALTTZ
 70
     0
  9
$DIMUPT
 70
     0
  9
$DIMDEC
 70
     2
  9
$DIMTDEC
 70
     2
  9
$DIMALTU
 70
     2
  9
$DIMALTTD
 70
     3
  9
$DIMTXSTY
  7
RomanS
  9
$DIMAUNIT
 70
     0
  9
$DIMADEC
 70
     0
  9
$DIMALTRND
 40
0.0
  9
$DIMAZIN
 70
     0
  9
$DIMDSEP
 70
    44
  9
$DIMATFIT
 70
     3
  9
$DIMFRAC
 70
     0
  9
$DIMLDRBLK
  1
Oblique
  9
$DIMLUNIT
 70
     2
  9
$DIMLWD
 70
    -2
  9
$DIMLWE
 70
    -2
  9
$DIMTMOVE
 70
     0
  9
$LUNITS
 70
     2
  9
$LUPREC
 70
     4
  9
$SKETCHINC
 40
1.0
  9
$FILLETRAD
 40
0.0
  9
$AUNITS
 70
     0
  9
$AUPREC
 70
     0
  9
$MENU
  1
.
  9
$ELEVATION
 40
0.0
  9
$PELEVATION
 40
0.0
  9
$THICKNESS
 40
0.0
  9
$LIMCHECK
 70
     0
  9
$CHAMFERA
 40
0.0
  9
$CHAMFERB
 40
0.0
  9
$CHAMFERC
 40
0.0
  9
$CHAMFERD
 40
0.0
  9
$SKPOLY
 70
     0
  9
$TDCREATE
 40
2454312.596884572
  9
$TDUCREATE
 40
2454312.555217905
  9
$TDUPDATE
 40
2456632.335835660
  9
$TDUUPDATE
 40
2456632.294168993
  9
$TDINDWG
 40
0.4678176273
  9
$TDUSRTIMER
 40
0.4677496528
  9
$USRTIMER
 70
     1
  9
$ANGBASE
 50
0.0
  9
$ANGDIR
 70
     0
  9
$PDMODE
 70
     0
  9
$PDSIZE
 40
0.0
  9
$PLINEWID
 40
0.0
  9
$SPLFRAME
 70
     0
  9
$SPLINETYPE
 70
     6
  9
$SPLINESEGS
 70
     8
  9
$HANDSEED
  5
509B
  9
$SURFTAB1
 70
     6
  9
$SURFTAB2
 70
     6
  9
$SURFTYPE
 70
     6
  9
$SURFU
 70
     6
  9
$SURFV
 70
     6
  9
$UCSBASE
  2

  9
$UCSNAME
  2

  9
$UCSORG
 10
0.0
 20
0.0
 30
0.0
  9
$UCSXDIR
 10
1.0
 20
0.0
 30
0.0
  9
$UCSYDIR
 10
0.0
 20
1.0
 30
0.0
  9
$UCSORTHOREF
  2

  9
$UCSORTHOVIEW
 70
     0
  9
$UCSORGTOP
 10
0.0
 20
0.0
 30
0.0
  9
$UCSORGBOTTOM
 10
0.0
 20
0.0
 30
0.0
  9
$UCSORGLEFT
 10
0.0
 20
0.0
 30
0.0
  9
$UCSORGRIGHT
 10
0.0
 20
0.0
 30
0.0
  9
$UCSORGFRONT
 10
0.0
 20
0.0
 30
0.0
  9
$UCSORGBACK
 10
0.0
 20
0.0
 30
0.0
  9
$PUCSBASE
  2

  9
$PUCSNAME
  2

  9
$PUCSORG
 10
0.0
 20
0.0
 30
0.0
  9
$PUCSXDIR
 10
1.0
 20
0.0
 30
0.0
  9
$PUCSYDIR
 10
0.0
 20
1.0
 30
0.0
  9
$PUCSORTHOREF
  2

  9
$PUCSORTHOVIEW
 70
     0
  9
$PUCSORGTOP
 10
0.0
 20
0.0
 30
0.0
  9
$PUCSORGBOTTOM
 10
0.0
 20
0.0
 30
0.0
  9
$PUCSORGLEFT
 10
0.0
 20
0.0
 30
0.0
  9
$PUCSORGRIGHT
 10
0.0
 20
0.0
 30
0.0
  9
$PUCSORGFRONT
 10
0.0
 20
0.0
 30
0.0
  9
$PUCSORGBACK
 10
0.0
 20
0.0
 30
0.0
  9
$USERI1
 70
     0
  9
$USERI2
 70
     0
  9
$USERI3
 70
     0
  9
$USERI4
 70
     0
  9
$USERI5
 70
     0
  9
$USERR1
 40
0.0
  9
$USERR2
 40
0.0
  9
$USERR3
 40
0.0
  9
$USERR4
 40
0.0
  9
$USERR5
 40
0.0
  9
$WORLDVIEW
 70
     1
  9
$SHADEDGE
 70
     3
  9
$SHADEDIF
 70
    70
  9
$TILEMODE
 70
     1
  9
$MAXACTVP
 70
    64
  9
$PINSBASE
 10
0.0
 20
0.0
 30
0.0
  9
$PLIMCHECK
 70
     0
  9
$PEXTMIN
 10
-6.009141920275395
 20
-6.006510555385091
 30
-0.0015258207003583
  9
$PEXTMAX
 10
290.9275986943447
 20
203.9797365661948
 30
0.0000000349246037
  9
$PLIMMIN
 10
-5.999987840652463
 20
-6.0
  9
$PLIMMAX
 10
291.0318419933318
 20
203.9733276367186
  9
$UNITMODE
 70
     0
  9
$VISRETAIN
 70
     1
  9
$PLINEGEN
 70
     0
  9
$PSLTSCALE
 70
     1
  9
$TREEDEPTH
 70
  3020
  9
$CMLSTYLE
  2
Standard
  9
$CMLJUST
 70
     0
  9
$CMLSCALE
 40
20.0
  9
$PROXYGRAPHICS
 70
     1
  9
$MEASUREMENT
 70
     1
  9
$CELWEIGHT
370
    -1
  9
$ENDCAPS
280
     0
  9
$JOINSTYLE
280
     0
  9
$LWDISPLAY
290
     0
  9
$INSUNITS
 70
     4
  9
$HYPERLINKBASE
  1

  9
$STYLESHEET
  1
GRAYSCALE.CTB
  9
$XEDIT
290
     1
  9
$CEPSNTYPE
380
     0
  9
$PSTYLEMODE
290
     1
  9
$FINGERPRINTGUID
  2
{8CA26089-D00B-4314-BB02-0A8E677C406F}
  9
$VERSIONGUID
  2
{F83EDE4B-4FD4-4105-BFD4-80D9CD8C2EC8}
  9
$EXTNAMES
290
     1
  9
$PSVPSCALE
 40
1.0
  9
$OLESTARTUP
290
     0
  0
ENDSEC
  0
SECTION
  2
CLASSES
  0
CLASS
  1
ACDBDICTIONARYWDFLT
  2
AcDbDictionaryWithDefault
  3
ObjectDBX Classes
 90
        0
280
     0
281
     0
  0
CLASS
  1
DICTIONARYVAR
  2
AcDbDictionaryVar
  3
ObjectDBX Classes
 90
        0
280
     0
281
     0
  0
CLASS
  1
TABLESTYLE
  2
AcDbTableStyle
  3
ObjectDBX Classes
 90
     4095
280
     0
281
     0
  0
CLASS
  1
MATERIAL
  2
AcDbMaterial
  3
ObjectDBX Classes
 90
     1153
280
     0
281
     0
  0
CLASS
  1
VISUALSTYLE
  2
AcDbVisualStyle
  3
ObjectDBX Classes
 90
     4095
280
     0
281
     0
  0
CLASS
  1
SORTENTSTABLE
  2
AcDbSortentsTable
  3
ObjectDBX Classes
 90
        0
280
     0
281
     0
  0
CLASS
  1
DIMASSOC
  2
AcDbDimAssoc
  3
"AcDbDimAssoc|Product Desc:     AcDim ARX App For Dimension|Company:          Autodesk, Inc.|WEB Address:      www.autodesk.com"
 90
        0
280
     0
281
     0
  0
CLASS
  1
ACAD_EVALUATION_GRAPH
  2
AcDbEvalGraph
  3
ObjectDBX Classes
 90
    33921
280
     0
281
     0
  0
CLASS
  1
ACAECUSTOBJ
  2
AcAeEditorObj
  3
AcAeEditorObj
 90
    33792
280
     0
281
     0
  0
CLASS
  1
ACDB_DYNAMICBLOCKPURGEPREVENTER_VERSION
  2
AcDbDynamicBlockPurgePreventer
  3
ObjectDBX Classes
 90
    33921
280
     0
281
     0
  0
CLASS
  1
ACDB_BLOCKREPRESENTATION_DATA
  2
AcDbBlockRepresentationData
  3
ObjectDBX Classes
 90
    33921
280
     0
281
     0
  0
CLASS
  1
SCALE
  2
AcDbScale
  3
ObjectDBX Classes
 90
     1153
280
     0
281
     0
  0
CLASS
  1
MLEADERSTYLE
  2
AcDbMLeaderStyle
  3
ACDB_MLEADERSTYLE_CLASS
 90
     4095
280
     0
281
     0
  0
CLASS
  1
CELLSTYLEMAP
  2
AcDbCellStyleMap
  3
ObjectDBX Classes
 90
     1152
280
     0
281
     0
  0
CLASS
  1
ACDBPLACEHOLDER
  2
AcDbPlaceHolder
  3
ObjectDBX Classes
 90
        0
280
     0
281
     0
  0
CLASS
  1
LAYOUT
  2
AcDbLayout
  3
ObjectDBX Classes
 90
        0
280
     0
281
     0
  0
CLASS
  1
EXACXREFPANELOBJECT
  2
ExAcXREFPanelObject
  3
EXAC_ESW
 90
     1025
280
     0
281
     0
  0
CLASS
  1
NPOCOLLECTION
  2
AcDbImpNonPersistentObjectsCollection
  3
ObjectDBX Classes
 90
     1153
280
     0
281
     0
  0
ENDSEC
  0
SECTION
  2
TABLES
  0
TABLE
  2
VPORT
  5
8
330
0
100
AcDbSymbolTable
 70
     1
  0
VPORT
  5
EA
330
8
100
AcDbSymbolTableRecord
100
AcDbViewportTableRecord
  2
*Active
 70
     0
 10
0.0
 20
0.0
 11
1.0
 21
1.0
 12
148.5007383998689
 22
104.999612155726
 13
0.0
 23
0.0
 14
10.0
 24
10.0
 15
10.0
 25
10.0
 16
0.0
 26
0.0
 36
1.0
 17
0.0
 27
0.0
 37
0.0
 40
211.8357810698121
 41
1.849785407725321
 42
50.0
 43
0.0
 44
0.0
 50
0.0
 51
0.0
 71
     0
 72
  1000
 73
     1
 74
     3
 75
     0
 76
     0
 77
     0
 78
     0
281
     0
 65
     1
110
0.0
120
0.0
130
0.0
111
1.0
121
0.0
131
0.0
112
0.0
122
1.0
132
0.0
 79
     0
146
0.0
1001
ACAD_NAV_VCDISPLAY
1070
     3
  0
ENDTAB
  0
TABLE
  2
LTYPE
  5
5
330
0
100
AcDbSymbolTable
 70
     3
  0
LTYPE
  5
14
330
5
100
AcDbSymbolTableRecord
100
AcDbLinetypeTableRecord
  2
ByBlock
 70
     0
  3

 72
    65
 73
     0
 40
0.0
  0
LTYPE
  5
15
330
5
100
AcDbSymbolTableRecord
100
AcDbLinetypeTableRecord
  2
ByLayer
 70
     0
  3

 72
    65
 73
     0
 40
0.0
  0
LTYPE
  5
16
330
5
100
AcDbSymbolTableRecord
100
AcDbLinetypeTableRecord
  2
Continuous
 70
     0
  3
Solid line
 72
    65
 73
     0
 40
0.0
  0
LTYPE
  5
59A
330
5
100
AcDbSymbolTableRecord
100
AcDbLinetypeTableRecord
  2
VERDECKT
 70
     0
  3
Verdeckt __ __ __ __ __ __ __ __ __ __ __ __ __
 72
    65
 73
     2
 40
0.375
 49
0.25
 74
     0
 49
-0.125
 74
     0
  0
LTYPE
  5
212B
330
5
100
AcDbSymbolTableRecord
100
AcDbLinetypeTableRecord
  2
STRICHPUNKT
 70
     0
  3
Strichpunkt __ . __ . __ . __ . __ . __ . __ . 
 72
    65
 73
     4
 40
1.0
 49
0.5
 74
     0
 49
-0.25
 74
     0
 49
0.0
 74
     0
 49
-0.25
 74
     0
  0
ENDTAB
  0
TABLE
  2
LAYER
  5
2
102
{ACAD_XDICTIONARY
360
5AF
102
}
330
0
100
AcDbSymbolTable
 70
    15
  0
LAYER
  5
10
102
{ACAD_XDICTIONARY
360
5039
102
}
330
2
100
AcDbSymbolTableRecord
100
AcDbLayerTableRecord
  2
0
 70
     0
 62
     7
  6
Continuous
370
    -3
390
F
  0
LAYER
  5
59C
330
2
100
AcDbSymbolTableRecord
100
AcDbLayerTableRecord
  2
Defpoints
 70
     0
 62
     7
  6
Continuous
290
     0
370
    -3
390
F
  0
LAYER
  5
59F
102
{ACAD_XDICTIONARY
360
503B
102
}
330
2
100
AcDbSymbolTableRecord
100
AcDbLayerTableRecord
  2
Dichtungen
 70
     0
 62
     6
  6
Continuous
370
    -3
390
F
1001
AcAecLayerStandard
1000

1000

  0
LAYER
  5
5A0
102
{ACAD_XDICTIONARY
360
503D
102
}
330
2
100
AcDbSymbolTableRecord
100
AcDbLayerTableRecord
  2
Glasleiste
 70
     0
 62
    84
  6
Continuous
370
    -3
390
F
  0
LAYER
  5
5A1
102
{ACAD_XDICTIONARY
360
503F
102
}
330
2
100
AcDbSymbolTableRecord
100
AcDbLayerTableRecord
  2
Blendrahmen
 70
     0
 62
     5
  6
Continuous
370
    -3
390
F
1001
AcAecLayerStandard
1000

1000

  0
LAYER
  5
5A2
102
{ACAD_XDICTIONARY
360
5041
102
}
330
2
100
AcDbSymbolTableRecord
100
AcDbLayerTableRecord
  2
Flügelrahmen
 70
     0
 62
    84
  6
Continuous
370
    -3
390
F
1001
AcAecLayerStandard
1000

1000

  0
LAYER
  5
5A3
102
{ACAD_XDICTIONARY
360
5043
102
}
330
2
100
AcDbSymbolTableRecord
100
AcDbLayerTableRecord
  2
Silikon
 70
     0
 62
    10
  6
Continuous
370
    -3
390
F
1001
AcAecLayerStandard
1000

1000

  0
LAYER
  5
212C
102
{ACAD_XDICTIONARY
360
5045
102
}
330
2
100
AcDbSymbolTableRecord
100
AcDbLayerTableRecord
  2
Schraffur
 70
     0
 62
   251
  6
Continuous
370
    -3
390
F
1001
AcAecLayerStandard
1000

1000

  0
LAYER
  5
212D
102
{ACAD_XDICTIONARY
360
5047
102
}
330
2
100
AcDbSymbolTableRecord
100
AcDbLayerTableRecord
  2
Schlitz-Zapfen
 70
     0
 62
   253
  6
STRICHPUNKT
370
    -3
390
F
1001
AcAecLayerStandard
1000

1000

  0
LAYER
  5
35E3
102
{ACAD_XDICTIONARY
360
5049
102
}
330
2
100
AcDbSymbolTableRecord
100
AcDbLayerTableRecord
  2
Bemaßung
 70
     0
 62
     1
  6
Continuous
370
    -3
390
F
1001
AcAecLayerStandard
1000

1000

  0
LAYER
  5
40BC
102
{ACAD_XDICTIONARY
360
504B
102
}
330
2
100
AcDbSymbolTableRecord
100
AcDbLayerTableRecord
  2
Fräsung
 70
     0
 62
   252
  6
VERDECKT
370
    -3
390
F
1001
AcAecLayerStandard
1000

1000

  0
LAYER
  5
4402
102
{ACAD_XDICTIONARY
360
504D
102
}
330
2
100
AcDbSymbolTableRecord
100
AcDbLayerTableRecord
  2
Beschläge
 70
     0
 62
   144
  6
Continuous
370
    -3
390
F
1001
AcAecLayerStandard
1000

1000

  0
LAYER
  5
47DC
102
{ACAD_XDICTIONARY
360
504F
102
}
330
2
100
AcDbSymbolTableRecord
100
AcDbLayerTableRecord
  2
Achse
 70
     0
 62
     7
  6
STRICHPUNKT
370
    -3
390
F
1001
AcAecLayerStandard
1000

1000

  0
LAYER
  5
4F07
102
{ACAD_XDICTIONARY
360
5051
102
}
330
2
100
AcDbSymbolTableRecord
100
AcDbLayerTableRecord
  2
Glas
 70
     0
 62
   141
  6
Continuous
370
    -3
390
F
  0
LAYER
  5
4F08
102
{ACAD_XDICTIONARY
360
5053
102
}
330
2
100
AcDbSymbolTableRecord
100
AcDbLayerTableRecord
  2
Aluhalter
 70
     0
 62
     3
  6
Continuous
370
    -3
390
F
1001
AcAecLayerStandard
1000

1000

  0
ENDTAB
  0
TABLE
  2
STYLE
  5
3
330
0
100
AcDbSymbolTable
 70
     2
  0
STYLE
  5
11
330
3
100
AcDbSymbolTableRecord
100
AcDbTextStyleTableRecord
  2
Standard
 70
     0
 40
0.0
 41
1.0
 50
0.0
 71
     0
 42
2.5
  3
txt
  4

  0
STYLE
  5
5AB
330
3
100
AcDbSymbolTableRecord
100
AcDbTextStyleTableRecord
  2
RomanS
 70
     0
 40
0.0
 41
0.7
 50
0.0
 71
     0
 42
2.5
  3
romans.shx
  4

  0
ENDTAB
  0
TABLE
  2
VIEW
  5
6
330
0
100
AcDbSymbolTable
 70
     0
  0
ENDTAB
  0
TABLE
  2
UCS
  5
7
330
0
100
AcDbSymbolTable
 70
     0
  0
ENDTAB
  0
TABLE
  2
APPID
  5
9
330
0
100
AcDbSymbolTable
 70
    11
  0
APPID
  5
12
330
9
100
AcDbSymbolTableRecord
100
AcDbRegAppTableRecord
  2
ACAD
 70
     0
  0
APPID
  5
9E
330
9
100
AcDbSymbolTableRecord
100
AcDbRegAppTableRecord
  2
ACAD_PSEXT
 70
     0
  0
APPID
  5
5AE
330
9
100
AcDbSymbolTableRecord
100
AcDbRegAppTableRecord
  2
AcAecLayerStandard
 70
     0
  0
APPID
  5
212E
330
9
100
AcDbSymbolTableRecord
100
AcDbRegAppTableRecord
  2
AcDbBlockRepETag
 70
     0
  0
APPID
  5
212F
330
9
100
AcDbSymbolTableRecord
100
AcDbRegAppTableRecord
  2
AcDbDynamicBlockGUID
 70
     0
  0
APPID
  5
29A6
330
9
100
AcDbSymbolTableRecord
100
AcDbRegAppTableRecord
  2
ACAUTHENVIRON
 70
     0
  0
APPID
  5
29C5
330
9
100
AcDbSymbolTableRecord
100
AcDbRegAppTableRecord
  2
AcDbDynamicBlockTrueName
 70
     0
  0
APPID
  5
29E7
330
9
100
AcDbSymbolTableRecord
100
AcDbRegAppTableRecord
  2
AcDbBlockRepBTag
 70
     0
  0
APPID
  5
4704
330
9
100
AcDbSymbolTableRecord
100
AcDbRegAppTableRecord
  2
ACAD_EXEMPT_FROM_CAD_STANDARDS
 70
     0
  0
APPID
  5
4FE8
330
9
100
AcDbSymbolTableRecord
100
AcDbRegAppTableRecord
  2
ACAD_NAV_VCDISPLAY
 70
     0
  0
APPID
  5
502C
330
9
100
AcDbSymbolTableRecord
100
AcDbRegAppTableRecord
  2
ACAD_MLEADERVER
 70
     0
  0
ENDTAB
  0
TABLE
  2
DIMSTYLE
  5
A
330
0
100
AcDbSymbolTable
 70
     2
100
AcDbDimStyleTable
 71
     1
340
4654
  0
DIMSTYLE
105
5AD
330
A
100
AcDbSymbolTableRecord
100
AcDbDimStyleTableRecord
  2
Standard
 70
     0
 41
0.5
 42
1.0
 43
2.0
 44
0.2
140
1.5
147
1.0
172
     1
271
     1
272
     1
340
11
371
     5
372
     5
  0
DIMSTYLE
105
4654
102
{ACAD_REACTORS
330
48D9
330
4922
330
495E
330
4976
330
498E
102
}
330
A
100
AcDbSymbolTableRecord
100
AcDbDimStyleTableRecord
  2
IDEAL Holz
 70
     0
 41
2.5
 42
0.625
 43
3.75
 44
1.25
 73
     0
 74
     0
 77
     1
 78
     8
140
2.5
141
2.5
143
0.03937007874016
147
0.625
171
     3
172
     1
271
     2
272
     2
274
     3
278
    44
283
     0
284
     8
340
5AB
341
3654
342
3654
  0
ENDTAB
  0
TABLE
  2
BLOCK_RECORD
  5
1
330
0
100
AcDbSymbolTable
 70
    12
  0
BLOCK_RECORD
  5
1F
102
{ACAD_XDICTIONARY
360
1979
102
}
330
1
100
AcDbSymbolTableRecord
100
AcDbBlockTableRecord
  2
*Model_Space
340
22
  0
BLOCK_RECORD
  5
D2
330
1
100
AcDbSymbolTableRecord
100
AcDbBlockTableRecord
  2
*Paper_Space
340
D3
  0
BLOCK_RECORD
  5
3654
330
1
100
AcDbSymbolTableRecord
100
AcDbBlockTableRecord
  2
_Oblique
340
0
102
{BLKREFS
331
4C25
331
4C26
331
4C2E
331
4C2F
331
4CF6
331
4CF7
331
4D1D
331
4D1E
331
4D38
331
4D39
102
}
  0
BLOCK_RECORD
  5
471F
330
1
100
AcDbSymbolTableRecord
100
AcDbBlockTableRecord
  2
I-BK-Tür_PZ
340
0
310
2800000020000000200000000100080000000000000400000000000000000000000000000000000000000000000080000080000000808000800000008000800080800000C0C0C000C0DCC000F0CAA6000020400000206000002080000020A0000020C0000020E00000400000004020000040400000406000004080000040A0
310
000040C0000040E00000600000006020000060400000606000006080000060A0000060C0000060E00000800000008020000080400000806000008080000080A0000080C0000080E00000A0000000A0200000A0400000A0600000A0800000A0A00000A0C00000A0E00000C0000000C0200000C0400000C0600000C0800000C0
310
A00000C0C00000C0E00000E0000000E0200000E0400000E0600000E0800000E0A00000E0C00000E0E00040000000400020004000400040006000400080004000A0004000C0004000E00040200000402020004020400040206000402080004020A0004020C0004020E000404000004040200040404000404060004040800040
310
40A0004040C0004040E00040600000406020004060400040606000406080004060A0004060C0004060E00040800000408020004080400040806000408080004080A0004080C0004080E00040A0000040A0200040A0400040A0600040A0800040A0A00040A0C00040A0E00040C0000040C0200040C0400040C0600040C08000
310
40C0A00040C0C00040C0E00040E0000040E0200040E0400040E0600040E0800040E0A00040E0C00040E0E00080000000800020008000400080006000800080008000A0008000C0008000E00080200000802020008020400080206000802080008020A0008020C0008020E00080400000804020008040400080406000804080
310
008040A0008040C0008040E00080600000806020008060400080606000806080008060A0008060C0008060E00080800000808020008080400080806000808080008080A0008080C0008080E00080A0000080A0200080A0400080A0600080A0800080A0A00080A0C00080A0E00080C0000080C0200080C0400080C0600080C0
310
800080C0A00080C0C00080C0E00080E0000080E0200080E0400080E0600080E0800080E0A00080E0C00080E0E000C0000000C0002000C0004000C0006000C0008000C000A000C000C000C000E000C0200000C0202000C0204000C0206000C0208000C020A000C020C000C020E000C0400000C0402000C0404000C0406000C0
310
408000C040A000C040C000C040E000C0600000C0602000C0604000C0606000C0608000C060A000C060C000C060E000C0800000C0802000C0804000C0806000C0808000C080A000C080C000C080E000C0A00000C0A02000C0A04000C0A06000C0A08000C0A0A000C0A0C000C0A0E000C0C00000C0C02000C0C04000C0C06000
310
C0C08000C0C0A000F0FBFF00A4A0A000808080000000FF0000FF000000FFFF00FF000000FF00FF00FFFF0000FFFFFF0008080808080808080808080808080808080808080808080808080808080808080808080808080808080808080808080808080808080808080808080808080808080808080808080808080808080808
310
08080808080808080808080808080808080808080808080808080808080808080808080808080808080808080808080808080808080808080808080808080808080808080808080808080808080808080808080808080808080808080808080808080808080808080808080808080808080808080808080808080808080808
310
08080808080808080808080808080808080808080808080808080808080808080808080808080808080808080808080808080808080808080808080808080808080808080808080808080808080808080808080808080808080808080808080808080808080808080808080808080808080808080808080808080808080808
310
08080808080808080808080808080808080808080808080808080808080808080808080808080808080808080808080808080808080808080808080808080808080808080808080808080808080808080808080808080808080808080808080808080808080808080808080808080808080808080808080808080808080808
310
08080808080808080808080808080808080808080808080808080808080808080808080808080808080808080808080808080808080808080808080808080808520000000052080808080808080808080808080808080808080808080808080852000000525208080808080808080808080808080808080808080808080808
310
08520000085252080808080808080808080808080808080808080808080808080852000852520008080808080808080808080808080808080808080808080808080052520852000808080808080808080808080808080808080808080808080808005208085200080808080808080808080808080808080808080808080808
310
08080052080852000808080808080808080808080808080808080808080808080808525208520000080808080808080808080808080808080808080808080808080800520852000008080808080808080808080808080808080808080808080808080052525200000808080808080808080808080808080808080808080808
310
08080800005252000008080808080808080808080808080808080808080808080808080000525200000808080808080808080808080808080808080808080808080808000052085200080808080808080808080808080808080808080808080808080800005200005208080808080808080808080808080808080808080808
310
0808080800000000000008080808080808080808080808080808080808080808080808080808080808080808080808080808080808080808
102
{BLKREFS
331
4763
102
}
1001
ACAD
1000
DesignCenter Data
1002
{
1070
     1
1070
     4
1002
}
  0
BLOCK_RECORD
  5
477F
102
{ACAD_XDICTIONARY
360
47B0
102
}
330
1
100
AcDbSymbolTableRecord
100
AcDbBlockTableRecord
  2
I-BK-Tür_Schwelle_PZ
340
0
310
2800000020000000200000000100080000000000000400000000000000000000000000000000000000000000000080000080000000808000800000008000800080800000C0C0C000C0DCC000F0CAA6000020400000206000002080000020A0000020C0000020E00000400000004020000040400000406000004080000040A0
310
000040C0000040E00000600000006020000060400000606000006080000060A0000060C0000060E00000800000008020000080400000806000008080000080A0000080C0000080E00000A0000000A0200000A0400000A0600000A0800000A0A00000A0C00000A0E00000C0000000C0200000C0400000C0600000C0800000C0
310
A00000C0C00000C0E00000E0000000E0200000E0400000E0600000E0800000E0A00000E0C00000E0E00040000000400020004000400040006000400080004000A0004000C0004000E00040200000402020004020400040206000402080004020A0004020C0004020E000404000004040200040404000404060004040800040
310
40A0004040C0004040E00040600000406020004060400040606000406080004060A0004060C0004060E00040800000408020004080400040806000408080004080A0004080C0004080E00040A0000040A0200040A0400040A0600040A0800040A0A00040A0C00040A0E00040C0000040C0200040C0400040C0600040C08000
310
40C0A00040C0C00040C0E00040E0000040E0200040E0400040E0600040E0800040E0A00040E0C00040E0E00080000000800020008000400080006000800080008000A0008000C0008000E00080200000802020008020400080206000802080008020A0008020C0008020E00080400000804020008040400080406000804080
310
008040A0008040C0008040E00080600000806020008060400080606000806080008060A0008060C0008060E00080800000808020008080400080806000808080008080A0008080C0008080E00080A0000080A0200080A0400080A0600080A0800080A0A00080A0C00080A0E00080C0000080C0200080C0400080C0600080C0
310
800080C0A00080C0C00080C0E00080E0000080E0200080E0400080E0600080E0800080E0A00080E0C00080E0E000C0000000C0002000C0004000C0006000C0008000C000A000C000C000C000E000C0200000C0202000C0204000C0206000C0208000C020A000C020C000C020E000C0400000C0402000C0404000C0406000C0
310
408000C040A000C040C000C040E000C0600000C0602000C0604000C0606000C0608000C060A000C060C000C060E000C0800000C0802000C0804000C0806000C0808000C080A000C080C000C080E000C0A00000C0A02000C0A04000C0A06000C0A08000C0A0A000C0A0C000C0A0E000C0C00000C0C02000C0C04000C0C06000
310
C0C08000C0C0A000F0FBFF00A4A0A000808080000000FF0000FF000000FFFF00FF000000FF00FF00FFFF0000FFFFFF0008080808080808080808080808080808080808080808080808080808080808080808080808080808000000000000000000000000080808080808080808080808080808080808080800000000000000
310
00000000000808080808080808080808080808080808080808000000000000000000000000080808080808080808080808080808080808080800000000000008080000000008080808080808080808080808080808080808080000000808080808000000000808080808080808080808080808080808080808000000080808
310
08000800000008080808080808080808080808080808080808080000000808080008080000000808080808080808080808080808080808080808000000080800080808000000080808080808080808080808080808080808080800000008080008080800000008080808080808080808080808080808080808080000000800
310
08080808000000080808080808080808080808080808080808080800000000080808080000000008080808080808080808080808080808080808080000000808080808000000000808080808080808080808080808080808080808000000080808080800000000080808080808080808080808080808080808080800000008
310
08080808000000000808080808080808080808080808080808080808000000080808080800000000080808080808080808080808080808080808080800000000080808000800000008080808080808080808080808080808080808080000000008080800080000000808080808080808080808080808080808080808000000
310
00080808000800000008080808080808080808080808080808080808080000000008080800080000000808080808080808080808080808080808080808000000000008080008000000080808080808080808080808080808080808080800000008000800080800000008080808080808080808080808080808080808080000
310
00080000000808000000080808080808080808080808080808080808080800000008000800080800000008080808080808080808080808080808080808080000000800080008080000000808080808080808080808080808080808080808000000080008000008000000080808080808080808080808080808080808080800
310
00000800080008000000000808080808080808080808080808080808080808000000080800080808000000080808080808080808080808080808080808080800000000000000000000000008080808080808080808080808080808080808080000000000000000000000000808080808080808080808080808080808080808
310
0000000000000000000000000808080808080808080808080808080808080808080808080808080808080808080808080808080808080808
102
{BLKREFS
331
4797
102
}
1001
AcDbDynamicBlockGUID
1000
{E1D6CC73-5BA7-468F-8C02-6BAC10592558}
1001
AcDbBlockRepETag
1070
     1
1071
       21
1001
ACAD
1000
DesignCenter Data
1002
{
1070
     1
1070
     4
1002
}
  0
BLOCK_RECORD
  5
48DA
330
1
100
AcDbSymbolTableRecord
100
AcDbBlockTableRecord
  2
*D3
340
0
  0
BLOCK_RECORD
  5
4923
330
1
100
AcDbSymbolTableRecord
100
AcDbBlockTableRecord
  2
*D4
340
0
  0
BLOCK_RECORD
  5
495F
330
1
100
AcDbSymbolTableRecord
100
AcDbBlockTableRecord
  2
*D5
340
0
  0
BLOCK_RECORD
  5
4977
330
1
100
AcDbSymbolTableRecord
100
AcDbBlockTableRecord
  2
*D6
340
0
  0
BLOCK_RECORD
  5
498F
330
1
100
AcDbSymbolTableRecord
100
AcDbBlockTableRecord
  2
*D7
340
0
  0
BLOCK_RECORD
  5
4CC8
102
{ACAD_XDICTIONARY
360
4EBA
102
}
330
1
100
AcDbSymbolTableRecord
100
AcDbBlockTableRecord
  2
D-Mitteldichtung
340
0
102
{BLKREFS
331
4CE1
102
}
1001
AcDbDynamicBlockGUID
1000
{994BD657-5F22-4822-8796-65F9D5F71CB6}
1001
AcDbBlockRepETag
1070
     1
1071
        5
1001
ACAD
1000
DesignCenter Data
1002
{
1070
     1
1070
     4
1002
}
  0
BLOCK_RECORD
  5
4CD1
102
{ACAD_XDICTIONARY
360
4EDA
102
}
330
1
100
AcDbSymbolTableRecord
100
AcDbBlockTableRecord
  2
D-Überschlag
340
0
102
{BLKREFS
331
4CE3
102
}
1001
AcDbDynamicBlockGUID
1000
{2F67F9A2-9217-4368-ADB4-9260C895F8D3}
1001
AcDbBlockRepETag
1070
     1
1071
        3
1001
ACAD
1000
DesignCenter Data
1002
{
1070
     1
1070
     4
1002
}
  0
BLOCK_RECORD
  5
4F41
102
{ACAD_XDICTIONARY
360
4F42
102
}
330
1
100
AcDbSymbolTableRecord
100
AcDbBlockTableRecord
  2
V-GLrust waagr1
340
0
102
{BLKREFS
331
4F5D
102
}
1001
AcDbDynamicBlockGUID
1000
{69E59C0E-BB7B-4341-B433-8A98B0B8616B}
1001
AcDbBlockRepETag
1070
     1
1071
       19
1001
ACAD
1000
DesignCenter Data
1002
{
1070
     1
1070
     4
1002
}
  0
BLOCK_RECORD
  5
4F65
102
{ACAD_XDICTIONARY
360
4F66
102
}
330
1
100
AcDbSymbolTableRecord
100
AcDbBlockTableRecord
  2
Glas 36mm un IV
340
0
102
{BLKREFS
331
4F8B
102
}
1001
AcDbDynamicBlockGUID
1000
{11ACCD9E-40B3-440F-A65B-E3683F22224A}
1001
AcDbBlockRepETag
1070
     1
1071
       33
1001
ACAD
1000
DesignCenter Data
1002
{
1070
     1
1070
     4
1002
}
  0
ENDTAB
  0
ENDSEC
  0
SECTION
  2
BLOCKS
  0
BLOCK
  5
20
330
1F
100
AcDbEntity
  8
0
100
AcDbBlockBegin
  2
*Model_Space
 70
     0
 10
0.0
 20
0.0
 30
0.0
  3
*Model_Space
  1

  0
ENDBLK
  5
21
330
1F
100
AcDbEntity
  8
0
100
AcDbBlockEnd
  0
BLOCK
  5
D4
330
D2
100
AcDbEntity
 67
     1
  8
0
100
AcDbBlockBegin
  2
*Paper_Space
 70
     0
 10
0.0
 20
0.0
 30
0.0
  3
*Paper_Space
  1

  0
ENDBLK
  5
D5
330
D2
100
AcDbEntity
 67
     1
  8
0
100
AcDbBlockEnd
  0
BLOCK
  5
3656
330
3654
100
AcDbEntity
  8
0
100
AcDbBlockBegin
  2
_Oblique
 70
     0
 10
0.0
 20
0.0
 30
0.0
  3
_Oblique
  1

  0
LINE
  5
3655
330
3654
100
AcDbEntity
  8
0
  6
ByBlock
 62
     0
370
    -2
100
AcDbLine
 10
-0.5
 20
-0.5
 30
0.0
 11
0.5
 21
0.5
 31
0.0
  0
ENDBLK
  5
3657
330
3654
100
AcDbEntity
  8
0
100
AcDbBlockEnd
  0
BLOCK
  5
4720
330
471F
100
AcDbEntity
  8
0
100
AcDbBlockBegin
  2
I-BK-Tür_PZ
 70
     0
 10
0.0
 20
0.0
 30
0.0
  3
I-BK-Tür_PZ
  1

  0
LWPOLYLINE
  5
4722
330
471F
100
AcDbEntity
  8
0
100
AcDbPolyline
 90
        4
 70
     1
 43
0.0
 10
-20.0
 20
0.0
 10
-4.0
 20
0.0
 10
-4.0
 20
40.0
 10
-20.0
 20
40.0
1001
AcDbBlockRepETag
1070
     1
1071
        0
1005
4722
  0
LWPOLYLINE
  5
4723
330
471F
100
AcDbEntity
  8
0
100
AcDbPolyline
 90
        4
 70
     1
 43
0.0
 10
-19.25999999999999
 20
1.089999999999984
 10
-4.740000000000009
 20
1.089999999999984
 10
-4.740000000000009
 20
39.25999999999999
 10
-19.25999999999999
 20
39.25999999999999
1001
AcDbBlockRepETag
1070
     1
1071
        1
1005
4723
  0
LWPOLYLINE
  5
4724
330
471F
100
AcDbEntity
  8
0
100
AcDbPolyline
 90
        4
 70
     1
 43
0.0
 10
-17.55999999999994
 20
2.789999999999998
 10
-6.439999999999827
 20
2.789999999999998
 10
-6.439999999999827
 20
38.09999999999999
 10
-17.55999999999994
 20
38.09999999999999
1001
AcDbBlockRepETag
1070
     1
1071
        2
1005
4724
  0
LWPOLYLINE
  5
4725
330
471F
100
AcDbEntity
  8
0
100
AcDbPolyline
 90
        4
 70
     1
 43
0.0
 10
-17.15999999999985
 20
3.18999999999999
 10
-6.839999999999918
 20
3.18999999999999
 10
-6.839999999999918
 20
37.7
 10
-17.15999999999985
 20
37.7
1001
AcDbBlockRepETag
1070
     1
1071
        3
1005
4725
  0
LINE
  5
4726
330
471F
100
AcDbEntity
  8
0
100
AcDbLine
 10
-19.25999999999999
 20
1.209999999999987
 30
0.0
 11
-20.0
 21
1.209999999999987
 31
0.0
1001
AcDbBlockRepETag
1070
     1
1071
        4
1005
4726
  0
LINE
  5
4727
330
471F
100
AcDbEntity
  8
0
100
AcDbLine
 10
-4.740000000000009
 20
1.209999999999987
 30
0.0
 11
-4.0
 21
1.209999999999987
 31
0.0
1001
AcDbBlockRepETag
1070
     1
1071
        5
1005
4727
  0
LINE
  5
4728
330
471F
100
AcDbEntity
  8
0
100
AcDbLine
 10
-20.0
 20
39.13999999999998
 30
0.0
 11
-19.25999999999999
 21
39.13999999999998
 31
0.0
1001
AcDbBlockRepETag
1070
     1
1071
        6
1005
4728
  0
LINE
  5
4729
330
471F
100
AcDbEntity
  8
0
100
AcDbLine
 10
-4.740000000000009
 20
39.13999999999998
 30
0.0
 11
-4.0
 21
39.13999999999998
 31
0.0
1001
AcDbBlockRepETag
1070
     1
1071
        7
1005
4729
  0
LINE
  5
472A
330
471F
100
AcDbEntity
  8
0
100
AcDbLine
 10
-17.55999999999994
 20
38.09999999999999
 30
0.0
 11
-17.55999999999994
 21
39.25999999999999
 31
0.0
1001
AcDbBlockRepETag
1070
     1
1071
        8
1005
472A
  0
LINE
  5
472B
330
471F
100
AcDbEntity
  8
0
100
AcDbLine
 10
-17.55999999999994
 20
2.789999999999998
 30
0.0
 11
-17.55999999999994
 21
1.089999999999984
 31
0.0
1001
AcDbBlockRepETag
1070
     1
1071
        9
1005
472B
  0
LINE
  5
472C
330
471F
100
AcDbEntity
  8
0
100
AcDbLine
 10
-6.439999999999827
 20
2.789999999999998
 30
0.0
 11
-6.439999999999827
 21
1.089999999999984
 31
0.0
1001
AcDbBlockRepETag
1070
     1
1071
       10
1005
472C
  0
LINE
  5
472D
330
471F
100
AcDbEntity
  8
0
100
AcDbLine
 10
-6.439999999999827
 20
38.09999999999999
 30
0.0
 11
-6.439999999999827
 21
39.25999999999999
 31
0.0
1001
AcDbBlockRepETag
1070
     1
1071
       11
1005
472D
  0
LINE
  5
472E
330
471F
100
AcDbEntity
  8
0
100
AcDbLine
 10
-6.839999999999918
 20
37.7
 30
0.0
 11
-6.439999999999827
 21
38.09999999999999
 31
0.0
1001
AcDbBlockRepETag
1070
     1
1071
       12
1005
472E
  0
LINE
  5
472F
330
471F
100
AcDbEntity
  8
0
100
AcDbLine
 10
-17.15999999999985
 20
37.7
 30
0.0
 11
-17.55999999999994
 21
38.09999999999999
 31
0.0
1001
AcDbBlockRepETag
1070
     1
1071
       13
1005
472F
  0
LINE
  5
4730
330
471F
100
AcDbEntity
  8
0
100
AcDbLine
 10
-17.55999999999994
 20
2.789999999999998
 30
0.0
 11
-17.15999999999985
 21
3.18999999999999
 31
0.0
1001
AcDbBlockRepETag
1070
     1
1071
       14
1005
4730
  0
LINE
  5
4731
330
471F
100
AcDbEntity
  8
0
100
AcDbLine
 10
-6.439999999999827
 20
2.789999999999998
 30
0.0
 11
-6.839999999999918
 21
3.18999999999999
 31
0.0
1001
AcDbBlockRepETag
1070
     1
1071
       15
1005
4731
  0
LINE
  5
4732
330
471F
100
AcDbEntity
  8
Schraffur
100
AcDbLine
 10
-4.740000000000009
 20
39.25999999999999
 30
0.0
 11
-19.25999999999999
 21
20.17499999999998
 31
0.0
1001
AcDbBlockRepETag
1070
     1
1071
       16
1005
4732
  0
LINE
  5
4733
330
471F
100
AcDbEntity
  8
Schraffur
100
AcDbLine
 10
-19.25999999999999
 20
20.17499999999998
 30
0.0
 11
-4.740000000000009
 21
1.089999999999984
 31
0.0
1001
AcDbBlockRepETag
1070
     1
1071
       17
1005
4733
  0
LINE
  5
4734
330
471F
100
AcDbEntity
  8
Schraffur
100
AcDbLine
 10
-4.740000000000009
 20
1.089999999999984
 30
0.0
 11
-12.0
 21
39.25999999999999
 31
0.0
1001
AcDbBlockRepETag
1070
     1
1071
       18
1005
4734
  0
LINE
  5
4735
330
471F
100
AcDbEntity
  8
Schraffur
100
AcDbLine
 10
-12.0
 20
39.25999999999999
 30
0.0
 11
-19.25999999999999
 21
1.089999999999984
 31
0.0
1001
AcDbBlockRepETag
1070
     1
1071
       19
1005
4735
  0
MTEXT
  5
4736
330
471F
100
AcDbEntity
  8
0
100
AcDbMText
 10
-16.68756210696028
 20
4.949861760079706
 30
0.0
 40
1.5
 41
18.74045823417145
 71
     1
 72
     5
  1
M1:50
  7
RomanS
 73
     1
 44
1.0
1001
AcDbBlockRepETag
1070
     1
1071
       20
1005
4736
1001
ACAD
1000
MTEXTBEGIN
1070
    73
1070
     1
1070
    44
1040
1.0
1070
    74
1070
     0
1000
MTEXTEND
1000
ACAD_MTEXT_DEFINED_HEIGHT_BEGIN
1070
    46
1040
48.0
1000
ACAD_MTEXT_DEFINED_HEIGHT_END
  0
ENDBLK
  5
4721
330
471F
100
AcDbEntity
  8
0
100
AcDbBlockEnd
  0
BLOCK
  5
4780
330
477F
100
AcDbEntity
  8
0
100
AcDbBlockBegin
  2
I-BK-Tür_Schwelle_PZ
 70
     0
 10
0.0
 20
0.0
 30
0.0
  3
I-BK-Tür_Schwelle_PZ
  1

  0
LWPOLYLINE
  5
479B
330
477F
100
AcDbEntity
  8
0
100
AcDbPolyline
 90
        4
 70
     1
 43
0.0
 10
-20.0
 20
0.0
 10
-4.0
 20
0.0
 10
-4.0
 20
40.0
 10
-20.0
 20
40.0
1001
AcDbBlockRepETag
1070
     1
1071
        0
1005
479B
  0
LWPOLYLINE
  5
479C
330
477F
100
AcDbEntity
  8
0
100
AcDbPolyline
 90
        4
 70
     1
 43
0.0
 10
-19.26
 20
0.1399999999999818
 10
-4.74000000000029
 20
0.1399999999999818
 10
-4.74000000000029
 20
39.25999999999998
 10
-19.26
 20
39.25999999999998
1001
AcDbBlockRepETag
1070
     1
1071
        1
1005
479C
  0
LWPOLYLINE
  5
479D
330
477F
100
AcDbEntity
  8
0
100
AcDbPolyline
 90
        4
 70
     1
 43
0.0
 10
-17.56
 20
1.839999999999981
 10
-6.439999999999997
 20
1.839999999999981
 10
-6.439999999999997
 20
38.09999999999997
 10
-17.56
 20
38.09999999999997
1001
AcDbBlockRepETag
1070
     1
1071
        2
1005
479D
  0
LWPOLYLINE
  5
479E
330
477F
100
AcDbEntity
  8
0
100
AcDbPolyline
 90
        4
 70
     1
 43
0.0
 10
-17.16000000000029
 20
2.240000000000017
 10
-6.839999999999997
 20
2.240000000000017
 10
-6.839999999999997
 20
37.69999999999998
 10
-17.16000000000029
 20
37.69999999999998
1001
AcDbBlockRepETag
1070
     1
1071
        3
1005
479E
  0
LINE
  5
479F
330
477F
100
AcDbEntity
  8
0
100
AcDbLine
 10
-19.26
 20
38.44
 30
0.0
 11
-20.0
 21
38.44
 31
0.0
1001
AcDbBlockRepETag
1070
     1
1071
        4
1005
479F
  0
LINE
  5
47A0
330
477F
100
AcDbEntity
  8
0
100
AcDbLine
 10
-4.74000000000029
 20
38.44
 30
0.0
 11
-4.0
 21
38.44
 31
0.0
1001
AcDbBlockRepETag
1070
     1
1071
        5
1005
47A0
  0
LINE
  5
47A1
330
477F
100
AcDbEntity
  8
0
100
AcDbLine
 10
-17.56
 20
38.09999999999997
 30
0.0
 11
-17.56
 21
39.25999999999998
 31
0.0
1001
AcDbBlockRepETag
1070
     1
1071
        6
1005
47A1
  0
LINE
  5
47A2
330
477F
100
AcDbEntity
  8
0
100
AcDbLine
 10
-6.439999999999997
 20
38.09999999999997
 30
0.0
 11
-6.439999999999997
 21
39.25999999999998
 31
0.0
1001
AcDbBlockRepETag
1070
     1
1071
        7
1005
47A2
  0
LINE
  5
47A3
330
477F
100
AcDbEntity
  8
0
100
AcDbLine
 10
-6.839999999999997
 20
37.69999999999998
 30
0.0
 11
-6.439999999999997
 21
38.09999999999997
 31
0.0
1001
AcDbBlockRepETag
1070
     1
1071
        8
1005
47A3
  0
LINE
  5
47A4
330
477F
100
AcDbEntity
  8
0
100
AcDbLine
 10
-17.16000000000029
 20
37.69999999999998
 30
0.0
 11
-17.56
 21
38.09999999999997
 31
0.0
1001
AcDbBlockRepETag
1070
     1
1071
        9
1005
47A4
  0
LINE
  5
47A5
330
477F
100
AcDbEntity
  8
0
100
AcDbLine
 10
-17.16000000000029
 20
2.240000000000017
 30
0.0
 11
-17.56
 21
1.839999999999981
 31
0.0
1001
AcDbBlockRepETag
1070
     1
1071
       10
1005
47A5
  0
LINE
  5
47A6
330
477F
100
AcDbEntity
  8
0
100
AcDbLine
 10
-6.839999999999997
 20
2.240000000000017
 30
0.0
 11
-6.439999999999997
 21
1.839999999999981
 31
0.0
1001
AcDbBlockRepETag
1070
     1
1071
       11
1005
47A6
  0
LINE
  5
47A7
330
477F
100
AcDbEntity
  8
0
100
AcDbLine
 10
-6.439999999999997
 20
1.839999999999981
 30
0.0
 11
-6.439999999999997
 21
0.1399999999999818
 31
0.0
1001
AcDbBlockRepETag
1070
     1
1071
       12
1005
47A7
  0
LINE
  5
47A8
330
477F
100
AcDbEntity
  8
0
100
AcDbLine
 10
-17.56
 20
1.839999999999981
 30
0.0
 11
-17.56
 21
0.1399999999999818
 31
0.0
1001
AcDbBlockRepETag
1070
     1
1071
       13
1005
47A8
  0
LINE
  5
47A9
330
477F
100
AcDbEntity
  8
0
100
AcDbLine
 10
-20.0
 20
0.2400000000000182
 30
0.0
 11
-19.26
 21
0.2400000000000182
 31
0.0
1001
AcDbBlockRepETag
1070
     1
1071
       14
1005
47A9
  0
LINE
  5
47AA
330
477F
100
AcDbEntity
  8
0
100
AcDbLine
 10
-4.74000000000029
 20
0.2400000000000182
 30
0.0
 11
-4.0
 21
0.2400000000000182
 31
0.0
1001
AcDbBlockRepETag
1070
     1
1071
       15
1005
47AA
  0
LINE
  5
47AB
330
477F
100
AcDbEntity
  8
0
100
AcDbLine
 10
-4.74000000000029
 20
0.1399999999999818
 30
0.0
 11
-19.26
 21
19.69999999999998
 31
0.0
1001
AcDbBlockRepETag
1070
     1
1071
       16
1005
47AB
  0
LINE
  5
47AC
330
477F
100
AcDbEntity
  8
0
100
AcDbLine
 10
-19.26
 20
19.69999999999998
 30
0.0
 11
-4.74000000000029
 21
39.25999999999998
 31
0.0
1001
AcDbBlockRepETag
1070
     1
1071
       17
1005
47AC
  0
LINE
  5
47AD
330
477F
100
AcDbEntity
  8
0
100
AcDbLine
 10
-19.26
 20
0.1399999999999818
 30
0.0
 11
-12.0
 21
39.25999999999998
 31
0.0
1001
AcDbBlockRepETag
1070
     1
1071
       18
1005
47AD
  0
LINE
  5
47AE
330
477F
100
AcDbEntity
  8
0
100
AcDbLine
 10
-12.0
 20
39.25999999999998
 30
0.0
 11
-4.74000000000029
 21
0.1399999999999818
 31
0.0
1001
AcDbBlockRepETag
1070
     1
1071
       19
1005
47AE
  0
MTEXT
  5
47AF
330
477F
100
AcDbEntity
  8
0
100
AcDbMText
 10
-16.7252733649296
 20
4.106993437511173
 30
0.0
 40
1.5
 41
18.74045823417145
 71
     1
 72
     5
  1
M1:50
  7
RomanS
 73
     1
 44
1.0
1001
AcDbBlockRepETag
1070
     1
1071
       20
1005
47AF
1001
ACAD
1000
MTEXTBEGIN
1070
    73
1070
     1
1070
    44
1040
1.0
1070
    74
1070
     0
1000
MTEXTEND
  0
ENDBLK
  5
4781
330
477F
100
AcDbEntity
  8
0
100
AcDbBlockEnd
  0
BLOCK
  5
48E4
330
48DA
100
AcDbEntity
  8
0
100
AcDbBlockBegin
  2
*D3
 70
     1
 10
0.0
 20
0.0
 30
0.0
  3
*D3
  1

  0
LINE
  5
4C22
330
48DA
100
AcDbEntity
  8
Bemaßung
 62
     0
370
    -2
100
AcDbLine
 10
189.5498966841914
 20
133.9842685720569
 30
0.0
 11
189.5498966841914
 21
134.6092685720569
 31
0.0
  0
LINE
  5
4C23
330
48DA
100
AcDbEntity
  8
Bemaßung
 62
     0
370
    -2
100
AcDbLine
 10
125.5498966841916
 20
133.9842685720569
 30
0.0
 11
125.5498966841916
 21
134.6092685720569
 31
0.0
  0
LINE
  5
4C24
330
48DA
100
AcDbEntity
  8
Bemaßung
 62
     0
370
    -2
100
AcDbLine
 10
189.5498966841914
 20
133.3592685720569
 30
0.0
 11
125.5498966841916
 21
133.3592685720569
 31
0.0
  0
INSERT
  5
4C25
330
48DA
100
AcDbEntity
  8
Bemaßung
 62
     0
370
    -2
100
AcDbBlockReference
  2
_Oblique
 10
189.5498966841914
 20
133.3592685720569
 30
0.0
 41
2.5
 42
2.5
 43
2.5
  0
INSERT
  5
4C26
330
48DA
100
AcDbEntity
  8
Bemaßung
 62
     0
370
    -2
100
AcDbBlockReference
  2
_Oblique
 10
125.5498966841916
 20
133.3592685720569
 30
0.0
 41
2.5
 42
2.5
 43
2.5
 50
180.0
  0
MTEXT
  5
4C27
330
48DA
100
AcDbEntity
  8
Bemaßung
 62
     0
100
AcDbMText
 10
157.5498966841915
 20
135.2342685720569
 30
0.0
 40
2.5
 41
0.0
 71
     5
 72
     1
  1
64
  7
RomanS
 73
     1
 44
1.0
1001
ACAD
1000
MTEXTBEGIN
1070
    73
1070
     1
1070
    44
1040
1.0
1070
    74
1070
     0
1000
MTEXTEND
  0
POINT
  5
4C28
330
48DA
100
AcDbEntity
  8
Defpoints
 62
     0
100
AcDbPoint
 10
189.5498966841914
 20
133.3592685720569
 30
0.0
  0
POINT
  5
4C29
330
48DA
100
AcDbEntity
  8
Defpoints
 62
     0
100
AcDbPoint
 10
125.5498966841916
 20
133.3592685720569
 30
0.0
  0
POINT
  5
4C2A
330
48DA
100
AcDbEntity
  8
Defpoints
 62
     0
100
AcDbPoint
 10
125.5498966841916
 20
133.3592685720569
 30
0.0
  0
ENDBLK
  5
48E5
330
48DA
100
AcDbEntity
  8
0
100
AcDbBlockEnd
  0
BLOCK
  5
492D
330
4923
100
AcDbEntity
  8
0
100
AcDbBlockBegin
  2
*D4
 70
     1
 10
0.0
 20
0.0
 30
0.0
  3
*D4
  1

  0
LINE
  5
4C2B
330
4923
100
AcDbEntity
  8
Bemaßung
 62
     0
370
    -2
100
AcDbLine
 10
90.54989668419112
 20
57.14109523359178
 30
0.0
 11
90.54989668419112
 21
57.76609523359178
 31
0.0
  0
LINE
  5
4C2C
330
4923
100
AcDbEntity
  8
Bemaßung
 62
     0
370
    -2
100
AcDbLine
 10
84.54989668419162
 20
57.14109523359178
 30
0.0
 11
84.54989668419162
 21
57.76609523359178
 31
0.0
  0
LINE
  5
4C2D
330
4923
100
AcDbEntity
  8
Bemaßung
 62
     0
370
    -2
100
AcDbLine
 10
90.54989668419112
 20
56.51609523359178
 30
0.0
 11
84.54989668419162
 21
56.51609523359178
 31
0.0
  0
INSERT
  5
4C2E
330
4923
100
AcDbEntity
  8
Bemaßung
 62
     0
370
    -2
100
AcDbBlockReference
  2
_Oblique
 10
90.54989668419112
 20
56.51609523359178
 30
0.0
 41
2.5
 42
2.5
 43
2.5
  0
INSERT
  5
4C2F
330
4923
100
AcDbEntity
  8
Bemaßung
 62
     0
370
    -2
100
AcDbBlockReference
  2
_Oblique
 10
84.54989668419162
 20
56.51609523359178
 30
0.0
 41
2.5
 42
2.5
 43
2.5
 50
180.0
  0
MTEXT
  5
4C30
330
4923
100
AcDbEntity
  8
Bemaßung
 62
     0
100
AcDbMText
 10
87.54989668419138
 20
58.39109523359178
 30
0.0
 40
2.5
 41
0.0
 71
     5
 72
     1
  1
6
  7
RomanS
 73
     1
 44
1.0
1001
ACAD
1000
MTEXTBEGIN
1070
    73
1070
     1
1070
    44
1040
1.0
1070
    74
1070
     0
1000
MTEXTEND
  0
POINT
  5
4C31
330
4923
100
AcDbEntity
  8
Defpoints
 62
     0
100
AcDbPoint
 10
90.54989668419112
 20
56.51609523359178
 30
0.0
  0
POINT
  5
4C32
330
4923
100
AcDbEntity
  8
Defpoints
 62
     0
100
AcDbPoint
 10
84.54989668419162
 20
56.51609523359178
 30
0.0
  0
POINT
  5
4C33
330
4923
100
AcDbEntity
  8
Defpoints
 62
     0
100
AcDbPoint
 10
84.54989668419162
 20
56.51609523359178
 30
0.0
  0
ENDBLK
  5
492E
330
4923
100
AcDbEntity
  8
0
100
AcDbBlockEnd
  0
BLOCK
  5
4969
330
495F
100
AcDbEntity
  8
0
100
AcDbBlockBegin
  2
*D5
 70
     1
 10
0.0
 20
0.0
 30
0.0
  3
*D5
  1

  0
LINE
  5
4CF3
330
495F
100
AcDbEntity
  8
Bemaßung
 62
     0
370
    -2
100
AcDbLine
 10
102.5498966841911
 20
82.66022663811339
 30
0.0
 11
102.5498966841911
 21
83.28522663811339
 31
0.0
  0
LINE
  5
4CF4
330
495F
100
AcDbEntity
  8
Bemaßung
 62
     0
370
    -2
100
AcDbLine
 10
90.54989668419159
 20
82.66022663811339
 30
0.0
 11
90.54989668419159
 21
83.28522663811339
 31
0.0
  0
LINE
  5
4CF5
330
495F
100
AcDbEntity
  8
Bemaßung
 62
     0
370
    -2
100
AcDbLine
 10
102.5498966841911
 20
82.03522663811339
 30
0.0
 11
90.54989668419159
 21
82.03522663811339
 31
0.0
  0
INSERT
  5
4CF6
330
495F
100
AcDbEntity
  8
Bemaßung
 62
     0
370
    -2
100
AcDbBlockReference
  2
_Oblique
 10
102.5498966841911
 20
82.03522663811339
 30
0.0
 41
2.5
 42
2.5
 43
2.5
  0
INSERT
  5
4CF7
330
495F
100
AcDbEntity
  8
Bemaßung
 62
     0
370
    -2
100
AcDbBlockReference
  2
_Oblique
 10
90.54989668419159
 20
82.03522663811339
 30
0.0
 41
2.5
 42
2.5
 43
2.5
 50
180.0
  0
MTEXT
  5
4CF8
330
495F
100
AcDbEntity
  8
Bemaßung
 62
     0
100
AcDbMText
 10
96.54989668419132
 20
83.91022663811339
 30
0.0
 40
2.5
 41
0.0
 71
     5
 72
     1
  1
12
  7
RomanS
 73
     1
 44
1.0
1001
ACAD
1000
MTEXTBEGIN
1070
    73
1070
     1
1070
    44
1040
1.0
1070
    74
1070
     0
1000
MTEXTEND
  0
POINT
  5
4CF9
330
495F
100
AcDbEntity
  8
Defpoints
 62
     0
100
AcDbPoint
 10
102.5498966841911
 20
82.03522663811339
 30
0.0
  0
POINT
  5
4CFA
330
495F
100
AcDbEntity
  8
Defpoints
 62
     0
100
AcDbPoint
 10
90.54989668419159
 20
82.03522663811339
 30
0.0
  0
POINT
  5
4CFB
330
495F
100
AcDbEntity
  8
Defpoints
 62
     0
100
AcDbPoint
 10
90.54989668419159
 20
82.03522663811339
 30
0.0
  0
ENDBLK
  5
496A
330
495F
100
AcDbEntity
  8
0
100
AcDbBlockEnd
  0
BLOCK
  5
4981
330
4977
100
AcDbEntity
  8
0
100
AcDbBlockBegin
  2
*D6
 70
     1
 10
0.0
 20
0.0
 30
0.0
  3
*D6
  1

  0
LINE
  5
4D35
330
4977
100
AcDbEntity
  8
Bemaßung
 62
     0
370
    -2
100
AcDbLine
 10
114.5498966841916
 20
113.1602266381129
 30
0.0
 11
114.5498966841916
 21
113.7852266381129
 31
0.0
  0
LINE
  5
4D36
330
4977
100
AcDbEntity
  8
Bemaßung
 62
     0
370
    -2
100
AcDbLine
 10
110.5498966841912
 20
111.9102266381129
 30
0.0
 11
110.5498966841912
 21
111.2852266381129
 31
0.0
  0
LINE
  5
4D37
330
4977
100
AcDbEntity
  8
Bemaßung
 62
     0
370
    -2
100
AcDbLine
 10
114.5498966841916
 20
112.5352266381129
 30
0.0
 11
110.5498966841912
 21
112.5352266381129
 31
0.0
  0
INSERT
  5
4D38
330
4977
100
AcDbEntity
  8
Bemaßung
 62
     0
370
    -2
100
AcDbBlockReference
  2
_Oblique
 10
114.5498966841916
 20
112.5352266381129
 30
0.0
 41
2.5
 42
2.5
 43
2.5
  0
INSERT
  5
4D39
330
4977
100
AcDbEntity
  8
Bemaßung
 62
     0
370
    -2
100
AcDbBlockReference
  2
_Oblique
 10
110.5498966841912
 20
112.5352266381129
 30
0.0
 41
2.5
 42
2.5
 43
2.5
 50
180.0
  0
MTEXT
  5
4D3A
330
4977
100
AcDbEntity
  8
Bemaßung
 62
     0
100
AcDbMText
 10
112.5498966841914
 20
114.4102266381129
 30
0.0
 40
2.5
 41
0.0
 71
     5
 72
     1
  1
4
  7
RomanS
 73
     1
 44
1.0
1001
ACAD
1000
MTEXTBEGIN
1070
    73
1070
     1
1070
    44
1040
1.0
1070
    74
1070
     0
1000
MTEXTEND
  0
POINT
  5
4D3B
330
4977
100
AcDbEntity
  8
Defpoints
 62
     0
100
AcDbPoint
 10
114.5498966841916
 20
112.5352266381129
 30
0.0
  0
POINT
  5
4D3C
330
4977
100
AcDbEntity
  8
Defpoints
 62
     0
100
AcDbPoint
 10
110.5498966841912
 20
112.5352266381129
 30
0.0
  0
POINT
  5
4D3D
330
4977
100
AcDbEntity
  8
Defpoints
 62
     0
100
AcDbPoint
 10
110.5498966841912
 20
112.5352266381129
 30
0.0
  0
ENDBLK
  5
4982
330
4977
100
AcDbEntity
  8
0
100
AcDbBlockEnd
  0
BLOCK
  5
4999
330
498F
100
AcDbEntity
  8
0
100
AcDbBlockBegin
  2
*D7
 70
     1
 10
0.0
 20
0.0
 30
0.0
  3
*D7
  1

  0
LINE
  5
4D1A
330
498F
100
AcDbEntity
  8
Bemaßung
 62
     0
370
    -2
100
AcDbLine
 10
84.35497006485745
 20
67.58810803575999
 30
0.0
 11
84.35497006485745
 21
68.21310803575999
 31
0.0
  0
LINE
  5
4D1B
330
498F
100
AcDbEntity
  8
Bemaßung
 62
     0
370
    -2
100
AcDbLine
 10
47.35497006485695
 20
67.58810803575999
 30
0.0
 11
47.35497006485695
 21
68.21310803575999
 31
0.0
  0
LINE
  5
4D1C
330
498F
100
AcDbEntity
  8
Bemaßung
 62
     0
370
    -2
100
AcDbLine
 10
84.35497006485745
 20
66.96310803575999
 30
0.0
 11
47.35497006485695
 21
66.96310803575999
 31
0.0
  0
INSERT
  5
4D1D
330
498F
100
AcDbEntity
  8
Bemaßung
 62
     0
370
    -2
100
AcDbBlockReference
  2
_Oblique
 10
84.35497006485745
 20
66.96310803575999
 30
0.0
 41
2.5
 42
2.5
 43
2.5
  0
INSERT
  5
4D1E
330
498F
100
AcDbEntity
  8
Bemaßung
 62
     0
370
    -2
100
AcDbBlockReference
  2
_Oblique
 10
47.35497006485695
 20
66.96310803575999
 30
0.0
 41
2.5
 42
2.5
 43
2.5
 50
180.0
  0
MTEXT
  5
4D1F
330
498F
100
AcDbEntity
  8
Bemaßung
 62
     0
100
AcDbMText
 10
65.85497006485721
 20
68.83810803575999
 30
0.0
 40
2.5
 41
0.0
 71
     5
 72
     1
  1
37
  7
RomanS
 73
     1
 44
1.0
1001
ACAD
1000
MTEXTBEGIN
1070
    73
1070
     1
1070
    44
1040
1.0
1070
    74
1070
     0
1000
MTEXTEND
  0
POINT
  5
4D20
330
498F
100
AcDbEntity
  8
Defpoints
 62
     0
100
AcDbPoint
 10
84.35497006485745
 20
66.96310803575999
 30
0.0
  0
POINT
  5
4D21
330
498F
100
AcDbEntity
  8
Defpoints
 62
     0
100
AcDbPoint
 10
47.35497006485695
 20
66.96310803575999
 30
0.0
  0
POINT
  5
4D22
330
498F
100
AcDbEntity
  8
Defpoints
 62
     0
100
AcDbPoint
 10
47.35497006485695
 20
66.96310803575999
 30
0.0
  0
ENDBLK
  5
499A
330
498F
100
AcDbEntity
  8
0
100
AcDbBlockEnd
  0
BLOCK
  5
4CCB
330
4CC8
100
AcDbEntity
  8
0
100
AcDbBlockBegin
  2
D-Mitteldichtung
 70
     0
 10
0.0
 20
0.0
 30
0.0
  3
D-Mitteldichtung
  1

  0
LWPOLYLINE
  5
4EB6
102
{ACAD_REACTORS
330
4EB9
102
}
330
4CC8
100
AcDbEntity
  8
Dichtungen
100
AcDbPolyline
 90
       31
 70
     0
 43
0.0
 10
-2.199999999999854
 20
-18.20710678118664
 10
-3.846446609406528
 20
-19.85355339059342
 10
-2.199999999999854
 20
-18.20710678118664
 10
-0.5535533905931961
 20
-19.85355339059342
 42
0.6681786379192989
 10
0.3000000000001375
 20
-19.5000000000002
 10
0.3000000000001375
 20
-9.500000000000195
 42
0.2015127546239996
 10
0.000000000000183
 20
-8.785857157145841
 10
0.000000000000183
 20
-2.000000000000198
 42
0.6068148963145977
 10
-1.573576436350814
 20
-1.180847955711186
 10
-4.699999999999862
 20
-3.580055564077468
 10
-4.241138850919055
 20
-4.235377199508633
 10
-1.472072930905178
 20
-2.08639410705254
 42
-0.6068148963145489
 10
-0.9999999999998159
 20
-2.332139720339311
 10
-0.9999999999998159
 20
-3.604729044764866
 10
-3.282702335169731
 20
-8.500000000000085
 10
-6.19999999999986
 20
-8.500000000000197
 10
-6.19999999999986
 20
-8.500000000000197
 42
0.4142135623730951
 10
-5.19999999999986
 20
-9.500000000000195
 10
-3.199999999999861
 20
-9.500000000000195
 10
-3.199999999999861
 20
-11.50000000000008
 10
-4.199999999999858
 20
-11.50000000000008
 42
0.4142135623731117
 10
-4.699999999999862
 20
-12.00000000000008
 10
-4.699999999999862
 20
-14.81801488286712
 42
0.1763269807084733
 10
-4.583022221559343
 20
-15.1394086877103
 10
-3.596074994209216
 20
-16.3156065916057
 42
-0.3152987888789738
 10
-3.546084513876435
 20
-16.88700039644888
 10
-3.899999999999907
 20
-17.5000000000002
 10
-3.899999999999907
 20
-17.40000000000017
 42
0.9999999999999998
 10
-4.699999999999862
 20
-17.40000000000017
 10
-4.699999999999862
 20
-19.5000000000002
 42
0.6681786379192989
 10
-3.846446609406528
 20
-19.85355339059342
1001
AcDbBlockRepETag
1070
     1
1071
        0
1005
4EB6
  0
LWPOLYLINE
  5
4EB7
102
{ACAD_REACTORS
330
4EB9
102
}
330
4CC8
100
AcDbEntity
  8
Dichtungen
100
AcDbPolyline
 90
       11
 70
     1
 43
0.0
 10
-4.299999999999908
 20
-15.01996857795925
 10
-3.559843884025843
 20
-15.90205228825172
 42
-0.3152987888789714
 10
-3.459862923360513
 20
-17.0448398979382
 10
-4.299999999999908
 20
-18.5000000000002
 10
-4.299999999999908
 20
-18.77573593128815
 10
-2.953553390593191
 20
-17.42928932188144
 42
-0.4142135623730922
 10
-2.246446609406529
 20
-17.42928932188144
 10
-1.199999999999771
 20
-18.4757359312882
 10
-1.199999999999771
 20
-14.23137084989864
 10
-3.131370849898253
 20
-12.30000000000015
 10
-4.299999999999908
 20
-12.30000000000015
1001
AcDbBlockRepETag
1070
     1
1071
        1
1005
4EB7
  0
LWPOLYLINE
  5
4EB8
102
{ACAD_REACTORS
330
4EB9
102
}
330
4CC8
100
AcDbEntity
  8
Dichtungen
100
AcDbPolyline
 90
        6
 70
     1
 43
0.0
 10
-0.9999999999998159
 20
-5.497690311286845
 10
-2.399999999999904
 20
-8.499999999999971
 10
-2.399999999999904
 20
-11.50000000000008
 10
-0.7999999999997716
 20
-13.10000000000011
 10
-0.7999999999997716
 20
-10.0000000000002
 10
-0.9999999999998159
 20
-8.865743636076528
1001
AcDbBlockRepETag
1070
     1
1071
        2
1005
4EB8
  0
HATCH
  5
4EB9
330
4CC8
100
AcDbEntity
  8
Schraffur
 62
     6
100
AcDbHatch
 10
0.0
 20
0.0
 30
0.0
210
0.0
220
0.0
230
1.0
  2
ANSI37
 70
     0
 71
     1
 91
        3
 92
        7
 72
     1
 73
     1
 93
       27
 10
-4.699999999999862
 20
-19.5000000000002
 42
0.6681786379192828
 10
-3.846446609406543
 20
-19.85355339059344
 42
0.0
 10
-2.199999999999852
 20
-18.20710678118664
 42
0.0
 10
-0.5535533905931831
 20
-19.85355339059343
 42
0.6681786379193123
 10
0.3000000000001375
 20
-19.50000000000016
 42
0.0
 10
0.3000000000001375
 20
-9.500000000000095
 42
0.2015127546239739
 10
0.000000000000183
 20
-8.785857157145841
 42
0.0
 10
0.0000000000001825
 20
-2.000000000000172
 42
0.6371011712380449
 10
-1.642854977939623
 20
-1.234012090606073
 42
0.0
 10
-4.699999999999862
 20
-3.580055564077468
 42
0.0
 10
-4.241138850919055
 20
-4.235377199508633
 42
0.0
 10
-1.495342681946062
 20
-2.104453013195255
 42
-0.6409279388403385
 10
-0.9999999999998161
 20
-2.332139720339307
 42
0.0
 10
-0.9999999999998161
 20
-3.604729044764866
 42
0.0
 10
-3.282702335169731
 20
-8.500000000000085
 42
0.0
 10
-6.19999999999986
 20
-8.500000000000197
 42
0.4142135623730949
 10
-5.199999999999861
 20
-9.500000000000195
 42
0.0
 10
-3.199999999999861
 20
-9.500000000000195
 42
0.0
 10
-3.199999999999861
 20
-11.50000000000008
 42
0.0
 10
-4.199999999999874
 20
-11.50000000000008
 42
0.4142135623730948
 10
-4.699999999999862
 20
-12.00000000000007
 42
0.0
 10
-4.699999999999862
 20
-14.81801488286707
 42
0.1763269807084659
 10
-4.583022221559382
 20
-15.13940868771025
 42
0.0
 10
-3.59607499420919
 20
-16.31560659160573
 42
-0.3152987888789791
 10
-3.54608451387646
 20
-16.88700039644892
 42
0.0
 10
-3.929963996556866
 20
-17.55189916443467
 42
1.216532972353276
 10
-4.699999999999862
 20
-17.40000000000017
 42
0.0
 97
        1
330
4EB6
 92
       22
 72
     0
 73
     1
 93
        6
 10
-0.9999999999998161
 20
-5.497690311286845
 10
-0.9999999999998163
 20
-8.865743636076526
 10
-0.7999999999997716
 20
-10.0000000000002
 10
-0.7999999999997716
 20
-13.10000000000011
 10
-2.399999999999904
 20
-11.50000000000008
 10
-2.399999999999904
 20
-8.499999999999971
 97
        1
330
4EB8
 92
       22
 72
     1
 73
     1
 93
       11
 10
-3.131370849898253
 20
-12.30000000000015
 42
0.0
 10
-1.199999999999771
 20
-14.23137084989864
 42
0.0
 10
-1.199999999999771
 20
-18.4757359312882
 42
0.0
 10
-2.246446609406527
 20
-17.42928932188144
 42
0.4142135623730951
 10
-2.953553390593192
 20
-17.42928932188144
 42
0.0
 10
-4.299999999999908
 20
-18.77573593128815
 42
0.0
 10
-4.299999999999908
 20
-18.5000000000002
 42
0.0
 10
-3.459862923360443
 20
-17.04483989793807
 42
0.3152987888789987
 10
-3.559843884025998
 20
-15.90205228825154
 42
0.0
 10
-4.299999999999908
 20
-15.01996857795925
 42
0.0
 10
-4.299999999999908
 20
-12.30000000000015
 42
0.0
 97
        1
330
4EB7
 75
     0
 76
     1
 52
0.0
 41
0.4
 77
     0
 78
     2
 53
45.0
 43
0.0
 44
0.0
 45
-0.8980256121069151
 46
0.8980256121069153
 79
     0
 53
135.0
 43
0.0
 44
0.0
 45
-0.8980256121069153
 46
-0.8980256121069151
 79
     0
 47
0.0569593147751606
 98
        3
 10
-2.80745315721924
 20
-2.411777091431304
 10
-2.80745315721924
 20
-2.411777091431304
 10
-2.80745315721924
 20
-2.411777091431304
1001
ACAD
1010
0.0
1020
0.0
1030
0.0
1001
AcDbBlockRepETag
1070
     1
1071
        4
1005
4EB9
  0
HATCH
  5
4ECC
330
4CC8
100
AcDbEntity
  8
Dichtungen
100
AcDbHatch
 10
0.0
 20
0.0
 30
0.0
210
0.0
220
0.0
230
1.0
  2
SOLID
 70
     1
 71
     0
 91
        1
 92
        1
 93
        1
 72
     2
 10
-0.1999999999998838
 20
-19.49999991663292
 40
0.2270269807753889
 50
0.0
 51
360.0
 73
     0
 97
        0
 75
     0
 76
     1
 98
        1
 10
-59.18694993621109
 20
-5.108999916632459
1001
ACAD
1010
0.0
1020
0.0
1030
0.0
1001
AcDbBlockRepETag
1070
     1
1071
       11
1005
4ECC
  0
CIRCLE
  5
4ECD
330
4CC8
100
AcDbEntity
  8
Dichtungen
100
AcDbCircle
 10
-0.1999999999998838
 20
-19.50000000000016
 30
0.0
 40
0.2270269807753889
1001
AcDbBlockRepETag
1070
     1
1071
       12
1005
4ECD
  0
ENDBLK
  5
4CD0
330
4CC8
100
AcDbEntity
  8
0
100
AcDbBlockEnd
  0
BLOCK
  5
4CD3
330
4CD1
100
AcDbEntity
  8
0
100
AcDbBlockBegin
  2
D-Überschlag
 70
     0
 10
0.0
 20
0.0
 30
0.0
  3
D-Überschlag
  1

  0
LWPOLYLINE
  5
4EED
330
4CD1
100
AcDbEntity
  8
Dichtungen
100
AcDbPolyline
 90
       20
 70
     1
 43
0.0
 10
-1.100000000000362
 20
2.54142135623783
 10
-1.100000000000362
 20
4.500000000000452
 42
0.4142135623730864
 10
-2.100000000000362
 20
5.500000000000452
 10
-5.24199999999996
 20
5.500000000000452
 10
-5.24199999999996
 20
5.500000000000452
 42
-0.4142135623730951
 10
-4.24199999999996
 20
6.500000000000452
 10
-5.0
 20
12.15358983848682
 10
-5.200000000000271
 20
12.50000000000045
 10
-5.200000000000271
 20
12.40000000000054
 42
-0.9999999999999998
 10
-6.0
 20
12.40000000000054
 10
-6.0
 20
14.50000000000023
 42
-0.6068148963145993
 10
-5.213211781824611
 20
14.90957602214507
 10
-3.0
 20
13.35986844885701
 10
-0.7867882181758433
 20
14.90957602214507
 42
-0.6068148963145922
 10
0.0
 20
14.50000000000023
 10
0.0
 20
2.000000000000454
 42
-0.6681786379192928
 10
-1.707106781186894
 20
1.292893218814014
 10
-3.0
 20
2.585786437627345
 10
-2.434314575050845
 20
3.151471862576727
 10
-1.612132034356363
 20
2.329289321882014
 42
0.6681786379192941
1001
AcDbBlockRepETag
1070
     1
1071
        0
1005
4EED
  0
LWPOLYLINE
  5
4EEE
330
4CD1
100
AcDbEntity
  8
Dichtungen
100
AcDbPolyline
 90
       10
 70
     1
 43
0.0
 10
-4.467949192431206
 20
12.23205080756929
 10
-5.200000000000271
 20
13.50000000000045
 10
-5.200000000000271
 20
13.92370536190924
 10
-3.286788218175843
 20
12.58406005008373
 42
0.3152987888789827
 10
-2.713211781824606
 20
12.58406005008373
 10
-1.100000000000362
 20
13.71364310044623
 10
-1.100000000000362
 20
7.000000000000452
 42
-0.4142135623730951
 10
-1.60000000000036
 20
6.500000000000452
 10
-3.442000000000231
 20
6.500000000000452
 10
-4.118586108390442
 20
11.23205080756928
 42
0.0557712343996485
1001
AcDbBlockRepETag
1070
     1
1071
        1
1005
4EEE
  0
HATCH
  5
4EEF
330
4CD1
100
AcDbEntity
  8
Dichtungen
100
AcDbHatch
 10
0.0
 20
0.0
 30
0.0
210
0.0
220
0.0
230
1.0
  2
ANSI37
 70
     0
 71
     0
 91
        3
 92
        5
 93
       19
 72
     3
 10
-5.5
 20
14.50000000000044
 11
-0.353553390593297
 21
-0.3535533905932969
 40
0.9999999999999211
 50
190.0000000000217
 51
314.9999999999999
 73
     1
 72
     1
 10
-6.0
 20
14.50000000000044
 11
-6.0
 21
12.40000000000054
 72
     3
 10
-5.600000000000137
 20
12.40000000000054
 11
-0.2828427124745437
 21
-0.2828427124745436
 40
0.9999999999998502
 50
314.9999999999999
 51
494.9999999999997
 73
     1
 72
     1
 10
-5.200000000000271
 20
12.40000000000054
 11
-5.200000000000271
 21
12.50000000000045
 72
     1
 10
-5.200000000000271
 20
12.50000000000045
 11
-5.0
 21
12.15358983848682
 72
     1
 10
-5.0
 20
12.15358983848682
 11
-4.24199999999996
 21
6.500000000000452
 72
     3
 10
-4.24199999999996
 20
5.500000000000452
 11
-0.707106781186549
 21
-0.7071067811865489
 40
0.999999999999996
 50
225.0
 51
314.9999999999999
 73
     1
 72
     1
 10
-5.24199999999996
 20
5.500000000000452
 11
-2.100000000000362
 21
5.500000000000452
 72
     3
 10
-2.100000000000362
 20
4.50000000000044
 11
-0.7071067811865534
 21
-0.7071067811865534
 40
0.9999999999999982
 50
135.0
 51
224.9999999999992
 73
     0
 72
     1
 10
-1.100000000000362
 20
4.500000000000452
 11
-1.100000000000362
 21
2.54142135623783
 72
     3
 10
-1.400000000000318
 20
2.541421356237917
 11
-0.2121320343559744
 21
-0.2121320343559745
 40
0.9999999999997545
 50
225.0000000000163
 51
360.0000000000191
 73
     0
 72
     1
 10
-1.612132034356363
 20
2.329289321882014
 11
-2.434314575050845
 21
3.151471862576727
 72
     1
 10
-2.434314575050845
 20
3.151471862576727
 11
-3.0
 21
2.585786437627345
 72
     1
 10
-3.0
 20
2.585786437627345
 11
-1.707106781186894
 21
1.292893218814014
 72
     3
 10
-1.000000000000113
 20
2.000000000000581
 11
-0.7071067811866742
 21
-0.7071067811866742
 40
0.9999999999999316
 50
359.9999999999913
 51
494.9999999999998
 73
     1
 72
     1
 10
0.0
 20
2.000000000000581
 11
0.0
 21
14.50000000000031
 72
     3
 10
-0.5000000000002274
 20
14.50000000000031
 11
0.3535533905934591
 21
-0.3535533905934592
 40
0.9999999999999699
 50
44.99999999999995
 51
169.9999999999908
 73
     1
 72
     1
 10
-0.7867882181758433
 20
14.90957602214507
 11
-3.0
 21
13.35986844885701
 72
     1
 10
-3.0
 20
13.35986844885701
 11
-5.213211781824611
 21
14.90957602214507
 97
        0
 92
       20
 93
       10
 72
     3
 10
-3.000000000000226
 20
12.99363607222836
 11
0.3535533905934122
 21
-0.3535533905934123
 40
0.9999999999999475
 50
-79.99999999999963
 51
-9.999999999986423
 73
     1
 72
     1
 10
-2.713211781824496
 20
12.58406005008378
 11
-1.100000000000362
 21
13.71364310044623
 72
     1
 10
-1.100000000000362
 20
13.71364310044623
 11
-1.100000000000362
 21
7.000000000000452
 72
     3
 10
-1.60000000000036
 20
7.000000000000452
 11
-0.3535533905932993
 21
-0.3535533905932993
 40
0.9999999999998554
 50
225.0
 51
314.9999999999999
 73
     0
 72
     1
 10
-1.60000000000036
 20
6.500000000000452
 11
-3.442000000000231
 21
6.500000000000452
 72
     1
 10
-3.442000000000231
 20
6.500000000000452
 11
-4.118586108390442
 21
11.23205080756928
 72
     3
 10
-8.761922415472895
 20
10.17086779733374
 11
3.367987636698277
 21
-3.367987636698277
 40
0.9999999999996191
 50
57.87323078304564
 51
70.64182853094528
 73
     1
 72
     1
 10
-4.467949192431206
 20
12.23205080756928
 11
-5.200000000000271
 21
13.50000000000045
 72
     1
 10
-5.200000000000271
 20
13.50000000000045
 11
-5.200000000000271
 21
13.92370536190924
 72
     1
 10
-5.200000000000271
 20
13.92370536190924
 11
-3.286788218175843
 21
12.58406005008373
 97
        0
 92
       20
 93
        2
 72
     3
 10
-0.5779999999999747
 20
14.39100000000046
 11
0.1605323176186128
 21
-0.1605323176186128
 40
0.999999999999499
 50
135.0
 51
315.0
 73
     0
 72
     3
 10
-0.5779999999999747
 20
14.39100000000046
 11
0.1605323176186128
 21
-0.1605323176186128
 40
0.999999999999499
 50
315.0
 51
495.0000000000001
 73
     0
 97
        0
 75
     0
 76
     1
 52
0.0
 41
0.4
 77
     0
 78
     2
 53
45.0
 43
0.0
 44
0.0
 45
-0.8980256121069151
 46
0.8980256121069151
 79
     0
 53
135.0
 43
0.0
 44
0.0
 45
-0.8980256121069151
 46
-0.8980256121069151
 79
     0
 47
0.0737449119884942
 98
        5
 10
-806.2054464945511
 20
60.55492695729721
 10
-806.2054464945511
 20
60.55492695729721
 10
-806.2054464945511
 20
60.55492695729721
 10
-803.1443040153117
 20
63.961510447415
 10
-803.1443040153117
 20
63.961510447415
1001
AcDbBlockRepETag
1070
     1
1071
        2
1005
4EEF
1001
ACAD
1010
0.0
1020
0.0
1030
0.0
  0
HATCH
  5
4EF0
330
4CD1
100
AcDbEntity
  8
Dichtungen
100
AcDbHatch
 10
0.0
 20
0.0
 30
0.0
210
0.0
220
0.0
230
1.0
  2
SOLID
 70
     1
 71
     1
 91
        1
 92
        1
 93
        1
 72
     2
 10
-0.5779999999999747
 20
14.39100000000046
 40
0.2270269807753889
 50
0.0
 51
360.0
 73
     1
 97
        1
330
4EF1
 75
     0
 76
     1
 98
        1
 10
-862.006965400635
 20
74.25110942572533
1001
ACAD
1010
0.0
1020
0.0
1030
0.0
1001
AcDbBlockRepETag
1070
     1
1071
        3
1005
4EF0
  0
CIRCLE
  5
4EF1
102
{ACAD_REACTORS
330
4EF0
102
}
330
4CD1
100
AcDbEntity
  8
Dichtungen
100
AcDbCircle
 10
-0.5779999999999747
 20
14.39100000000046
 30
0.0
 40
0.2270269807753889
1001
AcDbBlockRepETag
1070
     1
1071
        4
1005
4EF1
  0
ENDBLK
  5
4CD7
330
4CD1
100
AcDbEntity
  8
0
100
AcDbBlockEnd
  0
BLOCK
  5
4F44
330
4F41
100
AcDbEntity
  8
0
100
AcDbBlockBegin
  2
V-GLrust waagr1
 70
     0
 10
0.0
 20
0.0
 30
0.0
  3
V-GLrust waagr1
  1

  0
LINE
  5
4F45
330
4F41
100
AcDbEntity
  8
Silikon
 62
     1
100
AcDbLine
 10
-0.1057282349648201
 20
-27.23183324859391
 30
0.0
 11
1.417462964579151
 21
-22.89601616528703
 31
0.0
1001
AcDbBlockRepETag
1070
     1
1071
        0
1005
4F45
  0
HATCH
  5
4F46
330
4F41
100
AcDbEntity
  8
Silikon
 62
     1
100
AcDbHatch
 10
0.0
 20
0.0
 30
0.0
210
0.0
220
0.0
230
1.0
  2
ANGLE
 70
     0
 71
     1
 91
        1
 92
        1
 93
        7
 72
     1
 10
1.417462964579151
 20
-22.89601616528703
 11
-0.120615889674923
 21
-27.27421147900972
 72
     2
 10
-2.000001131246762
 20
-26.59017119235853
 40
1.999999999999971
 50
340.0000000000041
 51
434.9999999999993
 73
     1
 72
     1
 10
-1.482363041041705
 20
-24.65831953978042
 11
-1.776458266554399
 21
-24.57951696160634
 72
     2
 10
-1.000001131247346
 20
-21.68173948273994
 40
2.999999999999092
 50
104.9999999999946
 51
179.9999999999929
 73
     0
 72
     1
 10
-4.000001131246439
 20
-21.68173948274031
 11
-4.000001131246439
 21
-20.09017119235838
 72
     1
 10
-4.000001131246439
 20
-20.09017119235838
 11
-1.333019878937129
 21
-20.09017119235839
 72
     2
 10
-12.01642930828822
 20
-33.31381528031243
 40
17.00000000000087
 50
308.9348163439026
 51
322.2069130505855
 73
     0
 97
        1
330
4F47
 75
     0
 76
     1
 52
-90.00000000000001
 41
0.1
 77
     0
 78
     2
 53
90.0
 43
337.5937472852746
 44
394.3037886014547
 45
-0.6985000000000002
 46
-0.0000000000000001
 79
     2
 49
0.508
 49
-0.1905
 53
180.0
 43
337.5937472852746
 44
394.3037886014547
 45
0.0000000000000001
 46
-0.6985000000000002
 79
     2
 49
0.508
 49
-0.1905
 98
        1
 10
337.5937472852746
 20
394.3037886014547
1001
ACAD
1010
0.0
1020
0.0
1030
0.0
1001
AcDbBlockRepETag
1070
     1
1071
        1
1005
4F46
  0
LWPOLYLINE
  5
4F47
102
{ACAD_REACTORS
330
4F46
102
}
330
4F41
100
AcDbEntity
  8
Silikon
 62
     1
100
AcDbPolyline
 90
        7
 70
     1
 43
0.0
 10
1.417462964579151
 20
-22.89601616528703
 10
-0.120615889674923
 20
-27.27421147900972
 42
0.4400105308918084
 10
-1.482363041041705
 20
-24.65831953978042
 10
-1.776458266554399
 20
-24.57951696160634
 42
-0.3394542588633679
 10
-4.000001131246439
 20
-21.68173948274031
 10
-4.000001131246439
 20
-20.09017119235838
 10
-1.333019878937129
 20
-20.09017119235839
 42
-0.0579752700428324
1001
AcDbBlockRepETag
1070
     1
1071
        2
1005
4F47
  0
HATCH
  5
4F48
330
4F41
100
AcDbEntity
  8
Schraffur
 62
    84
100
AcDbHatch
 10
0.0
 20
0.0
 30
0.0
210
0.0
220
0.0
230
1.0
  2
STEEL
 70
     0
 71
     0
 91
        1
 92
        7
 72
     1
 73
     1
 93
       14
 10
-24.00000113124656
 20
-44.09017119235836
 42
0.0
 10
-25.16443878717479
 20
-44.09017119235836
 42
-0.5135471230855161
 10
-18.00000113124674
 20
-17.4016542630429
 42
0.0
 10
-18.00000113124674
 20
-19.59017119235838
 42
0.0
 10
-18.00000113124674
 20
-32.09017119235872
 42
0.0
 10
-22.00000113124697
 20
-32.09017119235872
 42
0.0
 10
-22.00000113124697
 20
-36.09017119235839
 42
0.0
 10
-18.00000113124674
 20
-36.09017119235839
 42
0.0
 10
-18.00000113124674
 20
-38.46531345393598
 42
-0.3639702342664933
 10
-18.41317704241333
 20
-38.9577173304419
 42
0.0
 10
-19.58682522008007
 20
-39.16466317002377
 42
0.0
 10
-21.17364930891365
 20
-39.44446307052348
 42
0.3639702342662052
 10
-22.00000113124697
 20
-40.42927082353602
 42
0.0
 10
-22.00000113124697
 20
-42.09017119235838
 42
-0.4142135623731038
 97
        0
 75
     0
 76
     1
 52
-0.0000000000000127
 41
2.0
 77
     0
 78
     2
 53
45.00000000000006
 43
-292.3375725726195
 44
846.6964074168723
 45
-4.490128060534574
 46
4.490128060534574
 79
     0
 53
45.00000000000006
 43
-292.3375725726195
 44
849.8714074168724
 45
-4.490128060534574
 46
4.490128060534574
 79
     0
 47
0.5460268397635694
 98
        1
 10
-23.05560286681236
 20
-28.60335840631055
1001
ACAD
1010
0.0
1020
0.0
1030
0.0
1001
AcDbBlockRepETag
1070
     1
1071
        3
1005
4F48
  0
LWPOLYLINE
  5
4F49
330
4F41
100
AcDbEntity
  8
Flügelrahmen
100
AcDbPolyline
 90
       12
 70
     0
 43
0.0
 10
-25.16443878717479
 20
-44.09017119235836
 10
-24.00000113124656
 20
-44.09017119235836
 42
0.4142135623731038
 10
-22.00000113124697
 20
-42.09017119235838
 10
-22.00000113124697
 20
-40.42927082353602
 42
-0.3639702342662053
 10
-21.17364930891365
 20
-39.44446307052348
 10
-18.41317704241317
 20
-38.9577173304419
 42
0.3639702342662052
 10
-18.00000113124697
 20
-38.46531345393598
 10
-18.00000113124697
 20
-36.09017119235839
 10
-22.00000113124697
 20
-36.09017119235839
 10
-22.00000113124697
 20
-32.09017119235872
 10
-18.00000113124674
 20
-32.09017119235872
 10
-18.00000113124674
 20
-17.4016542630429
1001
AcDbBlockRepETag
1070
     1
1071
        4
1005
4F49
  0
CIRCLE
  5
4F4A
330
4F41
100
AcDbEntity
  8
0
100
AcDbCircle
 10
-12.01642930828796
 20
-33.3138152803119
 30
0.0
 40
17.0
1001
AcDbBlockRepETag
1070
     1
1071
        8
1005
4F4A
  0
HATCH
  5
4F4B
330
4F41
100
AcDbEntity
  8
Schraffur
 62
    84
100
AcDbHatch
 10
0.0
 20
0.0
 30
0.0
210
0.0
220
0.0
230
1.0
  2
STEEL
 70
     0
 71
     0
 91
        1
 92
        7
 72
     1
 73
     1
 93
       24
 10
-18.00000113124674
 20
-38.46531345393598
 42
-0.3639702342665228
 10
-18.41317704241333
 20
-38.9577173304419
 42
0.0
 10
-19.58682522008007
 20
-39.16466317002377
 42
0.3639702342662163
 10
-20.00000113124668
 20
-39.65706704653016
 42
0.0
 10
-20.00000113124673
 20
-41.09017119235838
 42
0.4142135623730951
 10
-18.00000113124674
 20
-43.09017119235837
 42
0.0
 10
-11.33842903571571
 20
-43.09017119235837
 42
0.3152987888789831
 10
-7.579658552572019
 20
-40.45825176566117
 42
0.0
 10
-6.308780467165536
 20
-36.96654292312686
 42
-0.2216946626429392
 10
-5.113435512245018
 20
-35.77119796820667
 42
0.0
 10
-4.237660846902199
 20
-35.45244205809682
 42
0.2216946626429391
 10
-2.444643414521179
 20
-33.65942462571636
 42
0.0
 10
-0.1206158896706526
 20
-27.27421147900177
 42
0.0
 10
-0.1057282350030846
 20
-27.23183324870681
 42
0.4333251351666421
 10
-1.482363041041705
 20
-24.65831953978042
 42
0.0
 10
-1.776458266554399
 20
-24.57951696160634
 42
-0.3394542588634565
 10
-4.00000113124666
 20
-21.68173948273929
 42
0.0
 10
-4.00000113124666
 20
-21.09017119235872
 42
0.0
 10
-4.500001131246675
 20
-20.59017119235872
 42
0.0
 10
-10.57229394450438
 20
-20.59017119235872
 42
0.3178372451958395
 10
-11.04369846529545
 20
-20.92350452569232
 42
-0.3178372451957652
 10
-11.98650750687745
 20
-21.59017119235838
 42
0.0
 10
-17.25856703834495
 20
-21.59017119235838
 42
0.0
 10
-18.00000113124673
 20
-23.62724462061905
 42
0.0
 97
        0
 75
     0
 76
     1
 52
-90.00000000000001
 41
1.0
 77
     0
 78
     2
 53
315.0
 43
-292.3375725726195
 44
846.6964074168723
 45
2.245064030267286
 46
2.245064030267286
 79
     0
 53
315.0
 43
-290.7500725726192
 44
846.6964074168723
 45
2.245064030267286
 46
2.245064030267286
 79
     0
 47
0.1061632553570742
 98
        1
 10
-15.4611204520058
 20
-33.74401660950727
1001
ACAD
1010
0.0
1020
0.0
1030
0.0
1001
AcDbBlockRepETag
1070
     1
1071
       15
1005
4F4B
  0
LWPOLYLINE
  5
4F4C
330
4F41
100
AcDbEntity
  8
Glasleiste
100
AcDbPolyline
 90
       23
 70
     1
 43
0.0
 10
-18.00000113124658
 20
-23.62724462061901
 10
-17.25856703834495
 20
-21.59017119235838
 10
-11.98650750687745
 20
-21.59017119235861
 42
0.3178372451957874
 10
-11.04369846529539
 20
-20.92350452569196
 42
-0.3178372451957952
 10
-10.5722939445043
 20
-20.59017119235862
 10
-4.500001131246547
 20
-20.59017119235872
 10
-4.000001131246547
 20
-21.09017119235872
 10
-4.000001131246547
 20
-21.68173948273929
 42
0.3394542588633623
 10
-1.776458266554178
 20
-24.57951696160647
 10
-1.4823630410415
 20
-24.65831953978044
 42
-0.4400105308918321
 10
-0.1206158896747596
 20
-27.27421147900996
 10
-2.444643414521141
 20
-33.65942462571626
 42
-0.2216946626429391
 10
-4.237660846901818
 20
-35.45244205809684
 10
-5.11343551224504
 20
-35.77119796820636
 42
0.2216946626429391
 10
-6.308780467165437
 20
-36.96654292312672
 10
-7.579658552572037
 20
-40.45825176566093
 42
-0.3152987888789831
 10
-11.33842903571563
 20
-43.09017119235828
 10
-18.00000113124674
 20
-43.09017119235828
 42
-0.4142135623730951
 10
-20.00000113124673
 20
-41.09017119235828
 10
-20.0000011312466
 20
-39.65706704653001
 42
-0.3639702342662163
 10
-19.58682522007998
 20
-39.16466317002392
 10
-18.41317704241325
 20
-38.95771733044215
 42
0.3639702342662049
 10
-18.0000011312467
 20
-38.46531345393584
1001
AcDbBlockRepETag
1070
     1
1071
       17
1005
4F4C
  0
LINE
  5
4F4D
330
4F41
100
AcDbEntity
  8
Aluhalter
 62
     3
100
AcDbLine
 10
-18.00000113124674
 20
-19.59017119235817
 30
0.0
 11
-17.66515452443179
 21
-17.27972960533495
 31
0.0
1001
AcDbBlockRepETag
1070
     1
1071
        7
1005
4F4D
  0
LINE
  5
4F4E
330
4F41
100
AcDbEntity
  8
Aluhalter
 62
     3
100
AcDbLine
 10
-13.46586391211442
 20
-16.37571800437118
 30
0.0
 11
-13.00000113124674
 21
-19.59017119235817
 31
0.0
1001
AcDbBlockRepETag
1070
     1
1071
       18
1005
4F4E
  0
LWPOLYLINE
  5
4F4F
330
4F41
100
AcDbEntity
  8
Aluhalter
 62
     3
100
AcDbPolyline
 90
        4
 70
     0
 43
0.0
 10
-18.00000113124674
 20
-17.40165426304295
 10
-18.00000113124674
 20
-19.59017119235817
 10
-13.00000113124674
 20
-19.59017119235817
 10
-13.00000113124673
 20
-16.3422924709385
1001
AcDbBlockRepETag
1070
     1
1071
       36
1005
4F4F
  0
LWPOLYLINE
  5
4F50
330
4F41
100
AcDbEntity
  8
Glas
 62
   150
100
AcDbPolyline
 90
        5
 70
     0
 43
0.0
 10
-12.73900865900452
 20
-16.32917872011674
 10
-13.00000113124662
 20
-16.59017119235883
 10
-13.00000113124662
 20
-19.59017119235838
 10
-12.50000113124662
 20
-20.09017119235838
 10
-1.3330198789376
 20
-20.09017119235838
1001
AcDbBlockRepETag
1070
     1
1071
       37
1005
4F50
  0
HATCH
  5
4F51
330
4F41
100
AcDbEntity
  8
Glas
 62
   150
100
AcDbHatch
 10
0.0
 20
0.0
 30
0.0
210
0.0
220
0.0
230
1.0
  2
AR-CONC
 70
     0
 71
     0
 91
        1
 92
        1
 93
        5
 72
     2
 10
-12.01642930828796
 20
-33.31381528031189
 40
17.0
 50
51.06518365609829
 51
92.43607196428341
 73
     1
 72
     1
 10
-12.73900865900452
 20
-16.32917872011674
 11
-13.00000113124662
 21
-16.59017119235883
 72
     1
 10
-13.00000113124662
 20
-16.59017119235883
 11
-13.00000113124662
 21
-19.59017119235838
 72
     1
 10
-13.00000113124662
 20
-19.59017119235838
 11
-12.50000113124662
 21
-20.09017119235838
 72
     1
 10
-12.50000113124662
 20
-20.09017119235838
 11
-1.333019878937609
 21
-20.09017119235838
 97
        0
 75
     0
 76
     1
 52
-90.00000000000001
 41
0.02
 77
     0
 78
    13
 53
320.0
 43
-18.00000113124662
 44
-22.0901711923581
 45
-0.3187817107780624
 46
-3.64369337992008
 79
     2
 49
0.381
 49
-4.190999999999998
 53
265.0
 43
-18.00000113124662
 44
-22.0901711923581
 45
3.821132857643598
 46
0.7048565195133394
 79
     2
 49
0.3048
 49
-3.352799999999998
 53
10.45099999999998
 43
-18.02656613124663
 44
-22.39381119235808
 45
3.502333756405834
 46
-2.938850033319181
 79
     2
 49
0.3237999999999999
 49
-3.561799999999997
 53
316.1842
 43
-16.98400113124666
 44
-22.0901711923581
 45
-0.8408465586545437
 46
-5.421580817842596
 79
     2
 49
0.5714999999999997
 49
-6.286499999999997
 53
6.635599999999985
 43
-17.05407113124665
 44
-22.54196919235808
 45
4.948511117800981
 46
-4.748084689324741
 79
     2
 49
0.4856999999999998
 49
-5.342699999999992
 53
261.184
 43
-16.98400113124666
 44
-22.0901711923581
 45
4.948502357211951
 46
-4.748092116278677
 79
     2
 49
0.4572
 49
-5.0292
 53
291.0
 43
-17.23800113124668
 44
-22.59817119235809
 45
-2.045310370335247
 46
-3.032297596707663
 79
     2
 49
0.381
 49
-4.190999999999998
 53
236.0
 43
-17.23800113124668
 44
-22.59817119235809
 45
3.683759322446383
 46
-1.236040566952941
 79
     2
 49
0.3048
 49
-3.352799999999998
 53
341.4514
 43
-17.40844313124666
 44
-22.85086119235811
 45
1.638457154321148
 46
-4.268329815402489
 79
     2
 49
0.3237999999999996
 49
-3.561799999999995
 53
307.5
 43
-18.00000113124662
 44
-22.0901711923581
 45
1.691100777463059
 46
-0.0617720650118366
 79
     6
 49
0.0
 49
-3.312159999999995
 49
0.0
 49
-3.403599999999995
 49
0.0
 49
-3.365499999999995
 53
277.5
 43
-18.00000113124662
 44
-22.0901711923581
 45
2.003611496362389
 46
-1.336393250206113
 79
     6
 49
0.0
 49
-1.940559999999995
 49
0.0
 49
-3.235959999999995
 49
0.0
 49
-1.282699999999997
 53
237.5
 43
-18.00000113124662
 44
-20.95733119235812
 45
-0.1145748798534697
 46
-2.711811903337423
 79
     6
 49
0.0
 49
-1.27
 49
0.0
 49
-3.9624
 49
0.0
 49
-5.257799999999996
 53
227.5
 43
-18.00000113124662
 44
-20.44933119235808
 45
0.5085298206666598
 46
-2.962583627720361
 79
     6
 49
0.0
 49
-1.650999999999998
 49
0.0
 49
-2.631439999999999
 49
0.0
 49
-3.733799999999998
 98
        1
 10
4.244820407601364
 20
-18.88931201344846
1001
ACAD
1010
0.0
1020
0.0
1030
0.0
1001
AcDbBlockRepETag
1070
     1
1071
       39
1005
4F51
  0
ENDBLK
  5
4F52
330
4F41
100
AcDbEntity
  8
0
100
AcDbBlockEnd
  0
BLOCK
  5
4F67
330
4F65
100
AcDbEntity
  8
0
100
AcDbBlockBegin
  2
Glas 36mm un IV
 70
     0
 10
0.0
 20
0.0
 30
0.0
  3
Glas 36mm un IV
  1

  0
LINE
  5
4F68
330
4F65
100
AcDbEntity
  8
Aluhalter
 62
     3
100
AcDbLine
 10
35.94118207914828
 20
-0.0000000000000568
 30
0.0
 11
1.441182079148485
 21
4.999999999999714
 31
0.0
1001
AcDbBlockRepETag
1070
     1
1071
        7
1005
4F68
  0
LINE
  5
4F69
330
4F65
100
AcDbEntity
  8
Aluhalter
 62
     3
100
AcDbLine
 10
1.441182079148485
 20
-0.0000000000000568
 30
0.0
 11
35.94118207914828
 21
4.999999999999943
 31
0.0
1001
AcDbBlockRepETag
1070
     1
1071
        8
1005
4F69
  0
LWPOLYLINE
  5
4F6A
330
4F65
100
AcDbEntity
  8
Aluhalter
 62
     3
100
AcDbPolyline
 90
        4
 70
     1
 43
0.0
 10
1.441182079148485
 20
-0.0000000000000568
 10
35.94118207914828
 20
-0.0000000000000568
 10
35.94118207914828
 20
4.999999999999943
 10
1.441182079148485
 20
4.999999999999943
1001
AcDbBlockRepETag
1070
     1
1071
       36
1005
4F6A
  0
LWPOLYLINE
  5
4F6B
330
4F65
100
AcDbEntity
  8
Glas
 62
   150
100
AcDbPolyline
 90
        6
 70
     0
 43
0.0
 10
16.44118207914825
 20
26.00455082016947
 10
16.44118207914825
 20
5.499999999999971
 10
16.94118207914825
 20
4.999999999999971
 10
19.9411820791478
 20
4.999999999999971
 10
20.44118207914781
 20
5.499999999999971
 10
20.44118207914781
 20
26.00455082016947
1001
AcDbBlockRepETag
1070
     1
1071
       25
1005
4F6B
  0
LWPOLYLINE
  5
4F6C
102
{ACAD_REACTORS
330
4F70
102
}
330
4F65
100
AcDbEntity
  8
Glas
 62
   251
100
AcDbPolyline
 90
        6
 70
     1
 43
0.0
 10
4.441182079148031
 20
17.00000000000005
 10
16.44118207914825
 20
17.00000000000005
 10
16.44118207914825
 20
6.999999999999943
 10
14.44118207914825
 20
4.999999999999943
 10
6.441182079148032
 20
4.999999999999943
 10
4.441182079148031
 20
6.999999999999943
1001
AcDbBlockRepETag
1070
     1
1071
       26
1005
4F6C
  0
HATCH
  5
4F6D
330
4F65
100
AcDbEntity
  8
Glas
 62
   150
100
AcDbHatch
 10
0.0
 20
0.0
 30
0.0
210
0.0
220
0.0
230
1.0
  2
AR-CONC
 70
     0
 71
     0
 91
        1
 92
        7
 72
     0
 73
     1
 93
        6
 10
20.44118207914781
 20
26.00455082016947
 10
16.44118207914825
 20
26.00455082016947
 10
16.44118207914825
 20
5.499999999999971
 10
16.94118207914825
 20
4.999999999999971
 10
19.9411820791478
 20
4.999999999999971
 10
20.44118207914781
 20
5.499999999999968
 97
        0
 75
     0
 76
     1
 52
0.0
 41
0.02
 77
     0
 78
    13
 53
50.0
 43
38.44118207914821
 44
0.0
 45
3.64369337992008
 46
-0.3187817107780617
 79
     2
 49
0.381
 49
-4.190999999999998
 53
355.0
 43
38.44118207914821
 44
0.0
 45
-0.7048565195133401
 46
3.821132857643598
 79
     2
 49
0.3048
 49
-3.352799999999998
 53
100.451
 43
38.74482207914818
 44
-0.0265650000000051
 45
2.938850033319181
 46
3.502333756405836
 79
     2
 49
0.3237999999999999
 49
-3.561799999999997
 53
46.18419999999999
 43
38.44118207914821
 44
1.01599999999999
 45
5.421580817842596
 46
-0.8408465586545428
 79
     2
 49
0.5714999999999996
 49
-6.286499999999996
 53
96.6356
 43
38.8929800791482
 44
0.9459300000000039
 45
4.748084689324741
 46
4.948511117800983
 79
     2
 49
0.4857000000000001
 49
-5.342699999999998
 53
351.184
 43
38.44118207914821
 44
1.01599999999999
 45
4.748092116278677
 46
4.948502357211953
 79
     2
 49
0.4572
 49
-5.0292
 53
21.0
 43
38.94918207914819
 44
0.7620000000000005
 45
3.032297596707665
 46
-2.045310370335247
 79
     2
 49
0.381
 49
-4.190999999999998
 53
326.0
 43
38.94918207914819
 44
0.7620000000000005
 45
1.236040566952941
 46
3.683759322446384
 79
     2
 49
0.3048
 49
-3.352799999999998
 53
71.45140000000002
 43
39.20187207914823
 44
0.5915579999999922
 45
4.268329815402489
 46
1.638457154321149
 79
     2
 49
0.3237999999999997
 49
-3.561799999999997
 53
37.5
 43
38.44118207914821
 44
0.0
 45
0.0617720650118363
 46
1.691100777463059
 79
     6
 49
0.0
 49
-3.312159999999998
 49
0.0
 49
-3.403599999999998
 49
0.0
 49
-3.365499999999998
 53
7.499999999999999
 43
38.44118207914821
 44
0.0
 45
1.336393250206113
 46
2.00361149636239
 79
     6
 49
0.0
 49
-1.940559999999999
 49
0.0
 49
-3.235959999999998
 49
0.0
 49
-1.282699999999999
 53
327.5
 43
37.30834207914822
 44
0.0
 45
2.711811903337423
 46
-0.1145748798534692
 79
     6
 49
0.0
 49
-1.27
 49
0.0
 49
-3.9624
 49
0.0
 49
-5.257799999999996
 53
317.5
 43
36.80034207914818
 44
0.0
 45
2.962583627720361
 46
0.5085298206666603
 79
     6
 49
0.0
 49
-1.650999999999999
 49
0.0
 49
-2.63144
 49
0.0
 49
-3.7338
 47
0.1050631940408828
 98
        1
 10
19.24032290023788
 20
22.24482153884799
1001
ACAD
1010
0.0
1020
0.0
1030
0.0
1001
AcDbBlockRepETag
1070
     1
1071
       27
1005
4F6D
  0
HATCH
  5
4F6E
330
4F65
100
AcDbEntity
  8
Glas
 62
   150
100
AcDbHatch
 10
0.0
 20
0.0
 30
0.0
210
0.0
220
0.0
230
1.0
  2
AR-CONC
 70
     0
 71
     0
 91
        1
 92
        7
 72
     0
 73
     1
 93
        6
 10
0.4411820791484903
 20
5.499999999999971
 10
0.9411820791484899
 20
4.999999999999971
 10
3.941182079148033
 20
4.999999999999971
 10
4.441182079148031
 20
5.499999999999971
 10
4.441182079148031
 20
26.00455082016947
 10
0.4411820791484903
 20
26.00455082016947
 97
        0
 75
     0
 76
     1
 52
0.0
 41
0.02
 77
     0
 78
    13
 53
50.0
 43
36.44118207914821
 44
0.0
 45
3.64369337992008
 46
-0.3187817107780617
 79
     2
 49
0.381
 49
-4.190999999999998
 53
355.0
 43
36.44118207914821
 44
0.0
 45
-0.7048565195133401
 46
3.821132857643598
 79
     2
 49
0.3048
 49
-3.352799999999998
 53
100.451
 43
36.74482207914819
 44
-0.0265650000000051
 45
2.938850033319181
 46
3.502333756405836
 79
     2
 49
0.3237999999999999
 49
-3.561799999999997
 53
46.18419999999999
 43
36.44118207914821
 44
1.01599999999999
 45
5.421580817842596
 46
-0.8408465586545428
 79
     2
 49
0.5714999999999998
 49
-6.286499999999997
 53
96.6356
 43
36.8929800791482
 44
0.9459300000000039
 45
4.748084689324741
 46
4.948511117800983
 79
     2
 49
0.4857000000000001
 49
-5.342699999999998
 53
351.184
 43
36.44118207914821
 44
1.01599999999999
 45
4.748092116278677
 46
4.948502357211953
 79
     2
 49
0.4572
 49
-5.0292
 53
21.0
 43
36.94918207914819
 44
0.7620000000000005
 45
3.032297596707665
 46
-2.045310370335247
 79
     2
 49
0.381
 49
-4.190999999999998
 53
326.0
 43
36.94918207914819
 44
0.7620000000000005
 45
1.236040566952941
 46
3.683759322446384
 79
     2
 49
0.3048
 49
-3.352799999999998
 53
71.45140000000002
 43
37.20187207914822
 44
0.5915579999999922
 45
4.268329815402489
 46
1.638457154321149
 79
     2
 49
0.3237999999999998
 49
-3.561799999999997
 53
37.5
 43
36.44118207914821
 44
0.0
 45
0.0617720650118363
 46
1.691100777463059
 79
     6
 49
0.0
 49
-3.312159999999998
 49
0.0
 49
-3.403599999999998
 49
0.0
 49
-3.365499999999998
 53
7.499999999999999
 43
36.44118207914821
 44
0.0
 45
1.336393250206113
 46
2.00361149636239
 79
     6
 49
0.0
 49
-1.940559999999999
 49
0.0
 49
-3.235959999999998
 49
0.0
 49
-1.282699999999999
 53
327.5
 43
35.30834207914822
 44
0.0
 45
2.711811903337423
 46
-0.1145748798534692
 79
     6
 49
0.0
 49
-1.27
 49
0.0
 49
-3.9624
 49
0.0
 49
-5.257799999999996
 53
317.5
 43
34.80034207914819
 44
0.0
 45
2.962583627720361
 46
0.5085298206666603
 79
     6
 49
0.0
 49
-1.650999999999999
 49
0.0
 49
-2.63144
 49
0.0
 49
-3.7338
 47
0.1050631940408828
 98
        1
 10
1.64204125805841
 20
22.24482153884799
1001
ACAD
1010
0.0
1020
0.0
1030
0.0
1001
AcDbBlockRepETag
1070
     1
1071
       28
1005
4F6E
  0
LWPOLYLINE
  5
4F6F
330
4F65
100
AcDbEntity
  8
Glas
 62
   150
100
AcDbPolyline
 90
        6
 70
     0
 43
0.0
 10
4.441182079148031
 20
26.00455082016947
 10
4.441182079148031
 20
5.499999999999971
 10
3.941182079148033
 20
4.999999999999971
 10
0.9411820791484899
 20
4.999999999999971
 10
0.4411820791484903
 20
5.499999999999971
 10
0.4411820791484903
 20
26.00455082016947
1001
AcDbBlockRepETag
1070
     1
1071
       29
1005
4F6F
  0
HATCH
  5
4F70
330
4F65
100
AcDbEntity
  8
Glas
 62
   251
100
AcDbHatch
 10
0.0
 20
0.0
 30
0.0
210
0.0
220
0.0
230
1.0
  2
GRAVEL
 70
     0
 71
     1
 91
        1
 92
        1
 93
        6
 72
     1
 10
4.441182079148031
 20
17.00000000000005
 11
16.44118207914825
 21
17.00000000000005
 72
     1
 10
16.44118207914825
 20
17.00000000000005
 11
16.44118207914825
 21
6.999999999999943
 72
     1
 10
16.44118207914825
 20
6.999999999999943
 11
14.44118207914825
 21
4.999999999999943
 72
     1
 10
14.44118207914825
 20
4.999999999999943
 11
6.441182079148033
 21
4.999999999999943
 72
     1
 10
6.441182079148032
 20
4.999999999999943
 11
4.441182079148031
 21
6.999999999999943
 72
     1
 10
4.441182079148031
 20
6.999999999999943
 11
4.441182079148031
 21
17.00000000000005
 97
        1
330
4F6C
 75
     0
 76
     1
 52
0.0
 41
0.1
 77
     0
 78
    42
 53
228.0128
 43
14.01998207914826
 44
4.540000000000105
 45
-20.32001726589601
 46
-22.86002808951258
 79
     2
 49
0.341721
 49
-33.8305
 53
184.9697
 43
13.79138207914827
 44
4.286000000000115
 45
30.48004930617913
 46
2.539982075387456
 79
     2
 49
0.5864050000000001
 49
-58.05399999999998
 53
132.5104
 43
13.20718207914827
 44
4.235200000000101
 45
25.3999815183317
 46
-27.94002729246042
 79
     2
 49
0.413482
 49
-40.93469999999999
 53
267.2737
 43
12.21658207914825
 44
3.600200000000113
 45
2.539988970828169
 46
50.79998365336643
 79
     2
 49
0.5340050000000001
 49
-52.8664
 53
292.8337
 43
12.19118207914825
 44
3.066800000000113
 45
-12.7000360555019
 46
30.48001733005111
 79
     2
 49
0.5236340000000002
 49
-51.8398
 53
357.2737
 43
12.39438207914824
 44
2.584200000000095
 45
-50.79998365336643
 46
2.539988970828173
 79
     2
 49
0.5340050000000001
 49
-52.8664
 53
37.6942
 43
12.92778207914826
 44
2.558800000000104
 45
-33.02002086123994
 46
-25.39997735698489
 79
     2
 49
0.706194
 49
-69.91310000000002
 53
72.2553
 43
13.48658207914829
 44
2.990600000000113
 45
17.78003556546719
 46
55.88001620603638
 79
     2
 49
0.6667200000000002
 49
-66.0053
 53
121.4296
 43
13.68978207914826
 44
3.625600000000102
 45
-20.32000523526448
 46
33.01996115997269
 79
     2
 49
0.535813
 49
-53.04549999999998
 53
175.2364
 43
13.41038207914825
 44
4.082800000000101
 45
27.93997805305446
 46
-2.539976162721154
 79
     2
 49
0.6117129999999993
 49
-29.97389999999997
 53
222.3974
 43
12.80078207914826
 44
4.133600000000114
 45
-30.48000091723971
 46
-27.93996365063697
 79
     2
 49
0.7910780000000001
 49
-78.3168
 53
138.8141
 43
14.73118207914827
 44
3.574800000000095
 45
-17.77998867422473
 46
15.239976557124
 79
     2
 49
0.270005
 49
-26.7306
 53
171.4692
 43
14.52798207914824
 44
3.752600000000113
 45
33.01994959559142
 46
-5.080012800045698
 79
     2
 49
0.5136819999999993
 49
-50.85459999999994
 53
225.0
 43
14.01998207914826
 44
3.828800000000113
 45
-0.0000000000000005
 46
-2.539998268700193
 79
     2
 49
0.3592090000000001
 49
-3.232889999999998
 53
203.1986
 43
13.84218207914827
 44
4.133600000000114
 45
12.70004282559083
 46
5.080022274306261
 79
     2
 49
0.1934409999999998
 49
-19.15059999999997
 53
291.8014
 43
13.66438207914827
 44
4.057400000000114
 45
-2.540001781894509
 46
7.620004908731861
 79
     2
 49
0.273566
 49
-13.4048
 53
30.9638
 43
13.76598207914824
 44
3.803400000000095
 45
7.619991954808226
 46
5.080003958660552
 79
     2
 49
0.44432
 49
-14.36629999999999
 53
161.5651
 43
14.14698207914826
 44
4.032000000000095
 45
5.080002318180981
 46
-2.539996222465076
 79
     2
 49
0.3212869999999999
 49
-7.710899999999994
 53
16.3895
 43
12.19118207914825
 44
4.057400000000114
 45
25.40001401396935
 46
7.619984149967804
 79
     2
 49
0.4500880000000003
 49
-44.55879999999999
 53
70.3462
 43
12.62298207914826
 44
4.184400000000096
 45
-10.15997168867651
 46
-27.939960488545
 79
     2
 49
0.377599
 49
-37.3822
 53
293.1986
 43
14.14698207914826
 44
4.540000000000105
 45
-5.080022274306261
 46
12.70004282559083
 79
     2
 49
0.38688
 49
-18.9572
 53
343.6105
 43
14.29938207914827
 44
4.184400000000096
 45
-25.40001401396935
 46
7.619984149967812
 79
     2
 49
0.4500879999999999
 49
-44.55879999999996
 53
339.4440000000001
 43
12.19118207914825
 44
2.482600000000104
 45
-12.70001576425591
 46
5.079993836050136
 79
     2
 49
0.4340350000000001
 49
-21.2677
 53
294.7751
 43
12.59758207914827
 44
2.330200000000103
 45
-12.69997040362684
 46
27.93998702615667
 79
     2
 49
0.3636719999999996
 49
-36.00359999999994
 53
66.8014
 43
14.17238207914826
 44
2.000000000000111
 45
5.080022274306266
 46
12.70004282559083
 79
     2
 49
0.38688
 49
-18.9572
 53
17.354
 43
14.32478207914826
 44
2.355600000000094
 45
-33.02000178185996
 46
-10.15998467560563
 79
     2
 49
0.425783
 49
-42.15239999999996
 53
69.444
 43
12.92778207914826
 44
2.000000000000111
 45
-5.079993836050143
 46
-12.70001576425591
 79
     2
 49
0.217018
 49
-21.4848
 53
101.3098999999999
 43
14.01998207914826
 44
2.000000000000111
 45
-2.539987462887348
 46
10.15996746090262
 79
     2
 49
0.129515
 49
-12.822
 53
165.9638
 43
13.99458207914826
 44
2.127000000000093
 45
7.620005354697172
 46
-2.539995604123641
 79
     2
 49
0.5236340000000002
 49
-9.949049999999999
 53
186.009
 43
13.48658207914829
 44
2.254000000000103
 45
25.39996254442795
 46
2.539994068547858
 79
     2
 49
0.485267
 49
-48.0414
 53
303.6901
 43
13.76598207914824
 44
3.574800000000095
 45
-2.540000871307233
 46
5.079995099231839
 79
     2
 49
0.366324
 49
-8.791780000000001
 53
353.1572
 43
13.96918207914827
 44
3.270000000000095
 45
43.18001785664342
 46
-5.08002275165484
 79
     2
 49
0.639557
 49
-63.316
 53
60.94540000000001
 43
14.60418207914827
 44
3.193800000000095
 45
-10.15997636582909
 46
-17.77995761083413
 79
     2
 49
0.261508
 49
-25.8894
 53
90.0
 43
14.73118207914827
 44
3.422400000000095
 45
-2.54
 46
2.54
 79
     2
 49
0.1524
 49
-2.387599999999999
 53
120.2564
 43
13.43578207914825
 44
2.330200000000103
 45
10.15997846683611
 46
-17.77999103247756
 79
     2
 49
0.352867
 49
-34.9339
 53
48.01279999999999
 43
13.25798207914826
 44
2.635000000000104
 45
20.32001726589601
 46
22.86002808951258
 79
     2
 49
0.6834430000000003
 49
-33.48880000000001
 53
0.0
 43
13.71518207914826
 44
3.143000000000113
 45
2.54
 46
2.54
 79
     2
 49
0.6604000000000001
 49
-1.879599999999999
 53
325.3048
 43
14.37558207914825
 44
3.143000000000113
 45
-25.39995599095369
 46
17.78000169048476
 79
     2
 49
0.40161
 49
-39.7593
 53
254.0546
 43
14.70578207914829
 44
2.914400000000113
 45
-2.540006479701474
 46
-10.16002420320363
 79
     2
 49
0.369829
 49
-18.1217
 53
207.6459999999999
 43
14.60418207914827
 44
2.558800000000104
 45
-48.25998304902272
 46
-25.40001597472339
 79
     2
 49
0.6021450000000002
 49
-59.61249999999999
 53
175.4261
 43
14.07078207914825
 44
2.279400000000094
 45
-33.02000760474751
 46
2.539987711219461
 79
     2
 49
0.6370289999999999
 49
-63.06579999999993
 53
175.4261
 43
14.07078207914825
 44
2.279400000000094
 45
-33.02000760474751
 46
2.539987711219461
 79
     2
 49
0.6370289999999999
 49
-63.06579999999993
 98
        1
 10
12.19118207914825
 20
2.000000000000111
1001
ACAD
1010
0.0
1020
0.0
1030
0.0
1001
AcDbBlockRepETag
1070
     1
1071
       30
1005
4F70
  0
LWPOLYLINE
  5
4F71
330
4F65
100
AcDbEntity
  8
Glas
 62
   150
100
AcDbPolyline
 90
        6
 70
     0
 43
0.0
 10
32.44118207914894
 20
26.00455082016947
 10
32.44118207914894
 20
5.499999999999971
 10
32.94118207914895
 20
4.999999999999971
 10
35.94118207914848
 20
4.999999999999971
 10
36.44118207914849
 20
5.499999999999971
 10
36.44118207914849
 20
26.00455082016947
1001
AcDbBlockRepETag
1070
     1
1071
       37
1005
4F71
  0
LWPOLYLINE
  5
4F72
102
{ACAD_REACTORS
330
4F74
102
}
330
4F65
100
AcDbEntity
  8
Glas
 62
   251
100
AcDbPolyline
 90
        6
 70
     1
 43
0.0
 10
20.44118207914781
 20
17.00000000000005
 10
32.44118207914894
 20
17.00000000000005
 10
32.44118207914894
 20
6.999999999999943
 10
30.44118207914895
 20
4.999999999999943
 10
22.4411820791478
 20
4.999999999999943
 10
20.44118207914781
 20
6.999999999999943
1001
AcDbBlockRepETag
1070
     1
1071
       38
1005
4F72
  0
HATCH
  5
4F73
330
4F65
100
AcDbEntity
  8
Glas
 62
   150
100
AcDbHatch
 10
0.0
 20
0.0
 30
0.0
210
0.0
220
0.0
230
1.0
  2
AR-CONC
 70
     0
 71
     0
 91
        1
 92
        7
 72
     0
 73
     1
 93
        6
 10
36.44118207914849
 20
26.00455082016947
 10
32.44118207914894
 20
26.00455082016947
 10
32.44118207914894
 20
5.499999999999968
 10
32.94118207914895
 20
4.999999999999971
 10
35.94118207914848
 20
4.999999999999971
 10
36.44118207914849
 20
5.499999999999976
 97
        0
 75
     0
 76
     1
 52
0.0
 41
0.02
 77
     0
 78
    13
 53
50.0
 43
38.44118207914821
 44
0.0
 45
3.64369337992008
 46
-0.3187817107780617
 79
     2
 49
0.381
 49
-4.190999999999998
 53
355.0
 43
38.44118207914821
 44
0.0
 45
-0.7048565195133401
 46
3.821132857643598
 79
     2
 49
0.3048
 49
-3.352799999999998
 53
100.451
 43
38.74482207914818
 44
-0.0265650000000051
 45
2.938850033319181
 46
3.502333756405836
 79
     2
 49
0.3237999999999999
 49
-3.561799999999997
 53
46.18419999999999
 43
38.44118207914821
 44
1.01599999999999
 45
5.421580817842596
 46
-0.8408465586545428
 79
     2
 49
0.5714999999999997
 49
-6.286499999999997
 53
96.6356
 43
38.89298007914818
 44
0.9459300000000039
 45
4.748084689324741
 46
4.948511117800983
 79
     2
 49
0.4857000000000001
 49
-5.342699999999998
 53
351.184
 43
38.44118207914821
 44
1.01599999999999
 45
4.748092116278677
 46
4.948502357211953
 79
     2
 49
0.4572
 49
-5.0292
 53
21.0
 43
38.94918207914819
 44
0.7620000000000005
 45
3.032297596707665
 46
-2.045310370335247
 79
     2
 49
0.381
 49
-4.190999999999998
 53
326.0
 43
38.94918207914819
 44
0.7620000000000005
 45
1.236040566952941
 46
3.683759322446384
 79
     2
 49
0.3048
 49
-3.352799999999998
 53
71.45140000000002
 43
39.20187207914823
 44
0.5915579999999922
 45
4.268329815402489
 46
1.638457154321149
 79
     2
 49
0.3237999999999996
 49
-3.561799999999995
 53
37.5
 43
38.44118207914821
 44
0.0
 45
0.0617720650118363
 46
1.691100777463059
 79
     6
 49
0.0
 49
-3.312159999999998
 49
0.0
 49
-3.403599999999998
 49
0.0
 49
-3.365499999999998
 53
7.499999999999999
 43
38.44118207914821
 44
0.0
 45
1.336393250206113
 46
2.00361149636239
 79
     6
 49
0.0
 49
-1.940559999999999
 49
0.0
 49
-3.235959999999998
 49
0.0
 49
-1.282699999999999
 53
327.5
 43
37.30834207914822
 44
0.0
 45
2.711811903337423
 46
-0.1145748798534692
 79
     6
 49
0.0
 49
-1.27
 49
0.0
 49
-3.9624
 49
0.0
 49
-5.257799999999996
 53
317.5
 43
36.80034207914819
 44
0.0
 45
2.962583627720361
 46
0.5085298206666603
 79
     6
 49
0.0
 49
-1.650999999999999
 49
0.0
 49
-2.63144
 49
0.0
 49
-3.7338
 47
0.1050631940408828
 98
        1
 10
35.24032290023856
 20
22.24482153884799
1001
ACAD
1010
0.0
1020
0.0
1030
0.0
1001
AcDbBlockRepETag
1070
     1
1071
       39
1005
4F73
  0
HATCH
  5
4F74
330
4F65
100
AcDbEntity
  8
Glas
 62
   251
100
AcDbHatch
 10
0.0
 20
0.0
 30
0.0
210
0.0
220
0.0
230
1.0
  2
GRAVEL
 70
     0
 71
     1
 91
        1
 92
        1
 93
        6
 72
     1
 10
20.44118207914781
 20
17.00000000000005
 11
32.44118207914894
 21
17.00000000000005
 72
     1
 10
32.44118207914894
 20
17.00000000000005
 11
32.44118207914894
 21
6.999999999999943
 72
     1
 10
32.44118207914894
 20
6.999999999999943
 11
30.44118207914895
 21
4.999999999999943
 72
     1
 10
30.44118207914895
 20
4.999999999999943
 11
22.4411820791478
 21
4.999999999999943
 72
     1
 10
22.4411820791478
 20
4.999999999999943
 11
20.44118207914781
 21
6.999999999999943
 72
     1
 10
20.44118207914781
 20
6.999999999999943
 11
20.44118207914781
 21
17.00000000000005
 97
        1
330
4F72
 75
     0
 76
     1
 52
0.0
 41
0.1
 77
     0
 78
    42
 53
228.0128
 43
34.01998207914895
 44
4.540000000000105
 45
-20.32001726589601
 46
-22.86002808951258
 79
     2
 49
0.341721
 49
-33.8305
 53
184.9697
 43
33.79138207914898
 44
4.286000000000115
 45
30.48004930617913
 46
2.539982075387456
 79
     2
 49
0.5864050000000001
 49
-58.05399999999998
 53
132.5104
 43
33.20718207914897
 44
4.235200000000101
 45
25.3999815183317
 46
-27.94002729246042
 79
     2
 49
0.413482
 49
-40.93469999999999
 53
267.2737
 43
32.21658207914894
 44
3.600200000000113
 45
2.539988970828169
 46
50.79998365336643
 79
     2
 49
0.5340050000000001
 49
-52.8664
 53
292.8337
 43
32.19118207914895
 44
3.066800000000113
 45
-12.7000360555019
 46
30.48001733005111
 79
     2
 49
0.5236340000000002
 49
-51.8398
 53
357.2737
 43
32.39438207914898
 44
2.584200000000095
 45
-50.79998365336643
 46
2.539988970828173
 79
     2
 49
0.5340050000000001
 49
-52.8664
 53
37.6942
 43
32.92778207914896
 44
2.558800000000104
 45
-33.02002086123994
 46
-25.39997735698489
 79
     2
 49
0.706194
 49
-69.91310000000002
 53
72.2553
 43
33.48658207914898
 44
2.990600000000113
 45
17.78003556546719
 46
55.88001620603638
 79
     2
 49
0.6667200000000002
 49
-66.0053
 53
121.4296
 43
33.68978207914896
 44
3.625600000000102
 45
-20.32000523526448
 46
33.01996115997269
 79
     2
 49
0.535813
 49
-53.04549999999998
 53
175.2364
 43
33.41038207914895
 44
4.082800000000101
 45
27.93997805305446
 46
-2.539976162721154
 79
     2
 49
0.6117129999999991
 49
-29.97389999999997
 53
222.3974
 43
32.80078207914896
 44
4.133600000000114
 45
-30.48000091723971
 46
-27.93996365063697
 79
     2
 49
0.7910780000000001
 49
-78.3168
 53
138.8141
 43
34.73118207914897
 44
3.574800000000095
 45
-17.77998867422473
 46
15.239976557124
 79
     2
 49
0.270005
 49
-26.7306
 53
171.4692
 43
34.52798207914894
 44
3.752600000000113
 45
33.01994959559142
 46
-5.080012800045698
 79
     2
 49
0.5136819999999993
 49
-50.85459999999994
 53
225.0
 43
34.01998207914895
 44
3.828800000000113
 45
-0.0000000000000005
 46
-2.539998268700193
 79
     2
 49
0.3592090000000001
 49
-3.232889999999998
 53
203.1986
 43
33.84218207914897
 44
4.133600000000114
 45
12.70004282559083
 46
5.080022274306261
 79
     2
 49
0.1934409999999998
 49
-19.15059999999997
 53
291.8014
 43
33.66438207914896
 44
4.057400000000114
 45
-2.540001781894509
 46
7.620004908731861
 79
     2
 49
0.273566
 49
-13.4048
 53
30.9638
 43
33.76598207914899
 44
3.803400000000095
 45
7.619991954808226
 46
5.080003958660552
 79
     2
 49
0.44432
 49
-14.36629999999998
 53
161.5651
 43
34.14698207914896
 44
4.032000000000095
 45
5.080002318180981
 46
-2.539996222465076
 79
     2
 49
0.3212869999999998
 49
-7.710899999999994
 53
16.3895
 43
32.19118207914895
 44
4.057400000000114
 45
25.40001401396935
 46
7.619984149967804
 79
     2
 49
0.4500880000000003
 49
-44.55879999999999
 53
70.3462
 43
32.62298207914896
 44
4.184400000000096
 45
-10.15997168867651
 46
-27.939960488545
 79
     2
 49
0.377599
 49
-37.3822
 53
293.1986
 43
34.14698207914896
 44
4.540000000000105
 45
-5.080022274306261
 46
12.70004282559083
 79
     2
 49
0.38688
 49
-18.9572
 53
343.6105
 43
34.29938207914896
 44
4.184400000000096
 45
-25.40001401396935
 46
7.619984149967812
 79
     2
 49
0.4500879999999996
 49
-44.55879999999992
 53
339.4440000000001
 43
32.19118207914895
 44
2.482600000000104
 45
-12.70001576425591
 46
5.079993836050136
 79
     2
 49
0.4340350000000001
 49
-21.2677
 53
294.7751
 43
32.59758207914897
 44
2.330200000000103
 45
-12.69997040362684
 46
27.93998702615667
 79
     2
 49
0.3636719999999994
 49
-36.00359999999992
 53
66.8014
 43
34.17238207914895
 44
2.000000000000111
 45
5.080022274306266
 46
12.70004282559083
 79
     2
 49
0.38688
 49
-18.9572
 53
17.354
 43
34.32478207914896
 44
2.355600000000094
 45
-33.02000178185996
 46
-10.15998467560563
 79
     2
 49
0.425783
 49
-42.15239999999996
 53
69.444
 43
32.92778207914896
 44
2.000000000000111
 45
-5.079993836050143
 46
-12.70001576425591
 79
     2
 49
0.217018
 49
-21.4848
 53
101.3098999999998
 43
34.01998207914895
 44
2.000000000000111
 45
-2.539987462887348
 46
10.15996746090262
 79
     2
 49
0.129515
 49
-12.822
 53
165.9638
 43
33.99458207914896
 44
2.127000000000093
 45
7.620005354697172
 46
-2.539995604123641
 79
     2
 49
0.5236340000000002
 49
-9.949049999999999
 53
186.009
 43
33.48658207914898
 44
2.254000000000103
 45
25.39996254442795
 46
2.539994068547858
 79
     2
 49
0.485267
 49
-48.0414
 53
303.6901
 43
33.76598207914899
 44
3.574800000000095
 45
-2.540000871307233
 46
5.079995099231839
 79
     2
 49
0.366324
 49
-8.791780000000001
 53
353.1572
 43
33.96918207914897
 44
3.270000000000095
 45
43.18001785664342
 46
-5.08002275165484
 79
     2
 49
0.639557
 49
-63.316
 53
60.94540000000001
 43
34.60418207914897
 44
3.193800000000095
 45
-10.15997636582909
 46
-17.77995761083413
 79
     2
 49
0.261508
 49
-25.8894
 53
90.0
 43
34.73118207914897
 44
3.422400000000095
 45
-2.54
 46
2.54
 79
     2
 49
0.1524
 49
-2.387599999999999
 53
120.2564
 43
33.43578207914895
 44
2.330200000000103
 45
10.15997846683611
 46
-17.77999103247756
 79
     2
 49
0.352867
 49
-34.9339
 53
48.01279999999999
 43
33.25798207914895
 44
2.635000000000104
 45
20.32001726589601
 46
22.86002808951258
 79
     2
 49
0.6834430000000003
 49
-33.48880000000001
 53
0.0
 43
33.71518207914895
 44
3.143000000000113
 45
2.54
 46
2.54
 79
     2
 49
0.6604000000000001
 49
-1.879599999999999
 53
325.3048
 43
34.37558207914899
 44
3.143000000000113
 45
-25.39995599095369
 46
17.78000169048476
 79
     2
 49
0.40161
 49
-39.7593
 53
254.0546
 43
34.70578207914898
 44
2.914400000000113
 45
-2.540006479701474
 46
-10.16002420320363
 79
     2
 49
0.369829
 49
-18.1217
 53
207.6459999999999
 43
34.60418207914897
 44
2.558800000000104
 45
-48.25998304902272
 46
-25.40001597472339
 79
     2
 49
0.6021450000000002
 49
-59.61249999999999
 53
175.4261
 43
34.07078207914898
 44
2.279400000000094
 45
-33.02000760474751
 46
2.539987711219461
 79
     2
 49
0.6370289999999991
 49
-63.06579999999993
 53
175.4261
 43
34.07078207914898
 44
2.279400000000094
 45
-33.02000760474751
 46
2.539987711219461
 79
     2
 49
0.6370289999999991
 49
-63.06579999999993
 98
        1
 10
32.19118207914895
 20
2.000000000000111
1001
ACAD
1010
0.0
1020
0.0
1030
0.0
1001
AcDbBlockRepETag
1070
     1
1071
       40
1005
4F74
  0
TEXT
  5
4F75
330
4F65
100
AcDbEntity
  8
Glas
 62
   150
100
AcDbText
 10
21.14794231019412
 20
21.1330179451947
 30
0.0
 40
2.5
  1
Glas 36
 41
0.7
  7
RomanS
100
AcDbText
1001
AcDbBlockRepETag
1070
     1
1071
       31
1005
4F75
  0
LINE
  5
4F76
330
4F65
100
AcDbEntity
  8
Glas
 62
   150
100
AcDbLine
 10
21.03458543248232
 20
20.59884778833504
 30
0.0
 11
31.85914313249734
 21
20.59884778833504
 31
0.0
1001
AcDbBlockRepETag
1070
     1
1071
       32
1005
4F76
  0
ENDBLK
  5
4F77
330
4F65
100
AcDbEntity
  8
0
100
AcDbBlockEnd
  0
ENDSEC
  0
SECTION
  2
ENTITIES
  0
LWPOLYLINE
  5
3EB0
330
1F
100
AcDbEntity
  8
0
100
AcDbPolyline
 90
        4
 70
     1
 43
0.0
 10
0.0
 20
210.0
 10
0.0
 20
0.0
 10
296.9999999999999
 20
-0.0000000000002274
 10
297.0000000000001
 20
210.0
  0
MTEXT
  5
3EB3
102
{ACAD_XDICTIONARY
360
5083
102
}
330
1F
100
AcDbEntity
  8
0
100
AcDbMText
 10
8.989289813916229
 20
201.6378241102484
 30
0.0
 40
5.0
 41
142.2693196950174
 71
     1
 72
     5
  3
{\fArial|b1|i0|c0|p34;Holzfenster IDEAL IV68xxxx - ClassicLine\PBalkont\U+00FCr mit PZ\P\fArial|b0|i0|c0|p34;\H0.8x;Ausf\U+00FChrung mit Schwelle oder Sohlbank\fArial|b1|i0|c0|p34;\H0.75x;\P\fArial|b0|i0|c0|p34;Getriebenutmitte 13.15mm\PGlasst\U+00E4
  1
rken 18mm bis 36mm\PDornma\U+00DF 45mm\P\PHorizontalschnitt B-B}
 73
     1
 44
1.0
1001
ACAD
1000
MTEXTBEGIN
1070
    73
1070
     1
1070
    44
1040
1.0
1070
    74
1070
     0
1000
MTEXTEND
1000
ACAD_MTEXT_DEFINED_HEIGHT_BEGIN
1070
    46
1040
11.02238646360934
1000
ACAD_MTEXT_DEFINED_HEIGHT_END
  0
MTEXT
  5
3EB4
102
{ACAD_XDICTIONARY
360
5085
102
}
330
1F
100
AcDbEntity
  8
0
100
AcDbMText
 10
6.903493688490241
 20
10.76514264524064
 30
0.0
 40
3.0
 41
98.32817594333187
 71
     1
 72
     5
  1
{\fArial|b0|i0|c0|p34;Zeichnung ohne Gew\U+00E4hr; \U+00C4nderungen vorbehalten}
 73
     1
 44
1.0
1001
ACAD
1000
MTEXTBEGIN
1070
    73
1070
     1
1070
    44
1040
1.0
1070
    74
1070
     0
1000
MTEXTEND
1000
ACAD_MTEXT_DEFINED_HEIGHT_BEGIN
1070
    46
1040
3.967088642823908
1000
ACAD_MTEXT_DEFINED_HEIGHT_END
  0
MTEXT
  5
3EBB
330
1F
100
AcDbEntity
  8
0
100
AcDbMText
 10
236.2020773373826
 20
16.17320763113901
 30
0.0
 40
5.0
 41
44.56825787201046
 71
     1
 72
     5
  1
{\fArial|b0|i0|c0|p34;01-IV68-xC/09B}
 73
     1
 44
1.0
1001
ACAD
1000
MTEXTBEGIN
1070
    73
1070
     1
1070
    44
1040
1.0
1070
    74
1070
     0
1000
MTEXTEND
1000
ACAD_MTEXT_DEFINED_HEIGHT_BEGIN
1070
    46
1040
9.819575724238347
1000
ACAD_MTEXT_DEFINED_HEIGHT_END
  0
LWPOLYLINE
  5
3EBC
330
1F
100
AcDbEntity
  8
0
100
AcDbPolyline
 90
        4
 70
     1
 43
0.0
 10
5.999999999999886
 20
6.0
 10
291.0000000000001
 20
6.0
 10
291.0000000000001
 20
204.0
 10
5.999999999999886
 20
204.0
  0
LWPOLYLINE
  5
403F
102
{ACAD_REACTORS
330
4364
330
4975
102
}
330
1F
100
AcDbEntity
  8
Flügelrahmen
100
AcDbPolyline
 90
       55
 70
     1
 43
0.0
 10
84.54989668419162
 20
69.03522663811348
 42
-0.4142135623730951
 10
86.54989668419117
 20
71.0352266381136
 10
100.0498966841912
 20
71.0352266381136
 10
100.0498966841912
 20
74.03522663811348
 10
94.54989668419079
 20
74.03522663811348
 10
94.54989668419131
 20
76.0352266381136
 42
-0.4142135623730951
 10
95.54989668419031
 20
77.03522663811337
 10
95.54989668419031
 20
77.03522663811337
 10
101.5498966841911
 20
77.03522663811337
 42
0.4142135623730951
 10
102.5498966841911
 20
78.0352266381134
 10
102.5498966841911
 20
79.52876249782878
 10
102.5498966841911
 20
82.03522663811339
 10
105.0498966841916
 20
82.03522663811339
 10
105.0498966841916
 20
84.03522663811337
 10
114.5498966841911
 20
84.03522663811337
 10
114.5498966841911
 20
88.68522663811303
 10
115.8498966841913
 20
90.18522663811348
 10
114.5498966841911
 20
91.68522663811302
 10
114.5498966841911
 20
96.3352266381131
 10
105.0498966841916
 20
96.3352266381131
 10
105.0498966841916
 20
98.33522663811312
 10
102.5498966841911
 20
98.33522663811312
 10
102.5498966841911
 20
100.0352266381134
 42
-0.4142135623730951
 10
104.5498966841911
 20
102.0352266381134
 10
114.5498966841916
 20
102.0352266381134
 10
114.5498966841916
 20
102.335226638113
 10
123.0498966841916
 20
102.335226638113
 10
123.0498966841916
 20
107.1352266381133
 10
114.5498966841916
 20
107.1352266381133
 10
114.5498966841916
 20
126.5352266381129
 42
-0.4142135623730951
 10
116.5498966841916
 20
128.5352266381129
 10
182.4820463347874
 20
128.5352266381129
 42
-0.3152987888789836
 10
185.301124197145
 20
126.5612870680898
 10
189.4292819257631
 20
115.2192669247643
 42
-0.4400105308918385
 10
188.0675347743969
 20
112.6033749855347
 10
187.7734395488838
 20
112.5245724073607
 42
0.3394542588633776
 10
185.5498966841916
 20
109.6267949284935
 10
185.5498966841916
 20
109.0352266381129
 10
185.0498966841916
 20
108.5352266381129
 10
171.5498966841916
 20
108.5352266381129
 10
171.5498966841916
 20
104.0352266381129
 10
169.0498966841916
 20
104.0352266381129
 10
169.0498966841916
 20
96.03522663811293
 10
171.5498966841916
 20
96.03522663811293
 10
171.5498966841916
 20
72.53522663811337
 10
167.5498966841916
 20
72.53522663811293
 10
167.5498966841916
 20
68.5352266381134
 10
171.5498966841916
 20
68.53522663811293
 10
171.5498966841916
 20
66.16008437653602
 10
171.5498966841916
 20
62.53522663811292
 42
-0.4142135623730951
 10
169.5498966841916
 20
60.53522663811293
 10
165.5498966841921
 20
60.53522663811293
 10
107.2450408630362
 20
60.53522663811335
 10
87.54989668419161
 20
60.53522663811335
 42
-0.4142135623730951
 10
84.54989668419162
 20
63.5352266381134
  0
LWPOLYLINE
  5
4045
330
1F
100
AcDbEntity
  8
Blendrahmen
100
AcDbPolyline
 90
       42
 70
     1
 43
0.0
 10
50.54989668419111
 20
145.0352266381129
 10
118.482046334787
 20
145.0352266381129
 42
-0.3152987888789794
 10
121.3011241971449
 20
143.0612870680898
 10
125.4292819257635
 20
131.7192669247643
 42
-0.5205670505517467
 10
123.5498966841911
 20
129.0352266381129
 10
111.5498966841916
 20
129.0352266381129
 42
0.4142135623730951
 10
110.5498966841916
 20
128.0352266381129
 10
110.5498966841911
 20
109.0352266381129
 42
-0.4142135623730951
 10
108.5498966841911
 20
107.0352266381129
 10
91.54989668419162
 20
107.0352266381129
 42
0.4142135623730951
 10
90.54989668419162
 20
106.0352266381129
 10
90.54989668419112
 20
79.03522663811337
 42
-0.4142135623730951
 10
88.54989668419163
 20
77.03522663811337
 10
53.54989668432802
 20
77.03522663811337
 10
50.54989668419111
 20
77.03522663811337
 42
-0.4142135623730951
 10
47.54989668419113
 20
80.03522663811336
 10
47.54989668419113
 20
98.93522663811303
 42
-0.4142135623730951
 10
49.04989668419114
 20
100.435226638113
 10
57.04989668419113
 20
100.4352266381135
 42
0.4142135623730992
 10
57.54989668419113
 20
100.9352266381134
 10
57.54989668419156
 20
101.4352266381135
 10
57.54989668419113
 20
112.1352266381132
 42
0.4142135623730911
 10
57.04989668419113
 20
112.6352266381123
 10
49.24989668419188
 20
112.6352266381123
 42
-0.4142135623730911
 10
47.74989668419276
 20
114.1352266381123
 10
47.74989668419141
 20
121.935226638113
 42
-0.4142135623730992
 10
49.2498966841914
 20
123.435226638113
 10
57.04989668419113
 20
123.435226638113
 42
0.4142135623730992
 10
57.54989668419156
 20
123.935226638113
 10
57.54989668419113
 20
132.6352266381128
 42
0.4142135623730951
 10
57.04989668419113
 20
133.1352266381128
 10
49.04989668418981
 20
133.1352266381122
 42
-0.4142135623730951
 10
47.54989668418978
 20
134.6352266381122
 10
47.54989668418978
 20
136.2015631441232
 42
-0.3394542588633798
 10
47.92048716163768
 20
136.6845260572674
 10
51.17930620674062
 20
137.5577239886821
 42
0.3394542588633914
 10
51.54989668418981
 20
138.0406869018264
 10
51.54989668418981
 20
140.1297663743982
 42
0.339454258863376
 10
51.17930620674062
 20
140.6127292875438
 10
47.92048716163768
 20
141.4859272189582
 42
-0.3394542588633913
 10
47.54989668418978
 20
141.9688901321018
 10
47.54989668419111
 20
142.0352266381128
 42
-0.4142135623731062
  0
LWPOLYLINE
  5
40BA
330
1F
100
AcDbEntity
  8
Fräsung
100
AcDbPolyline
 90
        4
 70
     0
 43
0.0
 10
105.0498966841916
 20
82.03522663811339
 10
164.5498966841911
 20
82.03522663811339
 10
164.5498966841911
 20
98.33522663811312
 10
105.0498966841916
 20
98.33522663811312
  0
LINE
  5
4157
330
1F
100
AcDbEntity
  8
Schlitz-Zapfen
100
AcDbLine
 10
188.950311760611
 20
116.5352266381122
 30
0.0
 11
114.5498966841916
 21
116.5352266381122
 31
0.0
  0
LINE
  5
4158
330
1F
100
AcDbEntity
  8
Schlitz-Zapfen
100
AcDbLine
 10
171.5498966841916
 20
107.0352266381124
 30
0.0
 11
123.0498966841912
 21
107.0352266381124
 31
0.0
  0
LINE
  5
4159
330
1F
100
AcDbEntity
  8
Schlitz-Zapfen
100
AcDbLine
 10
169.0498966841916
 20
96.03522663811249
 30
0.0
 11
114.5498966841912
 21
96.03522663811249
 31
0.0
  0
LINE
  5
415A
330
1F
100
AcDbEntity
  8
Schlitz-Zapfen
100
AcDbLine
 10
171.5498966841916
 20
84.03522663811271
 30
0.0
 11
114.5498966841912
 21
84.03522663811271
 31
0.0
  0
LINE
  5
415B
102
{ACAD_REACTORS
330
4364
102
}
330
1F
100
AcDbEntity
  8
Schraffur
 62
    84
100
AcDbLine
 10
123.0498966841912
 20
106.5352266381129
 30
0.0
 11
171.5498966841916
 21
106.5352266381129
 31
0.0
  0
LINE
  5
415C
102
{ACAD_REACTORS
330
4364
102
}
330
1F
100
AcDbEntity
  8
Schraffur
 62
    84
100
AcDbLine
 10
105.0498966841912
 20
82.53522663811294
 30
0.0
 11
171.5498966841916
 21
82.53522663811294
 31
0.0
  0
LINE
  5
4171
330
1F
100
AcDbEntity
  8
Schlitz-Zapfen
100
AcDbLine
 10
57.34989668419096
 20
100.5352266381134
 30
0.0
 11
90.54989668419151
 21
100.5352266381134
 31
0.0
  0
LINE
  5
4172
330
1F
100
AcDbEntity
  8
Schlitz-Zapfen
100
AcDbLine
 10
57.34989668419075
 20
112.5352266381129
 30
0.0
 11
110.5498966841912
 21
112.5352266381129
 31
0.0
  0
LINE
  5
4173
330
1F
100
AcDbEntity
  8
Schlitz-Zapfen
100
AcDbLine
 10
57.34989668419129
 20
123.5352266381129
 30
0.0
 11
110.5498966841915
 21
123.5352266381129
 31
0.0
  0
LINE
  5
4174
330
1F
100
AcDbEntity
  8
Schlitz-Zapfen
100
AcDbLine
 10
57.349896684191
 20
133.0352266381129
 30
0.0
 11
124.9503117606111
 21
133.0352266381129
 31
0.0
  0
LINE
  5
4175
330
1F
100
AcDbEntity
  8
Schraffur
 62
     5
100
AcDbLine
 10
48.23009278147268
 20
123.0352266381129
 30
0.0
 11
110.5498966841915
 21
123.0352266381131
 31
0.0
  0
LINE
  5
4176
330
1F
100
AcDbEntity
  8
Schraffur
 62
     5
100
AcDbLine
 10
47.55323372948156
 20
99.03522663811305
 30
0.0
 11
90.54989668419151
 21
99.03522663811305
 31
0.0
  0
HATCH
  5
41E6
330
1F
100
AcDbEntity
  8
Schraffur
 62
     5
100
AcDbHatch
 10
0.0
 20
0.0
 30
0.0
210
0.0
220
0.0
230
1.0
  2
STEEL
 70
     0
 71
     0
 91
        2
 92
        7
 72
     1
 73
     1
 93
        8
 10
88.54989668419163
 20
77.03522663811337
 42
0.4142135623730951
 10
90.54989668419112
 20
79.03522663811337
 42
0.0
 10
90.54989668419139
 20
99.03522663811305
 42
0.0
 10
47.55323372948156
 20
99.03522663811305
 42
0.0166805839233444
 10
47.54989668419113
 20
98.93522663811303
 42
0.0
 10
47.54989668419113
 20
80.03522663811336
 42
0.4142135623730951
 10
50.54989668419111
 20
77.03522663811337
 42
0.0
 10
53.54989668432802
 20
77.03522663811337
 42
0.0
 97
        0
 92
        1
 93
       25
 72
     2
 10
48.04989668419004
 20
141.9688901321013
 40
0.4999999999988924
 50
179.9999999999575
 51
254.9999999998366
 73
     1
 72
     1
 10
47.92048716163768
 20
141.4859272189582
 11
51.17930620674039
 21
140.6127292875439
 72
     2
 10
51.04989668418891
 20
140.1297663743985
 40
0.5000000000008973
 50
284.9999999999992
 51
360.000000000026
 73
     0
 72
     1
 10
51.54989668418981
 20
140.1297663743982
 11
51.54989668418981
 21
138.0406869018268
 72
     2
 10
51.04989668418974
 20
138.0406869018268
 40
0.5000000000000643
 50
0.0000000000032569
 51
75.00000000004755
 73
     0
 72
     1
 10
51.17930620674062
 20
137.5577239886821
 11
47.92048716163935
 21
136.6845260572679
 72
     2
 10
48.04989668419047
 20
136.201563144124
 40
0.4999999999993502
 50
105.000000000002
 51
180.0000000000423
 73
     1
 72
     1
 10
47.54989668419113
 20
136.2015631441236
 11
47.54989668419113
 21
134.6352266381128
 72
     2
 10
49.04989668419114
 20
134.6352266381128
 40
1.500000000000003
 50
180.0
 51
270.0
 73
     1
 72
     1
 10
49.04989668419114
 20
133.1352266381128
 11
57.04989668419113
 21
133.1352266381128
 72
     2
 10
57.04989668419113
 20
132.6352266381128
 40
0.5
 50
270.0
 51
360.0
 73
     0
 72
     1
 10
57.54989668419113
 20
132.6352266381128
 11
57.54989668419156
 21
123.935226638113
 72
     2
 10
57.04989668419134
 20
123.9352266381132
 40
0.5000000000002097
 50
0.0000000000244267
 51
90.00000000002442
 73
     0
 72
     1
 10
57.04989668419113
 20
123.435226638113
 11
49.2498966841914
 21
123.435226638113
 72
     2
 10
49.2498966841914
 20
121.935226638113
 40
1.499999999999985
 50
90.00000000000055
 51
132.8334280660731
 73
     1
 72
     1
 10
48.23009278147274
 20
123.0352266381129
 11
110.5498966841914
 21
123.0352266381131
 72
     1
 10
110.5498966841914
 20
123.0352266381131
 11
110.5498966841916
 21
128.0352266381129
 72
     2
 10
111.5498966841916
 20
128.0352266381129
 40
0.9999999999999998
 50
180.0
 51
270.0
 73
     0
 72
     1
 10
111.5498966841916
 20
129.0352266381129
 11
123.5498966841911
 21
129.0352266381129
 72
     2
 10
123.5498966841913
 20
131.0352266381131
 40
2.00000000000023
 50
269.9999999999923
 51
379.9999999999924
 73
     1
 72
     1
 10
125.4292819257635
 20
131.7192669247643
 11
121.3011241971449
 21
143.0612870680898
 72
     2
 10
118.482046334787
 20
142.0352266381127
 40
3.000000000000221
 50
20.00000000000074
 51
89.99999999999969
 73
     1
 72
     1
 10
118.482046334787
 20
145.0352266381129
 11
50.54989668419111
 21
145.0352266381129
 72
     2
 10
50.54989668419111
 20
142.0352266381129
 40
2.999999999999986
 50
90.00000000000026
 51
180.0
 73
     1
 72
     1
 10
47.54989668419113
 20
142.0352266381129
 11
47.54989668419113
 21
141.9688901321016
 97
        0
 75
     0
 76
     1
 52
90.0
 41
2.0
 77
     0
 78
     2
 53
135.0
 43
0.0
 44
0.0
 45
-4.490128060534575
 46
-4.490128060534575
 79
     0
 53
135.0
 43
-3.174999999999998
 44
0.0000000000000002
 45
-4.490128060534575
 46
-4.490128060534575
 79
     0
 47
0.1923112528263459
 98
        4
 10
-36.36468089834739
 20
11.43582690450023
 10
-36.36468089834739
 20
11.43582690450023
 10
78.07169923437161
 20
136.0412806191553
 10
68.16867965610362
 20
87.6183532085848
1001
ACAD
1010
0.0
1020
0.0
1030
0.0
  0
MTEXT
  5
424F
330
1F
100
AcDbEntity
  8
Bemaßung
100
AcDbMText
 10
71.69998190324522
 20
113.9833386153705
 30
0.0
 40
4.0
 41
15.20500240567617
 71
     1
 72
     5
  1
78/68
  7
RomanS
 73
     1
 44
1.0
1001
ACAD
1000
MTEXTBEGIN
1070
    73
1070
     1
1070
    44
1040
1.0
1070
    74
1070
     0
1000
MTEXTEND
  0
HATCH
  5
4261
330
1F
100
AcDbEntity
  8
Schraffur
 62
     5
100
AcDbHatch
 10
0.0
 20
0.0
 30
0.0
210
0.0
220
0.0
230
1.0
  2
STEEL
 70
     0
 71
     0
 91
        2
 92
        7
 72
     1
 73
     1
 93
       17
 10
48.23009278147274
 20
123.0352266381129
 42
0.208758665760047
 10
47.74989668419141
 20
121.935226638113
 42
0.0
 10
47.74989668419276
 20
114.1352266381123
 42
0.4142135623730912
 10
49.24989668419188
 20
112.6352266381123
 42
0.0
 10
57.04989668419113
 20
112.6352266381123
 42
-0.4142135623730912
 10
57.54989668419113
 20
112.1352266381132
 42
0.0
 10
57.54989668419156
 20
101.4352266381135
 42
0.0
 10
57.54989668419113
 20
100.9352266381134
 42
-0.4142135623730991
 10
57.04989668419113
 20
100.4352266381135
 42
0.0
 10
49.04989668419114
 20
100.435226638113
 42
0.3948051417731035
 10
47.55323372948156
 20
99.03522663811305
 42
0.0
 10
90.54989668419148
 20
99.03522663811301
 42
0.0
 10
90.54989668419162
 20
106.0352266381129
 42
-0.4142135623730951
 10
91.54989668419162
 20
107.0352266381129
 42
0.0
 10
108.5498966841911
 20
107.0352266381129
 42
0.4142135623730951
 10
110.5498966841911
 20
109.0352266381129
 42
0.0
 10
110.5498966841915
 20
123.0352266381131
 42
0.0
 97
        0
 92
       24
 93
        4
 72
     1
 10
70.69998190324522
 20
114.9833386153705
 11
85.49998190324521
 21
114.9833386153705
 72
     1
 10
85.49998190324521
 20
114.9833386153705
 11
85.49998190324521
 21
106.8881005201324
 72
     1
 10
85.49998190324521
 20
106.8881005201324
 11
70.69998190324522
 21
106.8881005201324
 72
     1
 10
70.69998190324522
 20
106.8881005201324
 11
70.69998190324522
 21
114.9833386153705
 97
        0
 75
     0
 76
     1
 52
0.0
 41
2.0
 77
     0
 78
     2
 53
45.0
 43
0.0
 44
0.0
 45
-4.490128060534575
 46
4.490128060534575
 79
     0
 53
45.0
 43
0.0
 44
3.174999999999998
 45
-4.490128060534575
 46
4.490128060534575
 79
     0
 47
0.1084152993009353
 98
        1
 10
75.27551713877001
 20
115.1795098567664
1001
ACAD
1010
0.0
1020
0.0
1030
0.0
  0
HATCH
  5
42F6
330
1F
100
AcDbEntity
  8
Schraffur
 62
    84
100
AcDbHatch
 10
0.0
 20
0.0
 30
0.0
210
0.0
220
0.0
230
1.0
  2
STEEL
 70
     0
 71
     0
 91
        7
 92
        7
 72
     1
 73
     1
 93
       15
 10
116.5498966841916
 20
128.5352266381129
 42
0.4142135623730951
 10
114.5498966841916
 20
126.5352266381129
 42
0.0
 10
114.5498966841916
 20
107.1352266381133
 42
0.0
 10
123.0498966841916
 20
107.1352266381133
 42
0.0
 10
123.0498966841916
 20
106.5352266381129
 42
0.0
 10
171.5498966841916
 20
106.5352266381129
 42
0.0
 10
171.5498966841916
 20
108.5352266381129
 42
0.0
 10
185.0498966841916
 20
108.5352266381129
 42
0.0
 10
185.5498966841916
 20
109.0352266381129
 42
0.0
 10
185.5498966841916
 20
109.6267949284935
 42
-0.3394542588633776
 10
187.7734395488838
 20
112.5245724073607
 42
0.0
 10
188.0675347743969
 20
112.6033749855347
 42
0.4400105308918386
 10
189.4292819257631
 20
115.2192669247643
 42
0.0
 10
185.301124197145
 20
126.5612870680898
 42
0.3152987888789836
 10
182.4820463347874
 20
128.5352266381129
 42
0.0
 97
        0
 92
       24
 93
        4
 72
     1
 10
86.48121920170121
 20
71.24544657673077
 11
92.81455253503452
 21
71.24544657673077
 72
     1
 10
92.81455253503452
 20
71.24544657673077
 11
92.81455253503452
 21
62.01925610054028
 72
     1
 10
92.81455253503452
 20
62.01925610054028
 11
86.48121920170121
 21
62.01925610054028
 72
     1
 10
86.48121920170121
 20
62.01925610054028
 11
86.48121920170121
 21
71.24544657673077
 97
        0
 92
       24
 93
        4
 72
     1
 10
179.2532517469659
 20
127.112146838517
 11
183.3365850802992
 21
127.112146838517
 72
     1
 10
183.3365850802992
 20
127.112146838517
 11
183.3365850802992
 21
123.362146838517
 72
     1
 10
183.3365850802992
 20
123.362146838517
 11
179.2532517469659
 21
123.362146838517
 72
     1
 10
179.2532517469659
 20
123.362146838517
 11
179.2532517469659
 21
127.112146838517
 97
        0
 92
        8
 93
        4
 72
     1
 10
92.50048670124641
 20
67.83869694818344
 11
94.95307878855879
 21
67.83869694818344
 72
     1
 10
94.95307878855879
 20
67.83869694818344
 11
94.95307878855879
 21
65.12212123194878
 72
     1
 10
94.95307878855879
 20
65.12212123194878
 11
92.50048670124641
 21
65.12212123194878
 72
     1
 10
92.50048670124641
 20
65.12212123194878
 11
92.50048670124641
 21
67.83869694818344
 97
        0
 92
       24
 93
        4
 72
     1
 10
92.50048670124641
 20
67.83869694818344
 11
94.95307878855879
 21
67.83869694818344
 72
     1
 10
94.95307878855879
 20
67.83869694818344
 11
94.95307878855879
 21
65.12212123194878
 72
     1
 10
94.95307878855879
 20
65.12212123194878
 11
92.50048670124641
 21
65.12212123194878
 72
     1
 10
92.50048670124641
 20
65.12212123194878
 11
92.50048670124641
 21
67.83869694818344
 97
        0
 92
       24
 93
        4
 72
     1
 10
86.48121920170117
 20
71.24544657673077
 11
92.81455253503445
 21
71.24544657673077
 72
     1
 10
92.81455253503445
 20
71.24544657673077
 11
92.81455253503445
 21
62.01925610054028
 72
     1
 10
92.81455253503445
 20
62.01925610054027
 11
86.48121920170117
 21
62.01925610054027
 72
     1
 10
86.48121920170117
 20
62.01925610054027
 11
86.48121920170117
 21
71.24544657673077
 97
        0
 92
        1
 93
       21
 72
     2
 10
95.54989668419072
 20
76.03522663811398
 40
0.9999999999993887
 50
89.9999999999992
 51
180.0000000000219
 73
     1
 72
     1
 10
94.54989668419131
 20
76.0352266381136
 11
94.54989668419079
 21
74.03522663811348
 72
     1
 10
94.54989668419079
 20
74.03522663811348
 11
100.0498966841912
 21
74.03522663811348
 72
     1
 10
100.0498966841912
 20
74.03522663811348
 11
100.0498966841912
 21
71.03522663811361
 72
     1
 10
100.0498966841912
 20
71.03522663811361
 11
86.54989668419117
 21
71.0352266381136
 72
     2
 10
86.54989668419146
 20
69.03522663811376
 40
1.999999999999839
 50
90.00000000000772
 51
180.0
 73
     1
 72
     1
 10
84.54989668419162
 20
69.03522663811376
 11
84.54989668419162
 21
63.5352266381134
 72
     2
 10
87.54989668419161
 20
63.53522663811336
 40
3.000000000000008
 50
179.9999999999994
 51
269.9999999999994
 73
     1
 72
     1
 10
87.54989668419161
 20
60.53522663811335
 11
169.5498966841916
 21
60.53522663811293
 72
     2
 10
169.5498966841916
 20
62.53522663811292
 40
1.999999999999999
 50
270.0
 51
360.0
 73
     1
 72
     1
 10
171.5498966841916
 20
62.53522663811292
 11
171.5498966841916
 21
68.53522663811293
 72
     1
 10
171.5498966841916
 20
68.53522663811293
 11
167.5498966841916
 21
68.5352266381134
 72
     1
 10
167.5498966841916
 20
68.5352266381134
 11
167.5498966841916
 21
72.53522663811293
 72
     1
 10
167.5498966841916
 20
72.53522663811293
 11
171.5498966841916
 21
72.53522663811337
 72
     1
 10
171.5498966841916
 20
72.53522663811337
 11
171.5498966841916
 21
82.53522663811294
 72
     1
 10
171.5498966841916
 20
82.53522663811294
 11
105.0498966841916
 21
82.53522663811294
 72
     1
 10
105.0498966841916
 20
82.53522663811294
 11
105.0498966841916
 21
82.03522663811339
 72
     1
 10
105.0498966841916
 20
82.03522663811339
 11
102.5498966841911
 21
82.03522663811339
 72
     1
 10
102.5498966841911
 20
82.03522663811339
 11
102.5498966841911
 21
78.0352266381134
 72
     2
 10
101.549896684191
 20
78.0352266381134
 40
1.000000000000011
 50
359.9999999999992
 51
449.9999999999992
 73
     0
 72
     1
 10
101.5498966841911
 20
77.03522663811337
 11
95.54989668419072
 21
77.03522663811337
 97
        0
 75
     0
 76
     1
 52
0.0
 41
2.0
 77
     0
 78
     2
 53
45.0
 43
0.0
 44
0.0
 45
-4.490128060534575
 46
4.490128060534575
 79
     0
 53
45.0
 43
0.0
 44
3.174999999999998
 45
-4.490128060534575
 46
4.490128060534575
 79
     0
 47
0.2698468452767036
 98
        6
 10
155.3935846974775
 20
68.7502186720086
 10
-36.36468089834739
 20
11.43582690450023
 10
-36.36468089834739
 20
11.43582690450023
 10
-36.36468089834739
 20
11.43582690450023
 10
155.8263374008867
 20
124.3673805786598
 10
135.6545164311949
 20
70.84097846023597
1001
ACAD
1010
0.0
1020
0.0
1030
0.0
  0
MTEXT
  5
42F7
102
{ACAD_REACTORS
330
4364
102
}
330
1F
100
AcDbEntity
  8
Bemaßung
100
AcDbMText
 10
134.1108783738926
 20
95.41193719920569
 30
0.0
 40
4.0
 41
15.20500240567617
 71
     1
 72
     5
  1
105/68
  7
RomanS
 73
     1
 44
1.0
1001
ACAD
1000
MTEXTBEGIN
1070
    73
1070
     1
1070
    44
1040
1.0
1070
    74
1070
     0
1000
MTEXTEND
  0
HATCH
  5
4364
330
1F
100
AcDbEntity
  8
Schraffur
 62
    84
100
AcDbHatch
 10
0.0
 20
0.0
 30
0.0
210
0.0
220
0.0
230
1.0
  2
STEEL
 70
     0
 71
     1
 91
        2
 92
        7
 72
     1
 73
     1
 93
       22
 10
171.5498966841916
 20
82.53522663811294
 42
0.0
 10
171.5498966841916
 20
96.03522663811293
 42
0.0
 10
169.0498966841916
 20
96.03522663811293
 42
0.0
 10
169.0498966841916
 20
104.0352266381129
 42
0.0
 10
171.5498966841916
 20
104.0352266381129
 42
0.0
 10
171.5498966841916
 20
106.5352266381129
 42
0.0
 10
123.0498966841916
 20
106.5352266381129
 42
0.0
 10
123.0498966841916
 20
102.335226638113
 42
0.0
 10
114.5498966841916
 20
102.335226638113
 42
0.0
 10
114.5498966841916
 20
102.0352266381134
 42
0.0
 10
104.5498966841911
 20
102.0352266381134
 42
0.4142135623730951
 10
102.5498966841911
 20
100.0352266381134
 42
0.0
 10
102.5498966841911
 20
98.33522663811312
 42
0.0
 10
105.0498966841916
 20
98.33522663811312
 42
0.0
 10
105.0498966841916
 20
96.3352266381131
 42
0.0
 10
114.5498966841911
 20
96.3352266381131
 42
0.0
 10
114.5498966841911
 20
91.68522663811302
 42
0.0
 10
115.8498966841913
 20
90.18522663811348
 42
0.0
 10
114.5498966841911
 20
88.68522663811303
 42
0.0
 10
114.5498966841911
 20
84.03522663811337
 42
0.0
 10
105.0498966841916
 20
84.03522663811337
 42
0.0
 10
105.0498966841916
 20
82.53522663811294
 42
0.0
 97
        3
330
403F
330
415B
330
415C
 92
       24
 93
        4
 72
     1
 10
133.1108783738926
 20
88.3166991039676
 11
150.1775450405592
 21
88.3166991039676
 72
     1
 10
150.1775450405592
 20
88.3166991039676
 11
150.1775450405592
 21
96.41193719920568
 72
     1
 10
150.1775450405592
 20
96.41193719920568
 11
133.1108783738926
 21
96.41193719920568
 72
     1
 10
133.1108783738926
 20
96.41193719920568
 11
133.1108783738926
 21
88.3166991039676
 97
        1
330
42F7
 75
     0
 76
     1
 52
90.0
 41
2.0
 77
     0
 78
     2
 53
135.0
 43
0.0
 44
0.0
 45
-4.490128060534575
 46
-4.490128060534575
 79
     0
 53
135.0
 43
-3.174999999999998
 44
0.0000000000000002
 45
-4.490128060534575
 46
-4.490128060534575
 79
     0
 47
0.4421762050921921
 98
        1
 10
123.1944387858959
 20
89.14357996551336
1001
ACAD
1010
0.0
1020
0.0
1030
0.0
  0
MTEXT
  5
440E
330
1F
100
AcDbEntity
  8
Beschläge
100
AcDbMText
 10
117.3962075534556
 20
57.17574749089167
 30
0.0
 40
2.5
 41
56.49908564796747
 71
     1
 72
     5
  1
{\Fromans|c0;Schlosskasten nur an Schlosseite}
 73
     1
 44
1.0
1001
ACAD
1000
MTEXTBEGIN
1070
    73
1070
     1
1070
    44
1040
1.0
1070
    74
1070
     0
1000
MTEXTEND
1000
ACAD_MTEXT_DEFINED_HEIGHT_BEGIN
1070
    46
1040
10.16250896781832
1000
ACAD_MTEXT_DEFINED_HEIGHT_END
  0
INSERT
  5
4763
330
1F
100
AcDbEntity
  8
0
100
AcDbBlockReference
  2
I-BK-Tür_PZ
 10
291.0000000000001
 20
26.08079994679292
 30
0.0
  0
LINE
  5
4766
330
1F
100
AcDbEntity
  8
0
  6
STRICHPUNKT
 48
0.1804
100
AcDbLine
 10
283.0932069577082
 20
37.65234862594538
 30
0.0
 11
289.9309986221556
 21
37.65234862594538
 31
0.0
1001
AcDbBlockRepETag
1070
     1
1071
       32
1005
0
  0
MTEXT
  5
4769
330
1F
100
AcDbEntity
  8
Schraffur
100
AcDbMText
 10
287.8074765126289
 20
40.88504263948609
 30
0.0
 40
2.5
 41
1.84181877992887
 71
     1
 72
     5
  1
B
  7
RomanS
 73
     1
 44
1.0
1001
ACAD
1000
MTEXTBEGIN
1070
    73
1070
     1
1070
    44
1040
1.0
1070
    74
1070
     0
1000
MTEXTEND
  0
INSERT
  5
4797
330
1F
100
AcDbEntity
  8
0
100
AcDbBlockReference
  2
I-BK-Tür_Schwelle_PZ
 10
291.0
 20
76.85523631962768
 30
0.0
  0
LINE
  5
47D6
330
1F
100
AcDbEntity
  8
0
  6
STRICHPUNKT
 48
0.1804
100
AcDbLine
 10
274.9067930422921
 20
37.65234862594538
 30
0.0
 11
268.0690013778447
 21
37.65234862594538
 31
0.0
1001
AcDbBlockRepETag
1070
     1
1071
       32
1005
0
  0
MTEXT
  5
47D7
330
1F
100
AcDbEntity
  8
Schraffur
100
AcDbMText
 10
270.1925234873713
 20
40.88504263948609
 30
0.0
 40
2.5
 41
1.84181877992887
 71
     3
 72
     5
  1
B
  7
RomanS
 73
     1
 44
1.0
1001
ACAD
1000
MTEXTBEGIN
1070
    73
1070
     1
1070
    44
1040
1.0
1070
    74
1070
     0
1000
MTEXTEND
  0
LINE
  5
47D8
330
1F
100
AcDbEntity
  8
0
  6
STRICHPUNKT
 48
0.1804
100
AcDbLine
 10
283.093206957708
 20
88.42678499878015
 30
0.0
 11
289.9309986221555
 21
88.42678499878015
 31
0.0
1001
AcDbBlockRepETag
1070
     1
1071
       32
1005
0
  0
MTEXT
  5
47D9
330
1F
100
AcDbEntity
  8
Schraffur
100
AcDbMText
 10
287.8074765126288
 20
91.65947901232085
 30
0.0
 40
2.5
 41
1.84181877992887
 71
     1
 72
     5
  1
B
  7
RomanS
 73
     1
 44
1.0
1001
ACAD
1000
MTEXTBEGIN
1070
    73
1070
     1
1070
    44
1040
1.0
1070
    74
1070
     0
1000
MTEXTEND
  0
LINE
  5
47DA
330
1F
100
AcDbEntity
  8
0
  6
STRICHPUNKT
 48
0.1804
100
AcDbLine
 10
274.906793042292
 20
88.42678499878015
 30
0.0
 11
268.0690013778445
 21
88.42678499878015
 31
0.0
1001
AcDbBlockRepETag
1070
     1
1071
       32
1005
0
  0
MTEXT
  5
47DB
330
1F
100
AcDbEntity
  8
Schraffur
100
AcDbMText
 10
270.1925234873712
 20
91.65947901232085
 30
0.0
 40
2.5
 41
1.84181877992887
 71
     3
 72
     5
  1
B
  7
RomanS
 73
     1
 44
1.0
1001
ACAD
1000
MTEXTBEGIN
1070
    73
1070
     1
1070
    44
1040
1.0
1070
    74
1070
     0
1000
MTEXTEND
  0
LINE
  5
47E4
330
1F
100
AcDbEntity
  8
Achse
100
AcDbLine
 10
197.5544475043609
 20
141.2593354690466
 30
0.0
 11
197.554447504361
 21
58.16125137375057
 31
0.0
  0
MTEXT
  5
4835
330
1F
100
AcDbEntity
  8
0
100
AcDbMText
 10
8.095834658949003
 20
16.44934439904432
 30
0.0
 40
2.5
 41
119.9402546528737
 71
     1
 72
     5
  1
{\fArial|b1|i0|c0|p34;2)\fArial|b0|i0|c0|p34; SoftLine mit Rundungsradius R5}
 73
     1
 44
1.0
1001
ACAD
1000
MTEXTBEGIN
1070
    73
1070
     1
1070
    44
1040
1.0
1070
    74
1070
     0
1000
MTEXTEND
1000
ACAD_MTEXT_DEFINED_HEIGHT_BEGIN
1070
    46
1040
8.171660040471021
1000
ACAD_MTEXT_DEFINED_HEIGHT_END
  0
MTEXT
  5
48BA
330
1F
100
AcDbEntity
  8
Bemaßung
100
AcDbMText
 10
89.6478858683678
 20
70.62044657673077
 30
0.0
 40
2.5
 41
5.373260390699226
 71
     2
 72
     5
  1
R3\P(R5)
  7
RomanS
 73
     1
 44
1.0
1001
AcDbBlockRepETag
1070
     1
1071
        8
1005
4891
1001
ACAD
1000
MTEXTBEGIN
1070
    73
1070
     1
1070
    44
1040
1.0
1070
    74
1070
     0
1000
MTEXTEND
1000
ACAD_MTEXT_DEFINED_HEIGHT_BEGIN
1070
    46
1040
4.696915190517311
1000
ACAD_MTEXT_DEFINED_HEIGHT_END
  0
DIMENSION
  5
48D9
330
1F
100
AcDbEntity
  8
Bemaßung
100
AcDbDimension
  2
*D3
 10
125.5498966841916
 20
133.3592685720569
 30
0.0
 11
157.5498966841915
 21
135.2342685720569
 31
0.0
 70
    32
 71
     5
 42
63.99999999999977
  3
IDEAL Holz
100
AcDbAlignedDimension
 13
189.5498966841914
 23
133.3592685720569
 33
0.0
 14
125.5498966841916
 24
133.3592685720569
 34
0.0
100
AcDbRotatedDimension
  0
MTEXT
  5
490C
330
1F
100
AcDbEntity
  8
Bemaßung
100
AcDbMText
 10
181.2949184136325
 20
126.487146838517
 30
0.0
 40
2.5
 41
5.373260390699226
 71
     2
 72
     5
  1
R3
  7
RomanS
 73
     1
 44
1.0
1001
AcDbBlockRepETag
1070
     1
1071
        8
1005
4891
1001
ACAD
1000
MTEXTBEGIN
1070
    73
1070
     1
1070
    44
1040
1.0
1070
    74
1070
     0
1000
MTEXTEND
1000
ACAD_MTEXT_DEFINED_HEIGHT_BEGIN
1070
    46
1040
4.696915190517311
1000
ACAD_MTEXT_DEFINED_HEIGHT_END
  0
MTEXT
  5
4916
330
1F
100
AcDbEntity
  8
Bemaßung
100
AcDbMText
 10
92.87548670124641
 20
67.46369694818344
 30
0.0
 40
1.5
 41
7.649234826219069
 71
     1
 72
     5
  1
{\fArial|b1|i0|c0|p34;2)}
 73
     1
 44
1.0
1001
AcDbBlockRepETag
1070
     1
1071
        9
1005
484F
1001
ACAD
1000
MTEXTBEGIN
1070
    73
1070
     1
1070
    44
1040
1.0
1070
    74
1070
     0
1000
MTEXTEND
  0
DIMENSION
  5
4922
330
1F
100
AcDbEntity
  8
Bemaßung
100
AcDbDimension
  2
*D4
 10
84.54989668419162
 20
56.51609523359178
 30
0.0
 11
87.54989668419138
 21
58.39109523359178
 31
0.0
 70
    32
 71
     5
 42
5.999999999999502
  3
IDEAL Holz
100
AcDbAlignedDimension
 13
90.54989668419112
 23
56.51609523359178
 33
0.0
 14
84.54989668419162
 24
56.51609523359178
 34
0.0
100
AcDbRotatedDimension
  0
DIMENSION
  5
495E
102
{ACAD_XDICTIONARY
360
496B
102
}
102
{ACAD_REACTORS
330
4975
102
}
330
1F
100
AcDbEntity
  8
Bemaßung
100
AcDbDimension
  2
*D5
 10
90.54989668419159
 20
82.03522663811339
 30
0.0
 11
96.54989668419132
 21
83.91022663811339
 31
0.0
 70
    32
 71
     5
 42
11.9999999999995
  3
IDEAL Holz
100
AcDbAlignedDimension
 13
102.5498966841911
 23
82.03522663811339
 33
0.0
 14
90.54989668419159
 24
82.03522663811339
 34
0.0
100
AcDbRotatedDimension
  0
DIMENSION
  5
4976
330
1F
100
AcDbEntity
  8
Bemaßung
100
AcDbDimension
  2
*D6
 10
110.5498966841912
 20
112.5352266381129
 30
0.0
 11
112.5498966841914
 21
114.4102266381129
 31
0.0
 70
    32
 71
     5
 42
4.000000000000383
  3
IDEAL Holz
100
AcDbAlignedDimension
 13
114.5498966841916
 23
112.5352266381129
 33
0.0
 14
110.5498966841912
 24
112.5352266381129
 34
0.0
100
AcDbRotatedDimension
  0
DIMENSION
  5
498E
330
1F
100
AcDbEntity
  8
Bemaßung
100
AcDbDimension
  2
*D7
 10
47.35497006485695
 20
66.96310803575999
 30
0.0
 11
65.85497006485721
 21
68.83810803575999
 31
0.0
 70
    32
 71
     5
 42
37.00000000000049
  3
IDEAL Holz
100
AcDbAlignedDimension
 13
84.35497006485745
 23
66.96310803575999
 33
0.0
 14
47.35497006485695
 24
66.96310803575999
 34
0.0
100
AcDbRotatedDimension
  0
MTEXT
  5
49C1
330
1F
100
AcDbEntity
  8
Bemaßung
100
AcDbMText
 10
215.9577964658317
 20
149.6682605392075
 30
0.0
 40
2.5
 41
5.373260390699226
 71
     2
 72
     5
  1
R13
  7
RomanS
 73
     1
 44
1.0
1001
AcDbBlockRepETag
1070
     1
1071
        8
1005
4891
1001
ACAD
1000
MTEXTBEGIN
1070
    73
1070
     1
1070
    44
1040
1.0
1070
    74
1070
     0
1000
MTEXTEND
1000
ACAD_MTEXT_DEFINED_HEIGHT_BEGIN
1070
    46
1040
4.696915190517311
1000
ACAD_MTEXT_DEFINED_HEIGHT_END
  0
HATCH
  5
49C3
330
1F
100
AcDbEntity
  8
Schraffur
 62
     5
100
AcDbHatch
 10
0.0
 20
0.0
 30
0.0
210
0.0
220
0.0
230
1.0
  2
STEEL
 70
     0
 71
     0
 91
        1
 92
        1
 93
        9
 72
     1
 10
216.5710233718085
 20
167.4603423306858
 11
205.8623501625647
 21
167.4603423306858
 72
     2
 10
218.805751283766
 20
178.4816111966424
 40
17.00000000000057
 50
139.5857010460624
 51
220.2262621168522
 73
     0
 72
     1
 10
205.8262496490187
 20
189.4603423306858
 11
217.5010976403068
 21
189.4603423306858
 72
     2
 10
217.5010976403066
 20
176.4603423306859
 40
12.99999999999992
 50
270.0000000000009
 51
340.0000000000002
 73
     0
 72
     1
 10
229.7171017105233
 20
180.9066041939195
 11
231.4504086133799
 21
176.1443826173372
 72
     2
 10
229.5710233718079
 20
175.4603423306859
 40
2.000000000000149
 50
340.0000000000033
 51
450.0000000000036
 73
     0
 72
     1
 10
229.5710233718078
 20
173.4603423306858
 11
217.5710233718085
 21
173.4603423306858
 72
     2
 10
217.5710233718085
 20
172.4603423306858
 40
0.9999999999999998
 50
90.0
 51
180.0
 73
     1
 72
     1
 10
216.5710233718085
 20
172.4603423306858
 11
216.5710233718085
 21
167.4603423306858
 97
        0
 75
     0
 76
     1
 52
90.0
 41
2.0
 77
     0
 78
     2
 53
135.0
 43
0.0
 44
0.0
 45
-4.490128060534575
 46
-4.490128060534575
 79
     0
 53
135.0
 43
-3.174999999999998
 44
0.0000000000000002
 45
-4.490128060534575
 46
-4.490128060534575
 79
     0
 98
        5
 10
0.0
 20
0.0
 10
0.0
 20
0.0
 10
136.0476848352464
 20
334.9175379016908
 10
215.4587483952973
 20
181.9526565837238
 10
96.55323635206748
 20
191.8337822138906
1001
AcDbBlockRepETag
1070
     1
1071
        0
1005
49C3
1001
ACAD
1010
0.0
1020
0.0
1030
0.0
  0
HATCH
  5
49C4
330
1F
100
AcDbEntity
  8
Schraffur
 62
    84
100
AcDbHatch
 10
0.0
 20
0.0
 30
0.0
210
0.0
220
0.0
230
1.0
  2
STEEL
 70
     0
 71
     0
 91
        2
 92
        1
 93
       13
 72
     1
 10
207.9145775825369
 20
133.571732098085
 11
205.8623501625647
 21
133.571732098085
 72
     2
 10
218.8057512837659
 20
144.5930009640416
 40
17.0000000000005
 50
139.5857010460624
 51
220.4583214417465
 73
     0
 72
     1
 10
205.8708220348431
 20
155.6242114744698
 11
211.8446518510353
 21
155.6242114744698
 72
     2
 10
211.8446518510349
 20
142.6242114744697
 40
13.00000000000012
 50
270.000000000002
 51
339.9999999999974
 73
     0
 72
     1
 10
224.0606559212516
 20
147.070473337704
 11
225.7939628241124
 21
142.3082517611085
 72
     1
 10
225.7939628241124
 20
142.3082517611085
 11
225.8088504788263
 21
142.2658735306816
 72
     2
 10
223.9145775825369
 20
141.6242114744694
 40
1.999999999999771
 50
341.2868106197552
 51
435.0000000000021
 73
     0
 72
     1
 10
224.4322156727418
 20
139.6923598218915
 11
224.1381204472292
 21
139.6135572437176
 72
     2
 10
224.9145775825365
 20
136.7157797648506
 40
2.999999999999761
 50
104.9999999999954
 51
180.0000000000107
 73
     1
 72
     1
 10
221.9145775825367
 20
136.71577976485
 11
221.914577582537
 21
136.1242114744697
 72
     1
 10
221.9145775825369
 20
136.1242114744697
 11
221.4145775825367
 21
135.6242114744697
 72
     1
 10
221.4145775825367
 20
135.6242114744697
 11
207.9145775825369
 21
135.6242114744697
 72
     1
 10
207.9145775825369
 20
135.6242114744697
 11
207.9145775825369
 21
133.571732098085
 97
        0
 92
       24
 93
        4
 72
     1
 10
213.0827964658317
 20
150.2932605392075
 11
218.8327964658317
 21
150.2932605392075
 72
     1
 10
218.8327964658317
 20
150.2932605392075
 11
218.8327964658317
 21
146.5432605392075
 72
     1
 10
218.8327964658317
 20
146.5432605392075
 11
213.0827964658317
 21
146.5432605392075
 72
     1
 10
213.0827964658317
 20
146.5432605392075
 11
213.0827964658317
 21
150.2932605392075
 97
        0
 75
     0
 76
     1
 52
0.0
 41
2.0
 77
     0
 78
     2
 53
45.0
 43
0.0
 44
0.0
 45
-4.490128060534575
 46
4.490128060534575
 79
     0
 53
45.0
 43
0.0
 44
3.174999999999998
 45
-4.490128060534575
 46
4.490128060534575
 79
     0
 98
        5
 10
0.0
 20
0.0
 10
0.0
 20
0.0
 10
135.2956069804556
 20
306.6991726977448
 10
212.8314186541814
 20
142.7453030522226
 10
80.69292282980578
 20
142.7453030522226
1001
AcDbBlockRepETag
1070
     1
1071
        1
1005
49C4
1001
ACAD
1010
0.0
1020
0.0
1030
0.0
  0
LWPOLYLINE
  5
49C5
102
{ACAD_REACTORS
330
49D7
102
}
330
1F
100
AcDbEntity
  8
Flügelrahmen
100
AcDbPolyline
 90
        4
 70
     0
 43
0.0
 10
234.8841712187055
 20
172.9603423306863
 10
222.5710233718085
 20
172.9603423306863
 42
0.4142135623730951
 10
220.5710233718085
 20
170.9603423306863
 10
220.5710233718085
 20
161.573512412534
1001
AcDbBlockRepETag
1070
     1
1071
        2
1005
49C5
  0
LWPOLYLINE
  5
49C6
102
{ACAD_REACTORS
330
49D7
330
49DA
102
}
330
1F
100
AcDbEntity
  8
0
100
AcDbPolyline
 90
        2
 70
     1
 43
0.0
 10
220.180714601726
 20
161.5373060803421
 42
-24.68742596468933
 10
217.4307879658059
 20
161.5373060803421
 42
-24.68742596468933
1001
AcDbBlockRepETag
1070
     1
1071
        3
1005
49C6
  0
HATCH
  5
49D2
330
1F
100
AcDbEntity
  8
Silikon
 62
     1
100
AcDbHatch
 10
0.0
 20
0.0
 30
0.0
210
0.0
220
0.0
230
1.0
  2
ANGLE
 70
     0
 71
     1
 91
        1
 92
        1
 93
        6
 72
     2
 10
223.914577582539
 20
141.6242114744633
 40
1.999999999999897
 50
340.0000000000076
 51
435.0000000000021
 73
     0
 72
     1
 10
224.4322156727439
 20
139.6923598218853
 11
224.1381204472313
 21
139.6135572437112
 72
     2
 10
224.9145775825387
 20
136.7157797648442
 40
2.999999999999738
 50
104.9999999999986
 51
179.9999999999967
 73
     1
 72
     1
 10
221.914577582539
 20
136.7157797648444
 11
221.9145775825386
 21
135.1242114744629
 72
     1
 10
221.9145775825386
 20
135.1242114744629
 11
228.3177470916545
 21
135.1242114744629
 72
     1
 10
228.3177470916545
 20
135.1242114744629
 11
225.7939628241108
 21
142.3082517611144
 97
        1
330
49D3
 75
     0
 76
     1
 52
270.0
 41
0.1
 77
     0
 78
     2
 53
270.0
 43
563.5083259990603
 44
-279.2697483193497
 45
-0.6985000000000002
 46
0.0000000000000001
 79
     2
 49
0.508
 49
-0.1905
 53
180.0
 43
563.5083259990603
 44
-279.2697483193497
 45
0.0000000000000001
 46
0.6985000000000002
 79
     2
 49
0.508
 49
-0.1905
 98
        1
 10
563.5083259990603
 20
-279.2697483193497
1001
ACAD
1010
0.0
1020
0.0
1030
0.0
1001
AcDbBlockRepETag
1070
     1
1071
       15
1005
49D2
  0
LWPOLYLINE
  5
49D3
102
{ACAD_REACTORS
330
49D2
102
}
330
1F
100
AcDbEntity
  8
Silikon
 62
     1
100
AcDbPolyline
 90
        6
 70
     1
 43
0.0
 10
225.7939628241108
 20
142.3082517611144
 42
-0.4400105308918068
 10
224.4322156727439
 20
139.6923598218853
 10
224.1381204472313
 20
139.6135572437112
 42
0.3394542588633679
 10
221.914577582539
 20
136.7157797648444
 10
221.9145775825386
 20
135.1242114744629
 10
228.3177470916545
 20
135.1242114744629
1001
AcDbBlockRepETag
1070
     1
1071
       16
1005
49D3
  0
LWPOLYLINE
  5
49D4
330
1F
100
AcDbEntity
  8
Flügelrahmen
100
AcDbPolyline
 90
       13
 70
     0
 43
0.0
 10
205.8708220348427
 20
155.6242114744698
 10
207.9145775825364
 20
155.6242114744698
 10
211.8446518510353
 20
155.6242114744698
 42
-0.3152987888789831
 10
224.0606559212519
 20
147.070473337703
 10
225.7939628241085
 20
142.3082517611207
 42
-0.4400105308918346
 10
224.4322156727419
 20
139.6923598218916
 10
224.1381204472292
 20
139.6135572437176
 42
0.3394542588633779
 10
221.9145775825367
 20
136.7157797648502
 10
221.9145775825369
 20
136.1242114744697
 10
221.4145775825367
 20
135.6242114744697
 10
207.9145775825369
 20
135.6242114744697
 10
207.9145775825369
 20
135.6242114744697
 10
207.9145775825369
 20
131.5399424944846
1001
AcDbBlockRepETag
1070
     1
1071
       17
1005
49D4
  0
LWPOLYLINE
  5
49D5
102
{ACAD_REACTORS
330
49DA
102
}
330
1F
100
AcDbEntity
  8
Blendrahmen
100
AcDbPolyline
 90
        9
 70
     0
 43
0.0
 10
216.5710233718085
 20
161.6291338962719
 10
216.5710233718085
 20
172.4603423306858
 42
-0.4142135623730951
 10
217.5710233718085
 20
173.4603423306858
 10
229.5710233718078
 20
173.4603423306858
 42
0.5205670505517467
 10
231.4504086133799
 20
176.1443826173372
 10
229.7171017105233
 20
180.9066041939195
 42
0.3152987888789794
 10
217.5010976403068
 20
189.4603423306858
 10
216.5710233718085
 20
189.4603423306858
 10
205.8262496490194
 20
189.4603423306858
1001
AcDbBlockRepETag
1070
     1
1071
       18
1005
49D5
  0
TEXT
  5
49D6
330
1F
100
AcDbEntity
  8
0
100
AcDbText
 10
203.9466257858039
 20
197.557568429655
 30
0.0
 40
3.5
  1
Variante Softline
 41
0.7
  7
RomanS
100
AcDbText
1001
AcDbBlockRepETag
1070
     1
1071
       19
1005
49D6
  0
HATCH
  5
49D7
330
1F
100
AcDbEntity
  8
Schraffur
 62
    84
100
AcDbHatch
 10
0.0
 20
0.0
 30
0.0
210
0.0
220
0.0
230
1.0
  2
STEEL
 70
     0
 71
     1
 91
        1
 92
        7
 72
     1
 73
     1
 93
        4
 10
234.8841712966235
 20
172.9603423306863
 42
0.0
 10
222.5710233718085
 20
172.9603423306863
 42
0.4142135623730951
 10
220.5710233718085
 20
170.9603423306863
 42
0.0
 10
220.5710233718085
 20
161.5735121179406
 42
0.2918872669977617
 97
        2
330
49C5
330
49C6
 75
     0
 76
     1
 52
0.0
 41
2.0
 77
     0
 78
     2
 53
45.0
 43
0.0
 44
0.0
 45
-4.490128060534575
 46
4.490128060534575
 79
     0
 53
45.0
 43
0.0
 44
3.174999999999998
 45
-4.490128060534575
 46
4.490128060534575
 79
     0
 47
0.1645939949470616
 98
        1
 10
226.9859212008336
 20
168.1718347611868
1001
AcDbBlockRepETag
1070
     1
1071
       21
1005
49D7
1001
ACAD
1010
0.0
1020
0.0
1030
0.0
  0
LINE
  5
49D8
330
1F
100
AcDbEntity
  8
Schraffur
 62
    84
100
AcDbLine
 10
205.8623501625647
 20
133.571732098085
 30
0.0
 11
207.9145775825369
 21
133.571732098085
 31
0.0
1001
AcDbBlockRepETag
1070
     1
1071
       22
1005
49D8
  0
LINE
  5
49D9
102
{ACAD_REACTORS
330
49DA
102
}
330
1F
100
AcDbEntity
  8
Schraffur
 62
     5
100
AcDbLine
 10
216.5710233718085
 20
167.4603423306858
 30
0.0
 11
205.8623501625648
 21
167.4603423306858
 31
0.0
1001
AcDbBlockRepETag
1070
     1
1071
       23
1005
49D9
  0
HATCH
  5
49DA
330
1F
100
AcDbEntity
  8
Schraffur
 62
     5
100
AcDbHatch
 10
0.0
 20
0.0
 30
0.0
210
0.0
220
0.0
230
1.0
  2
STEEL
 70
     0
 71
     1
 91
        1
 92
        7
 72
     1
 73
     1
 93
        3
 10
216.5710233718085
 20
161.6291338962709
 42
0.0
 10
216.5710233718085
 20
167.4603423306858
 42
0.0
 10
205.8623501625644
 20
167.4603423306858
 42
0.1854836782163111
 97
        3
330
49D9
330
49D5
330
49C6
 75
     0
 76
     1
 52
0.0
 41
2.0
 77
     0
 78
     2
 53
45.0
 43
0.0
 44
0.0
 45
-4.490128060534575
 46
4.490128060534575
 79
     0
 53
45.0
 43
0.0
 44
3.174999999999998
 45
-4.490128060534575
 46
4.490128060534575
 79
     0
 47
0.0808233019568123
 98
        1
 10
213.3467786011482
 20
164.895580596043
1001
AcDbBlockRepETag
1070
     1
1071
       24
1005
49DA
1001
ACAD
1010
0.0
1020
0.0
1030
0.0
  0
HATCH
  5
49DB
330
1F
100
AcDbEntity
  8
Schraffur
 62
    84
100
AcDbHatch
 10
0.0
 20
0.0
 30
0.0
210
0.0
220
0.0
230
1.0
  2
STEEL
 70
     0
 71
     0
 91
        1
 92
        7
 72
     1
 73
     1
 93
        3
 10
207.9145775825369
 20
133.571732098085
 42
0.0
 10
205.8623501625647
 20
133.571732098085
 42
0.0425455839274663
 10
207.9145775825369
 20
131.5399424944846
 42
0.0
 97
        0
 75
     0
 76
     1
 52
270.0
 41
2.0
 77
     0
 78
     2
 53
225.0
 43
201.8614461674655
 44
123.5930009640411
 45
-4.490128060534575
 46
4.490128060534575
 79
     0
 53
225.0
 43
198.6864461674655
 44
123.5930009640411
 45
-4.490128060534575
 46
4.490128060534575
 79
     0
 47
0.0442182800248907
 98
        1
 10
207.4821963859108
 20
132.6775720240354
1001
ACAD
1010
0.0
1020
0.0
1030
0.0
1001
AcDbBlockRepETag
1070
     1
1071
       25
1005
49DB
  0
HATCH
  5
49DC
330
1F
100
AcDbEntity
  8
Schraffur
 62
     5
100
AcDbHatch
 10
0.0
 20
0.0
 30
0.0
210
0.0
220
0.0
230
1.0
  2
STEEL
 70
     0
 71
     0
 91
        1
 92
        1
 93
       13
 72
     1
 10
254.5710233477011
 20
167.4603420335752
 11
243.8623504155547
 21
167.4603420335752
 72
     2
 10
256.8057512837677
 20
178.481611196642
 40
17.00000000000074
 50
-220.4143002691367
 51
-139.7737391946899
 73
     0
 72
     1
 10
243.8262493977092
 20
189.4603420335751
 11
259.3245061460306
 21
189.4603420335751
 72
     2
 10
259.3245061460308
 20
185.4603420335751
 40
4.000000000000015
 50
-90.00000000000381
 51
-20.00000000000382
 73
     0
 72
     1
 10
263.0832766291744
 20
186.828422606878
 11
263.2622440117824
 21
186.3367137643436
 72
     2
 10
265.1416292533538
 20
187.0207540509951
 40
1.999999999999667
 50
560.0000000000099
 51
610.0000000000102
 73
     1
 72
     1
 10
264.4575889667029
 20
185.1413688094235
 11
265.1235887242513
 21
184.8989647216465
 72
     2
 10
264.0975282942747
 20
182.0798868592887
 40
3.000000000000149
 50
-70.00000000001051
 51
-20.00000000000901
 73
     0
 72
     1
 10
266.9166061566325
 20
183.105947289266
 11
269.4504085892731
 21
176.1443823202266
 72
     2
 10
267.5710233477011
 20
175.4603420335753
 40
2.000000000000095
 50
-19.9999999999985
 51
90.00000000000158
 73
     0
 72
     1
 10
267.5710233477011
 20
173.4603420335751
 11
255.5710233477011
 21
173.4603420335751
 72
     2
 10
255.5710233477011
 20
172.4603420335751
 40
0.9999999999999998
 50
450.0
 51
540.0
 73
     1
 72
     1
 10
254.5710233477011
 20
172.4603420335751
 11
254.5710233477011
 21
167.4603420335752
 97
        0
 75
     0
 76
     1
 52
90.0
 41
2.0
 77
     0
 78
     2
 53
135.0
 43
0.0
 44
0.0
 45
-4.490128060534575
 46
-4.490128060534575
 79
     0
 53
135.0
 43
-3.174999999999998
 44
0.0000000000000002
 45
-4.490128060534575
 46
-4.490128060534575
 79
     0
 98
        3
 10
253.7296354122704
 20
178.4922218596368
 10
333.1406989723213
 20
25.52734054166994
 10
214.2351869290913
 20
35.40846617183671
1001
AcDbBlockRepETag
1070
     1
1071
        0
1005
49DC
1001
ACAD
1010
0.0
1020
0.0
1030
0.0
  0
HATCH
  5
49DD
330
1F
100
AcDbEntity
  8
Schraffur
 62
    84
100
AcDbHatch
 10
0.0
 20
0.0
 30
0.0
210
0.0
220
0.0
230
1.0
  2
STEEL
 70
     0
 71
     0
 91
        1
 92
        7
 72
     1
 73
     1
 93
       16
 10
245.9145775825409
 20
135.624211474462
 42
0.0
 10
245.9145775825409
 20
131.5399424944815
 42
-0.4173735883527943
 10
243.8708220348388
 20
155.624211474462
 42
0.0
 10
253.6680603808707
 20
155.624211474462
 42
-0.3152987888789831
 10
257.4268308640141
 20
152.9922920477648
 42
0.0
 10
257.6057982466221
 20
152.5005832052303
 42
0.2216946626429416
 10
258.8011432015426
 20
151.3052382503102
 42
0.0
 10
259.4671429590915
 20
151.0628341625339
 42
-0.2216946626429467
 10
261.260160391472
 20
149.2698167301529
 42
0.0
 10
263.7939628241134
 20
142.3082517611112
 42
0.0
 10
263.8088504788272
 20
142.2658735306846
 42
-0.4333251351469773
 10
262.432215672746
 20
139.6923598218838
 42
0.0
 10
262.1381204472334
 20
139.6135572437103
 42
0.3394542588635136
 10
259.9145775825409
 20
136.7157797648425
 42
0.0
 10
259.9145775825414
 20
136.124211474462
 42
0.0
 10
259.4145775825409
 20
135.624211474462
 42
0.0
 97
        0
 75
     0
 76
     1
 52
0.0
 41
2.0
 77
     0
 78
     2
 53
45.0
 43
0.0
 44
0.0
 45
-4.490128060534575
 46
4.490128060534575
 79
     0
 53
45.0
 43
0.0
 44
3.174999999999998
 45
-4.490128060534575
 46
4.490128060534575
 79
     0
 47
0.5460268397635694
 98
        3
 10
252.9775575574793
 20
150.2738566556903
 10
330.513369231205
 20
-13.68001298983179
 10
198.3748734068294
 20
-13.68001298983179
1001
AcDbBlockRepETag
1070
     1
1071
        1
1005
49DD
1001
ACAD
1010
0.0
1020
0.0
1030
0.0
  0
LWPOLYLINE
  5
49DE
102
{ACAD_REACTORS
330
49F2
102
}
330
1F
100
AcDbEntity
  8
Blendrahmen
100
AcDbPolyline
 90
       12
 70
     0
 43
0.0
 10
254.5710233477011
 20
161.6291338994679
 10
254.5710233477011
 20
172.4603420335751
 42
-0.4142135623730951
 10
255.5710233477011
 20
173.4603420335751
 10
267.5710233477011
 20
173.4603420335751
 42
0.5205670505517467
 10
269.4504085892731
 20
176.1443823202266
 10
266.9166061566325
 20
183.105947289266
 42
0.2216946626429468
 10
265.1235887242513
 20
184.8989647216465
 10
264.4575889667029
 20
185.1413688094235
 42
-0.2216946626429416
 10
263.2622440117824
 20
186.3367137643436
 10
263.0832766291744
 20
186.828422606878
 42
0.3152987888789831
 10
259.3245061460306
 20
189.4603420335751
 10
243.8262493977109
 20
189.4603420335751
1001
AcDbBlockRepETag
1070
     1
1071
        2
1005
49DE
  0
TEXT
  5
49DF
330
1F
100
AcDbEntity
  8
0
100
AcDbText
 10
241.4594660658036
 20
196.7937884682582
 30
0.0
 40
3.5
  1
Variante Rustikal
 41
0.7
  7
RomanS
100
AcDbText
1001
AcDbBlockRepETag
1070
     1
1071
        3
1005
49DF
  0
LWPOLYLINE
  5
49E0
102
{ACAD_REACTORS
330
49F0
102
}
330
1F
100
AcDbEntity
  8
Flügelrahmen
100
AcDbPolyline
 90
        4
 70
     0
 43
0.0
 10
272.8841711945984
 20
172.9603420335751
 10
260.5710233477012
 20
172.9603420335751
 42
0.4142135623730951
 10
258.5710233477011
 20
170.9603420335752
 10
258.5710233477011
 20
161.5735121154234
1001
AcDbBlockRepETag
1070
     1
1071
        4
1005
49E0
  0
LWPOLYLINE
  5
49E1
102
{ACAD_REACTORS
330
49F0
330
49F2
102
}
330
1F
100
AcDbEntity
  8
0
100
AcDbPolyline
 90
        2
 70
     1
 43
0.0
 10
258.1807146017277
 20
161.5373060803415
 42
-24.68742596468933
 10
255.4307879658077
 20
161.5373060803415
 42
-24.68742596468933
1001
AcDbBlockRepETag
1070
     1
1071
        5
1005
49E1
  0
HATCH
  5
49ED
330
1F
100
AcDbEntity
  8
Silikon
 62
     1
100
AcDbHatch
 10
0.0
 20
0.0
 30
0.0
210
0.0
220
0.0
230
1.0
  2
ANGLE
 70
     0
 71
     1
 91
        1
 92
        1
 93
        6
 72
     2
 10
261.9145775825407
 20
141.6242114744623
 40
2.000000000000232
 50
340.000000000005
 51
434.9999999999987
 73
     0
 72
     1
 10
262.4322156727459
 20
139.692359821884
 11
262.138120447233
 21
139.61355724371
 72
     2
 10
262.9145775825402
 20
136.7157797648433
 40
2.999999999999439
 50
104.9999999999962
 51
179.999999999994
 73
     1
 72
     1
 10
259.9145775825408
 20
136.7157797648436
 11
259.9145775825404
 21
135.1242114744621
 72
     1
 10
259.9145775825404
 20
135.1242114744621
 11
266.3177470916563
 21
135.1242114744621
 72
     1
 10
266.3177470916563
 20
135.1242114744621
 11
263.7939628241128
 21
142.3082517611136
 97
        1
330
49EE
 75
     0
 76
     1
 52
270.0
 41
0.1
 77
     0
 78
     2
 53
270.0
 43
601.5083259990618
 44
-279.269748319351
 45
-0.6985000000000002
 46
0.0000000000000003
 79
     2
 49
0.508
 49
-0.1905
 53
180.0
 43
601.5083259990618
 44
-279.269748319351
 45
0.0000000000000003
 46
0.6985000000000002
 79
     2
 49
0.508
 49
-0.1905
 98
        1
 10
601.5083259990618
 20
-279.269748319351
1001
ACAD
1010
0.0
1020
0.0
1030
0.0
1001
AcDbBlockRepETag
1070
     1
1071
       17
1005
49ED
  0
LWPOLYLINE
  5
49EE
102
{ACAD_REACTORS
330
49ED
102
}
330
1F
100
AcDbEntity
  8
Silikon
 62
     1
100
AcDbPolyline
 90
        6
 70
     1
 43
0.0
 10
263.7939628241128
 20
142.3082517611136
 42
-0.4400105308918068
 10
262.4322156727459
 20
139.692359821884
 10
262.138120447233
 20
139.61355724371
 42
0.3394542588633679
 10
259.9145775825408
 20
136.7157797648436
 10
259.9145775825404
 20
135.1242114744621
 10
266.3177470916563
 20
135.1242114744621
1001
AcDbBlockRepETag
1070
     1
1071
       18
1005
49EE
  0
LWPOLYLINE
  5
49EF
330
1F
100
AcDbEntity
  8
Flügelrahmen
100
AcDbPolyline
 90
       15
 70
     0
 43
0.0
 10
245.9145775825408
 20
131.5399424944819
 10
245.9145775825408
 20
135.6242114744621
 10
259.4145775825408
 20
135.6242114744621
 10
259.9145775825412
 20
136.1242114744621
 10
259.9145775825408
 20
136.7157797648427
 42
-0.3394542588633798
 10
262.1381204472333
 20
139.6135572437104
 10
262.4322156727459
 20
139.692359821884
 42
0.4400105308918374
 10
263.7939628241128
 20
142.3082517611136
 10
261.2601603914719
 20
149.2698167301531
 42
0.2216946626429468
 10
259.4671429590914
 20
151.062834162534
 10
258.8011432015425
 20
151.3052382503104
 42
-0.2216946626429416
 10
257.605798246622
 20
152.5005832052305
 10
257.426830864014
 20
152.992292047765
 42
0.3152987888789831
 10
253.6680603808705
 20
155.6242114744621
 10
243.8708220348391
 20
155.6242114744621
1001
AcDbBlockRepETag
1070
     1
1071
       19
1005
49EF
  0
HATCH
  5
49F0
330
1F
100
AcDbEntity
  8
Schraffur
 62
    84
100
AcDbHatch
 10
0.0
 20
0.0
 30
0.0
210
0.0
220
0.0
230
1.0
  2
STEEL
 70
     0
 71
     1
 91
        1
 92
        7
 72
     1
 73
     1
 93
        4
 10
260.5710233477011
 20
172.9603420335751
 42
0.4142135623730951
 10
258.5710233477011
 20
170.9603420335751
 42
0.0
 10
258.5710233477011
 20
161.5735121154229
 42
0.2918872623713112
 10
272.8841711945981
 20
172.9603420335751
 42
0.0
 97
        2
330
49E0
330
49E1
 75
     0
 76
     1
 52
0.0
 41
2.0
 77
     0
 78
     2
 53
45.0
 43
0.0
 44
0.0
 45
-4.490128060534575
 46
4.490128060534575
 79
     0
 53
45.0
 43
0.0
 44
3.174999999999998
 45
-4.490128060534575
 46
4.490128060534575
 79
     0
 47
0.1645810927600751
 98
        1
 10
264.8295093979831
 20
169.4929718935993
1001
AcDbBlockRepETag
1070
     1
1071
       20
1005
49F0
1001
ACAD
1010
0.0
1020
0.0
1030
0.0
  0
LINE
  5
49F1
102
{ACAD_REACTORS
330
49F2
102
}
330
1F
100
AcDbEntity
  8
Schraffur
 62
     5
100
AcDbLine
 10
243.8623504155548
 20
167.4603420335752
 30
0.0
 11
254.5710233477011
 21
167.4603420335752
 31
0.0
1001
AcDbBlockRepETag
1070
     1
1071
       21
1005
49F1
  0
HATCH
  5
49F2
330
1F
100
AcDbEntity
  8
Schraffur
 62
     5
100
AcDbHatch
 10
0.0
 20
0.0
 30
0.0
210
0.0
220
0.0
230
1.0
  2
STEEL
 70
     0
 71
     1
 91
        1
 92
        7
 72
     1
 73
     1
 93
        3
 10
254.5710233477011
 20
161.6291338994674
 42
0.0
 10
254.5710233477011
 20
167.4603420335752
 42
0.0
 10
243.8623504155548
 20
167.4603420335752
 42
0.1854836719102877
 97
        3
330
49F1
330
49DE
330
49E1
 75
     0
 76
     1
 52
0.0
 41
2.0
 77
     0
 78
     2
 53
45.0
 43
0.0
 44
0.0
 45
-4.490128060534575
 46
4.490128060534575
 79
     0
 53
45.0
 43
0.0
 44
3.174999999999998
 45
-4.490128060534575
 46
4.490128060534575
 79
     0
 47
0.138199607233765
 98
        1
 10
249.9302948580431
 20
164.6585270846482
1001
AcDbBlockRepETag
1070
     1
1071
       22
1005
49F2
1001
ACAD
1010
0.0
1020
0.0
1030
0.0
  0
LINE
  5
49F3
330
1F
100
AcDbEntity
  8
Schraffur
 62
    84
100
AcDbLine
 10
243.8178470212112
 20
133.6242114744621
 30
0.0
 11
245.9145775825408
 21
133.6242114744621
 31
0.0
1001
AcDbBlockRepETag
1070
     1
1071
       23
1005
49F3
  0
HATCH
  5
49F4
330
1F
100
AcDbEntity
  8
Schraffur
 62
    84
100
AcDbHatch
 10
0.0
 20
0.0
 30
0.0
210
0.0
220
0.0
230
1.0
  2
STEEL
 70
     0
 71
     0
 91
        1
 92
        7
 72
     1
 73
     1
 93
        3
 10
243.8178470212112
 20
133.6242114744621
 42
0.0435593504847586
 10
245.9145775825408
 20
131.5399424944817
 42
0.0
 10
245.9145775825408
 20
133.6242114744621
 42
0.0
 97
        0
 75
     0
 76
     1
 52
270.0
 41
2.0
 77
     0
 78
     2
 53
225.0
 43
239.8614461674672
 44
123.5930009640401
 45
-4.490128060534573
 46
4.490128060534575
 79
     0
 53
225.0
 43
236.6864461674671
 44
123.5930009640401
 45
-4.490128060534573
 46
4.490128060534575
 79
     0
 47
0.0648580740641196
 98
        1
 10
245.2543186594682
 20
133.2592122094661
1001
ACAD
1010
0.0
1020
0.0
1030
0.0
1001
AcDbBlockRepETag
1070
     1
1071
       24
1005
49F4
  0
INSERT
  5
4CE1
330
1F
100
AcDbEntity
  8
0
100
AcDbBlockReference
  2
D-Mitteldichtung
 10
123.0498966841916
 20
102.3352266381132
 30
0.0
 50
270.0
  0
INSERT
  5
4CE3
330
1F
100
AcDbEntity
  8
0
100
AcDbBlockReference
  2
D-Überschlag
 10
100.0498966841912
 20
71.0352266381136
 30
0.0
 41
-1.0
 50
90.0
  0
HATCH
  5
4D81
330
1F
100
AcDbEntity
  8
Schraffur
 62
     5
100
AcDbHatch
 10
0.0
 20
0.0
 30
0.0
210
0.0
220
0.0
230
1.0
  2
STEEL
 70
     0
 71
     0
 91
        1
 92
        7
 72
     1
 73
     1
 93
        4
 10
77.85570314741661
 20
43.03505114249488
 42
-0.2201914815091852
 10
90.49925413307823
 20
49.67411250791627
 42
0.0
 10
90.49925413307688
 20
45.03505114249532
 42
-0.4142135623730951
 10
88.4992541330768
 20
43.03505114249484
 42
0.0
 97
        0
 75
     0
 76
     1
 52
-90.00000000000001
 41
2.0
 77
     0
 78
     2
 53
225.0
 43
329.0136875145313
 44
216.2936486932931
 45
-4.490128060534574
 46
4.490128060534575
 79
     0
 53
225.0
 43
325.8386875145313
 44
216.2936486932931
 45
-4.490128060534574
 46
4.490128060534575
 79
     0
 47
0.1946356827982703
 98
        3
 10
124.9233600862067
 20
189.2062376860605
 10
204.3344236462576
 20
36.2413563680936
 10
85.42891160302771
 20
46.1224819982604
1001
ACAD
1010
0.0
1020
0.0
1030
0.0
1001
AcDbBlockRepETag
1070
     1
1071
        0
1005
0
  0
CIRCLE
  5
4D82
330
1F
100
AcDbEntity
  8
0
100
AcDbCircle
 10
91.34983966361613
 20
32.69540512910663
 30
0.0
 40
17.0
1001
AcDbBlockRepETag
1070
     1
1071
        2
1005
0
  0
TEXT
  5
4D83
330
1F
100
AcDbEntity
  8
0
100
AcDbText
 10
43.28520301814831
 20
42.84987124217034
 30
0.0
 40
2.5
  1
Dichtung am Überschlag
 41
0.7
  7
RomanS
100
AcDbText
1001
AcDbBlockRepETag
1070
     1
1071
        3
1005
0
  0
TEXT
  5
4D84
330
1F
100
AcDbEntity
  8
0
100
AcDbText
 10
46.01199118486879
 20
48.1010389680576
 30
0.0
 40
3.5
  1
optional ohne
 41
0.7
  7
RomanS
100
AcDbText
1001
AcDbBlockRepETag
1070
     1
1071
        4
1005
0
  0
LWPOLYLINE
  5
4D85
330
1F
100
AcDbEntity
  8
Blendrahmen
100
AcDbPolyline
 90
        4
 70
     0
 43
0.0
 10
90.49925413307823
 20
49.67411250791627
 10
90.49925413307688
 20
45.03505114249532
 42
-0.4142135623730951
 10
88.4992541330768
 20
43.03505114249484
 10
77.85570314741689
 20
43.03505114249488
1001
AcDbBlockRepETag
1070
     1
1071
        5
1005
0
  0
MTEXT
  5
4D86
330
1F
100
AcDbEntity
  8
0
100
AcDbMText
 10
76.64193686436859
 20
47.09712689453062
 30
0.0
 40
1.5
 41
7.649234826219069
 71
     1
 72
     5
  1
{\fArial|b1|i0|c0|p34;2)}
 73
     1
 44
1.0
1001
AcDbBlockRepETag
1070
     1
1071
        9
1005
0
1001
ACAD
1000
MTEXTBEGIN
1070
    73
1070
     1
1070
    44
1040
1.0
1070
    74
1070
     0
1000
MTEXTEND
  0
HATCH
  5
4D87
330
1F
100
AcDbEntity
  8
Schraffur
 62
    84
100
AcDbHatch
 10
0.0
 20
0.0
 30
0.0
210
0.0
220
0.0
230
1.0
  2
STEEL
 70
     0
 71
     0
 91
        2
 92
        7
 72
     1
 73
     1
 93
       10
 10
107.194398311923
 20
26.53505114249498
 42
0.0929698536557737
 10
108.3498396636161
 20
32.69540512910663
 42
0.2161598543550312
 10
102.549896684191
 20
45.48441301618963
 42
0.0
 10
102.5498966841917
 20
43.03505114249484
 42
0.0
 10
95.54989668419079
 20
43.03505114249484
 42
0.0
 10
86.54989668419148
 20
43.03505114249484
 42
0.4142135623730951
 10
84.54989668419161
 20
41.03505114249485
 42
0.0
 10
84.54989668419161
 20
35.03505114249521
 42
0.0
 10
84.54989668419161
 20
29.53505114249522
 42
0.4142135623730951
 10
87.54989668419161
 20
26.53505114249498
 42
0.0
 97
        0
 92
       24
 93
        4
 72
     1
 10
85.64129428636281
 20
36.42210391151394
 11
91.97462761969623
 21
36.42210391151394
 72
     1
 10
91.97462761969623
 20
36.42210391151394
 11
91.97462761969623
 21
27.19591343532349
 72
     1
 10
91.97462761969623
 20
27.19591343532349
 11
85.64129428636281
 21
27.19591343532349
 72
     1
 10
85.64129428636281
 20
27.19591343532349
 11
85.64129428636281
 21
36.42210391151394
 97
        0
 75
     0
 76
     1
 52
-0.0000000000000127
 41
2.0
 77
     0
 78
     2
 53
45.0
 43
-248.1549324442484
 44
912.705627826291
 45
-4.490128060534574
 46
4.490128060534575
 79
     0
 53
45.0
 43
-248.1549324442484
 44
915.8806278262908
 45
-4.490128060534574
 46
4.490128060534575
 79
     0
 47
0.4247652808687849
 98
        1
 10
99.22836206813981
 20
32.35285596386933
1001
ACAD
1010
0.0
1020
0.0
1030
0.0
  0
MTEXT
  5
4D88
330
1F
100
AcDbEntity
  8
Bemaßung
100
AcDbMText
 10
88.80796095302953
 20
27.96578934611654
 30
0.0
 40
2.5
 41
4.543296159483361
 71
     8
 72
     5
  1
R3\P(R5)
  7
RomanS
 73
     1
 44
1.0
1001
ACAD
1000
MTEXTBEGIN
1070
    73
1070
     1
1070
    44
1040
1.0
1070
    74
1070
     0
1000
MTEXTEND
1000
ACAD_MTEXT_DEFINED_HEIGHT_BEGIN
1070
    46
1040
7.831314565397414
1000
ACAD_MTEXT_DEFINED_HEIGHT_END
  0
LWPOLYLINE
  5
4D89
330
1F
100
AcDbEntity
  8
Flügelrahmen
100
AcDbPolyline
 90
       11
 70
     0
 43
0.0
 10
107.194398311923
 20
26.53505114249498
 10
87.54989668419161
 20
26.53505114249498
 42
-0.4142135623730951
 10
84.54989668419161
 20
29.53505114249522
 10
84.54989668419161
 20
35.03505114249521
 10
84.54989668419161
 20
41.03505114249485
 42
-0.4142135623730951
 10
86.54989668419148
 20
43.03505114249484
 10
95.54989668419079
 20
43.03505114249484
 10
95.54989668419079
 20
43.03505114249484
 10
101.5498966841913
 20
43.03505114249484
 42
0.4142135623730951
 10
102.5498966841914
 20
44.0350511424952
 10
102.549896684191
 20
45.48441301618963
  0
LINE
  5
4F27
330
1F
100
AcDbEntity
  8
Aluhalter
100
AcDbLine
 10
207.9145775825369
 20
134.1242114744621
 30
0.0
 11
208.936791880444
 21
130.7509042913686
 31
0.0
1001
AcDbBlockRepETag
1070
     1
1071
        9
1005
4F20
  0
LINE
  5
4F28
330
1F
100
AcDbEntity
  8
Aluhalter
100
AcDbLine
 10
249.4435661297259
 20
129.2698736801737
 30
0.0
 11
250.9145775825406
 21
134.1242114744621
 31
0.0
1001
AcDbBlockRepETag
1070
     1
1071
       10
1005
4F21
  0
LWPOLYLINE
  5
4F29
330
1F
100
AcDbEntity
  8
Aluhalter
100
AcDbPolyline
 90
        4
 70
     0
 43
0.0
 10
245.9145775825408
 20
131.5399424944837
 10
245.9145775825408
 20
134.1242114744621
 10
250.9145775825406
 20
134.1242114744621
 10
250.9145775825406
 20
128.6464003099213
1001
AcDbBlockRepETag
1070
     1
1071
       28
1005
4F22
  0
LWPOLYLINE
  5
4F2A
330
1F
100
AcDbEntity
  8
Glas
 62
   251
100
AcDbPolyline
 90
        5
 70
     0
 43
0.0
 10
262.9145775825407
 20
128.7285047145073
 10
262.9145775825407
 20
131.1242114744625
 10
252.9145775825406
 20
131.1242114744625
 10
250.9145775825406
 20
129.1242114744625
 10
250.9145775825406
 20
128.6464003099213
1001
AcDbBlockRepETag
1070
     1
1071
       21
1005
4F23
  0
HATCH
  5
4F2B
330
1F
100
AcDbEntity
  8
Glas
 62
   150
100
AcDbHatch
 10
0.0
 20
0.0
 30
0.0
210
0.0
220
0.0
230
1.0
  2
AR-CONC
 70
     0
 71
     0
 91
        1
 92
        7
 72
     1
 73
     1
 93
        6
 10
251.4145775825407
 20
131.1242114744625
 42
0.0
 10
250.9145775825407
 20
131.6242114744625
 42
0.0
 10
250.9145775825407
 20
134.6242114744621
 42
0.0
 10
251.4145775825407
 20
135.1242114744621
 42
0.0
 10
270.9246048350347
 20
135.1242114744621
 42
-0.081123584071759
 10
267.1783936513368
 20
131.1242114744625
 42
0.0
 97
        0
 75
     0
 76
     1
 52
180.0
 41
0.02
 77
     0
 78
    13
 53
40.0
 43
239.8614461674694
 44
123.5930009640403
 45
-0.3187817107780606
 46
3.64369337992008
 79
     2
 49
0.381
 49
-4.190999999999998
 53
94.99999999999994
 43
239.8614461674694
 44
123.5930009640403
 45
3.821132857643598
 46
-0.7048565195133408
 79
     2
 49
0.3048
 49
-3.352799999999998
 53
349.549
 43
239.8348811674694
 44
123.8966409640403
 45
3.502333756405838
 46
2.938850033319181
 79
     2
 49
0.3237999999999999
 49
-3.561799999999998
 53
43.81579999999998
 43
240.8774461674694
 44
123.5930009640403
 45
-0.8408465586545409
 46
5.421580817842596
 79
     2
 49
0.5714999999999998
 49
-6.286499999999997
 53
353.3644
 43
240.8073761674694
 44
124.0447989640403
 45
4.948511117800983
 46
4.748084689324741
 79
     2
 49
0.4857000000000001
 49
-5.342699999999995
 53
98.81600000000005
 43
240.8774461674694
 44
123.5930009640403
 45
4.948502357211953
 46
4.748092116278677
 79
     2
 49
0.4572
 49
-5.029199999999998
 53
69.0
 43
240.6234461674694
 44
124.1010009640403
 45
-2.045310370335247
 46
3.032297596707665
 79
     2
 49
0.381
 49
-4.190999999999998
 53
123.9999999999999
 43
240.6234461674694
 44
124.1010009640403
 45
3.683759322446384
 46
1.236040566952939
 79
     2
 49
0.3048
 49
-3.352799999999998
 53
18.54859999999991
 43
240.4530041674694
 44
124.3536909640403
 45
1.638457154321149
 46
4.268329815402488
 79
     2
 49
0.3237999999999999
 49
-3.561799999999998
 53
52.49999999999998
 43
239.8614461674694
 44
123.5930009640403
 45
1.691100777463059
 46
0.0617720650118361
 79
     6
 49
0.0
 49
-3.312159999999998
 49
0.0
 49
-3.403599999999998
 49
0.0
 49
-3.365499999999998
 53
82.5
 43
239.8614461674694
 44
123.5930009640403
 45
2.00361149636239
 46
1.336393250206113
 79
     6
 49
0.0
 49
-1.940559999999999
 49
0.0
 49
-3.235959999999998
 49
0.0
 49
-1.282699999999999
 53
122.5
 43
239.8614461674694
 44
122.4601609640403
 45
-0.1145748798534683
 46
2.711811903337423
 79
     6
 49
0.0
 49
-1.27
 49
0.0
 49
-3.9624
 49
0.0
 49
-5.257799999999996
 53
132.4999999999999
 43
239.8614461674694
 44
121.9521609640403
 45
0.5085298206666618
 46
2.962583627720361
 79
     6
 49
0.0
 49
-1.650999999999998
 49
0.0
 49
-2.631439999999999
 49
0.0
 49
-3.733799999999998
 47
0.0484061782568556
 98
        2
 10
263.2326850190565
 20
132.9650597002457
 10
268.1593991213887
 20
133.9233522955522
1001
ACAD
1010
0.0
1020
0.0
1030
0.0
1001
AcDbBlockRepETag
1070
     1
1071
       29
1005
4F24
  0
HATCH
  5
4F2C
330
1F
100
AcDbEntity
  8
Glas
 62
   251
100
AcDbHatch
 10
0.0
 20
0.0
 30
0.0
210
0.0
220
0.0
230
1.0
  2
GRAVEL
 70
     0
 71
     0
 91
        1
 92
        5
 93
        5
 72
     2
 10
256.8057512837699
 20
144.5930009640409
 40
17.00000000000059
 50
428.9401640858571
 51
470.2758088379532
 73
     0
 72
     1
 10
250.9145775825406
 20
128.6464003099214
 11
250.9145775825406
 21
129.1242114744625
 72
     1
 10
250.9145775825406
 20
129.1242114744625
 11
252.9145775825406
 21
131.1242114744625
 72
     1
 10
252.9145775825406
 20
131.1242114744625
 11
262.9145775825407
 21
131.1242114744625
 72
     1
 10
262.9145775825407
 20
131.1242114744625
 11
262.9145775825407
 21
128.7285047145073
 97
        0
 75
     0
 76
     1
 52
180.0
 41
0.1
 77
     0
 78
    42
 53
221.9872
 43
250.4545775825408
 44
124.7030114744625
 45
-22.86002808951258
 46
-20.32001726589601
 79
     2
 49
0.3417209999999993
 49
-33.83049999999995
 53
265.0303
 43
250.2005775825408
 44
124.4744114744626
 45
2.539982075387464
 46
30.48004930617913
 79
     2
 49
0.5864050000000001
 49
-58.05399999999998
 53
317.4896
 43
250.1497775825408
 44
123.8902114744625
 45
-27.94002729246041
 46
25.39998151833171
 79
     2
 49
0.413482
 49
-40.93469999999999
 53
182.7262999999999
 43
249.5147775825408
 44
122.8996114744625
 45
50.79998365336643
 46
2.539988970828154
 79
     2
 49
0.5340049999999997
 49
-52.86639999999998
 53
157.1663
 43
248.9813775825408
 44
122.8742114744625
 45
30.4800173300511
 46
-12.7000360555019
 79
     2
 49
0.5236339999999991
 49
-51.8397999999999
 53
92.72629999999997
 43
248.4987775825408
 44
123.0774114744626
 45
2.539988970828154
 46
-50.79998365336643
 79
     2
 49
0.5340050000000001
 49
-52.8664
 53
52.30579999999999
 43
248.4733775825408
 44
123.6108114744626
 45
-25.39997735698491
 46
-33.02002086123994
 79
     2
 49
0.706194
 49
-69.91310000000002
 53
17.74469999999996
 43
248.9051775825407
 44
124.1696114744626
 45
55.88001620603638
 46
17.78003556546717
 79
     2
 49
0.6667200000000002
 49
-66.0053
 53
328.5704
 43
249.5401775825408
 44
124.3728114744625
 45
33.01996115997269
 46
-20.32000523526449
 79
     2
 49
0.535813
 49
-53.04549999999998
 53
274.7636
 43
249.9973775825408
 44
124.0934114744625
 45
-2.539976162721145
 46
27.93997805305446
 79
     2
 49
0.6117129999999987
 49
-29.97389999999995
 53
227.6026
 43
250.0481775825408
 44
123.4838114744625
 45
-27.93996365063697
 46
-30.48000091723971
 79
     2
 49
0.7910780000000001
 49
-78.3168
 53
311.1859
 43
249.4893775825408
 44
125.4142114744626
 45
15.23997655712399
 46
-17.77998867422471
 79
     2
 49
0.270005
 49
-26.7306
 53
278.5308
 43
249.6671775825408
 44
125.2110114744626
 45
-5.080012800045686
 46
33.01994959559142
 79
     2
 49
0.5136819999999994
 49
-50.85459999999996
 53
225.0
 43
249.7433775825408
 44
124.7030114744625
 45
-2.539998268700193
 46
0.0
 79
     2
 49
0.3592090000000001
 49
-3.232889999999998
 53
246.8014
 43
250.0481775825408
 44
124.5252114744625
 45
5.080022274306261
 46
12.70004282559083
 79
     2
 49
0.1934409999999997
 49
-19.15059999999996
 53
158.1986
 43
249.9719775825408
 44
124.3474114744625
 45
7.62000490873186
 46
-2.540001781894509
 79
     2
 49
0.2735659999999993
 49
-13.40479999999997
 53
59.0362
 43
249.7179775825408
 44
124.4490114744626
 45
5.080003958660546
 46
7.619991954808223
 79
     2
 49
0.44432
 49
-14.36629999999998
 53
288.4349
 43
249.9465775825408
 44
124.8300114744625
 45
-2.539996222465069
 46
5.080002318180981
 79
     2
 49
0.3212869999999997
 49
-7.710899999999987
 53
73.61049999999998
 43
249.9719775825408
 44
122.8742114744625
 45
7.619984149967812
 46
25.40001401396935
 79
     2
 49
0.4500879999999999
 49
-44.55879999999988
 53
19.6538
 43
250.0989775825408
 44
123.3060114744625
 45
-27.939960488545
 46
-10.1599716886765
 79
     2
 49
0.377599
 49
-37.3822
 53
156.8014000000001
 43
250.4545775825408
 44
124.8300114744625
 45
12.70004282559083
 46
-5.080022274306261
 79
     2
 49
0.3868799999999998
 49
-18.95719999999999
 53
106.3895
 43
250.0989775825408
 44
124.9824114744625
 45
7.619984149967804
 46
-25.40001401396935
 79
     2
 49
0.4500880000000003
 49
-44.55879999999996
 53
110.5559999999998
 43
248.3971775825408
 44
122.8742114744625
 45
5.07999383605013
 46
-12.70001576425591
 79
     2
 49
0.4340350000000001
 49
-21.2677
 53
155.2248999999999
 43
248.2447775825407
 44
123.2806114744626
 45
27.93998702615667
 46
-12.69997040362685
 79
     2
 49
0.3636719999999997
 49
-36.00359999999994
 53
23.19859999999998
 43
247.9145775825408
 44
124.8554114744625
 45
12.70004282559083
 46
5.080022274306261
 79
     2
 49
0.3868799999999992
 49
-18.95719999999997
 53
72.64599999999998
 43
248.2701775825407
 44
125.0078114744625
 45
-10.15998467560564
 46
-33.02000178185996
 79
     2
 49
0.4257830000000002
 49
-42.15239999999995
 53
20.556
 43
247.9145775825408
 44
123.6108114744626
 45
-12.70001576425591
 46
-5.079993836050136
 79
     2
 49
0.217018
 49
-21.4848
 53
348.6901000000001
 43
247.9145775825408
 44
124.7030114744625
 45
10.15996746090261
 46
-2.539987462887348
 79
     2
 49
0.129515
 49
-12.822
 53
284.0362
 43
248.0415775825408
 44
124.6776114744625
 45
-2.539995604123638
 46
7.620005354697172
 79
     2
 49
0.5236340000000002
 49
-9.949049999999999
 53
263.9909999999999
 43
248.1685775825408
 44
124.1696114744626
 45
2.539994068547865
 46
25.39996254442795
 79
     2
 49
0.485267
 49
-48.0414
 53
146.3099000000001
 43
249.4893775825408
 44
124.4490114744626
 45
5.079995099231838
 46
-2.540000871307233
 79
     2
 49
0.366324
 49
-8.791780000000001
 53
96.84280000000001
 43
249.1845775825408
 44
124.6522114744625
 45
-5.08002275165482
 46
43.18001785664342
 79
     2
 49
0.639557
 49
-63.31599999999998
 53
29.05459999999998
 43
249.1083775825408
 44
125.2872114744626
 45
-17.77995761083413
 46
-10.15997636582908
 79
     2
 49
0.261508
 49
-25.8894
 53
360.0
 43
249.3369775825407
 44
125.4142114744626
 45
2.539999999999996
 46
-2.54
 79
     2
 49
0.1524
 49
-2.387599999999999
 53
329.7436
 43
248.2447775825407
 44
124.1188114744625
 45
-17.77999103247755
 46
10.15997846683611
 79
     2
 49
0.3528669999999998
 49
-34.93389999999998
 53
41.98719999999997
 43
248.5495775825408
 44
123.9410114744625
 45
22.86002808951258
 46
20.32001726589601
 79
     2
 49
0.6834430000000003
 49
-33.4888
 53
90.0
 43
249.0575775825409
 44
124.3982114744625
 45
2.54
 46
2.539999999999999
 79
     2
 49
0.6604000000000001
 49
-1.879599999999999
 53
124.6952
 43
249.0575775825409
 44
125.0586114744625
 45
17.78000169048476
 46
-25.3999559909537
 79
     2
 49
0.4016099999999998
 49
-39.75929999999993
 53
195.9454
 43
248.8289775825408
 44
125.3888114744626
 45
-10.16002420320363
 46
-2.54000647970147
 79
     2
 49
0.369829
 49
-18.1217
 53
242.3540000000001
 43
248.4733775825408
 44
125.2872114744626
 45
-25.4000159747234
 46
-48.25998304902271
 79
     2
 49
0.6021450000000002
 49
-59.61249999999998
 53
274.5739
 43
248.1939775825408
 44
124.7538114744626
 45
2.539987711219443
 46
-33.02000760474751
 79
     2
 49
0.6370289999999994
 49
-63.06579999999996
 53
274.5739
 43
248.1939775825408
 44
124.7538114744626
 45
2.539987711219443
 46
-33.02000760474751
 79
     2
 49
0.6370289999999994
 49
-63.06579999999996
 47
0.0
 98
        1
 10
257.1838525861726
 20
129.4701188796552
1001
ACAD
1010
0.0
1020
0.0
1030
0.0
1001
AcDbBlockRepETag
1070
     1
1071
       25
1005
4F25
  0
LWPOLYLINE
  5
4F2D
330
1F
100
AcDbEntity
  8
Glas
 62
   150
100
AcDbPolyline
 90
        6
 70
     0
 43
0.0
 10
267.1783936513368
 20
131.1242114744625
 10
251.4145775825407
 20
131.1242114744625
 10
250.9145775825407
 20
131.6242114744625
 10
250.9145775825407
 20
134.6242114744621
 10
251.4145775825407
 20
135.1242114744621
 10
270.9246048350347
 20
135.1242114744621
1001
AcDbBlockRepETag
1070
     1
1071
       30
1005
4F26
  0
LINE
  5
4F2E
330
1F
100
AcDbEntity
  8
Aluhalter
100
AcDbLine
 10
211.443566129722
 20
129.2698736801737
 30
0.0
 11
212.9145775825366
 21
134.1242114744621
 31
0.0
1001
AcDbBlockRepETag
1070
     1
1071
       10
1005
4F21
  0
LWPOLYLINE
  5
4F2F
330
1F
100
AcDbEntity
  8
Aluhalter
100
AcDbPolyline
 90
        4
 70
     0
 43
0.0
 10
207.9145775825369
 20
131.5399424944837
 10
207.9145775825369
 20
134.1242114744621
 10
212.9145775825366
 20
134.1242114744621
 10
212.9145775825366
 20
128.6464003099213
1001
AcDbBlockRepETag
1070
     1
1071
       28
1005
4F22
  0
LWPOLYLINE
  5
4F30
330
1F
100
AcDbEntity
  8
Glas
 62
   251
100
AcDbPolyline
 90
        5
 70
     0
 43
0.0
 10
224.9145775825367
 20
128.7285047145073
 10
224.9145775825367
 20
131.1242114744625
 10
214.9145775825366
 20
131.1242114744625
 10
212.9145775825366
 20
129.1242114744625
 10
212.9145775825366
 20
128.6464003099213
1001
AcDbBlockRepETag
1070
     1
1071
       21
1005
4F23
  0
HATCH
  5
4F31
330
1F
100
AcDbEntity
  8
Glas
 62
   150
100
AcDbHatch
 10
0.0
 20
0.0
 30
0.0
210
0.0
220
0.0
230
1.0
  2
AR-CONC
 70
     0
 71
     0
 91
        1
 92
        7
 72
     1
 73
     1
 93
        6
 10
213.4145775825367
 20
131.1242114744625
 42
0.0
 10
212.9145775825367
 20
131.6242114744625
 42
0.0
 10
212.9145775825367
 20
134.6242114744621
 42
0.0
 10
213.4145775825367
 20
135.1242114744621
 42
0.0
 10
232.9246048350307
 20
135.1242114744621
 42
-0.081123584071759
 10
229.1783936513329
 20
131.1242114744625
 42
0.0
 97
        0
 75
     0
 76
     1
 52
180.0
 41
0.02
 77
     0
 78
    13
 53
40.0
 43
201.8614461674655
 44
123.5930009640403
 45
-0.3187817107780606
 46
3.64369337992008
 79
     2
 49
0.381
 49
-4.190999999999998
 53
94.99999999999992
 43
201.8614461674655
 44
123.5930009640403
 45
3.821132857643598
 46
-0.7048565195133408
 79
     2
 49
0.3048
 49
-3.352799999999998
 53
349.549
 43
201.8348811674655
 44
123.8966409640403
 45
3.502333756405838
 46
2.938850033319181
 79
     2
 49
0.3237999999999999
 49
-3.561799999999998
 53
43.81579999999998
 43
202.8774461674655
 44
123.5930009640403
 45
-0.8408465586545409
 46
5.421580817842596
 79
     2
 49
0.5714999999999997
 49
-6.286499999999997
 53
353.3644
 43
202.8073761674655
 44
124.0447989640403
 45
4.948511117800983
 46
4.748084689324741
 79
     2
 49
0.4857000000000001
 49
-5.342699999999995
 53
98.81600000000005
 43
202.8774461674655
 44
123.5930009640403
 45
4.948502357211953
 46
4.748092116278677
 79
     2
 49
0.4572
 49
-5.029199999999998
 53
69.0
 43
202.6234461674655
 44
124.1010009640403
 45
-2.045310370335247
 46
3.032297596707665
 79
     2
 49
0.381
 49
-4.190999999999998
 53
123.9999999999999
 43
202.6234461674655
 44
124.1010009640403
 45
3.683759322446384
 46
1.236040566952939
 79
     2
 49
0.3048
 49
-3.352799999999998
 53
18.54859999999991
 43
202.4530041674655
 44
124.3536909640403
 45
1.638457154321149
 46
4.268329815402488
 79
     2
 49
0.3237999999999999
 49
-3.561799999999998
 53
52.49999999999998
 43
201.8614461674655
 44
123.5930009640403
 45
1.691100777463059
 46
0.0617720650118361
 79
     6
 49
0.0
 49
-3.312159999999998
 49
0.0
 49
-3.403599999999998
 49
0.0
 49
-3.365499999999998
 53
82.5
 43
201.8614461674655
 44
123.5930009640403
 45
2.00361149636239
 46
1.336393250206113
 79
     6
 49
0.0
 49
-1.940559999999999
 49
0.0
 49
-3.235959999999998
 49
0.0
 49
-1.282699999999999
 53
122.5
 43
201.8614461674655
 44
122.4601609640403
 45
-0.1145748798534683
 46
2.711811903337423
 79
     6
 49
0.0
 49
-1.27
 49
0.0
 49
-3.9624
 49
0.0
 49
-5.257799999999996
 53
132.4999999999999
 43
201.8614461674655
 44
121.9521609640403
 45
0.5085298206666618
 46
2.962583627720361
 79
     6
 49
0.0
 49
-1.650999999999998
 49
0.0
 49
-2.631439999999999
 49
0.0
 49
-3.733799999999998
 47
0.0484061782568556
 98
        2
 10
225.2326850190525
 20
132.9650597002457
 10
230.1593991213847
 20
133.9233522955522
1001
ACAD
1010
0.0
1020
0.0
1030
0.0
1001
AcDbBlockRepETag
1070
     1
1071
       29
1005
4F24
  0
HATCH
  5
4F32
330
1F
100
AcDbEntity
  8
Glas
 62
   251
100
AcDbHatch
 10
0.0
 20
0.0
 30
0.0
210
0.0
220
0.0
230
1.0
  2
GRAVEL
 70
     0
 71
     0
 91
        1
 92
        5
 93
        5
 72
     2
 10
218.8057512837659
 20
144.5930009640409
 40
17.00000000000059
 50
428.9401640858571
 51
470.2758088379532
 73
     0
 72
     1
 10
212.9145775825366
 20
128.6464003099214
 11
212.9145775825366
 21
129.1242114744625
 72
     1
 10
212.9145775825366
 20
129.1242114744625
 11
214.9145775825366
 21
131.1242114744625
 72
     1
 10
214.9145775825366
 20
131.1242114744625
 11
224.9145775825367
 21
131.1242114744625
 72
     1
 10
224.9145775825367
 20
131.1242114744625
 11
224.9145775825367
 21
128.7285047145073
 97
        0
 75
     0
 76
     1
 52
180.0
 41
0.1
 77
     0
 78
    42
 53
221.9872
 43
212.4545775825368
 44
124.7030114744625
 45
-22.86002808951258
 46
-20.32001726589601
 79
     2
 49
0.3417209999999993
 49
-33.83049999999995
 53
265.0303
 43
212.2005775825368
 44
124.4744114744626
 45
2.539982075387464
 46
30.48004930617913
 79
     2
 49
0.5864050000000001
 49
-58.05399999999998
 53
317.4896
 43
212.1497775825369
 44
123.8902114744625
 45
-27.94002729246041
 46
25.39998151833171
 79
     2
 49
0.413482
 49
-40.93469999999999
 53
182.7262999999999
 43
211.5147775825368
 44
122.8996114744625
 45
50.79998365336643
 46
2.539988970828154
 79
     2
 49
0.5340049999999997
 49
-52.86639999999997
 53
157.1663
 43
210.9813775825368
 44
122.8742114744625
 45
30.4800173300511
 46
-12.7000360555019
 79
     2
 49
0.5236339999999991
 49
-51.8397999999999
 53
92.72629999999994
 43
210.4987775825368
 44
123.0774114744626
 45
2.539988970828154
 46
-50.79998365336643
 79
     2
 49
0.5340050000000001
 49
-52.86639999999999
 53
52.30579999999999
 43
210.4733775825368
 44
123.6108114744626
 45
-25.39997735698491
 46
-33.02002086123994
 79
     2
 49
0.706194
 49
-69.91310000000002
 53
17.74469999999996
 43
210.9051775825368
 44
124.1696114744626
 45
55.88001620603638
 46
17.78003556546717
 79
     2
 49
0.6667200000000002
 49
-66.0053
 53
328.5704
 43
211.5401775825368
 44
124.3728114744625
 45
33.01996115997269
 46
-20.32000523526449
 79
     2
 49
0.535813
 49
-53.04549999999998
 53
274.7636
 43
211.9973775825368
 44
124.0934114744625
 45
-2.539976162721145
 46
27.93997805305446
 79
     2
 49
0.6117129999999987
 49
-29.97389999999995
 53
227.6026
 43
212.0481775825368
 44
123.4838114744625
 45
-27.93996365063697
 46
-30.48000091723971
 79
     2
 49
0.7910780000000001
 49
-78.3168
 53
311.1859
 43
211.4893775825368
 44
125.4142114744626
 45
15.23997655712399
 46
-17.77998867422471
 79
     2
 49
0.270005
 49
-26.7306
 53
278.5308
 43
211.6671775825368
 44
125.2110114744626
 45
-5.080012800045686
 46
33.01994959559142
 79
     2
 49
0.5136819999999994
 49
-50.85459999999996
 53
225.0
 43
211.7433775825368
 44
124.7030114744625
 45
-2.539998268700193
 46
0.0
 79
     2
 49
0.3592090000000001
 49
-3.232889999999998
 53
246.8014
 43
212.0481775825368
 44
124.5252114744625
 45
5.080022274306261
 46
12.70004282559083
 79
     2
 49
0.1934409999999997
 49
-19.15059999999996
 53
158.1986
 43
211.9719775825368
 44
124.3474114744625
 45
7.62000490873186
 46
-2.540001781894509
 79
     2
 49
0.2735659999999993
 49
-13.40479999999997
 53
59.0362
 43
211.7179775825368
 44
124.4490114744626
 45
5.080003958660546
 46
7.619991954808223
 79
     2
 49
0.44432
 49
-14.36629999999998
 53
288.4349
 43
211.9465775825368
 44
124.8300114744625
 45
-2.539996222465069
 46
5.080002318180981
 79
     2
 49
0.3212869999999996
 49
-7.710899999999987
 53
73.61049999999998
 43
211.9719775825368
 44
122.8742114744625
 45
7.619984149967812
 46
25.40001401396935
 79
     2
 49
0.4500879999999997
 49
-44.55879999999988
 53
19.6538
 43
212.0989775825368
 44
123.3060114744625
 45
-27.939960488545
 46
-10.1599716886765
 79
     2
 49
0.377599
 49
-37.3822
 53
156.8014000000001
 43
212.4545775825368
 44
124.8300114744625
 45
12.70004282559083
 46
-5.080022274306261
 79
     2
 49
0.3868799999999998
 49
-18.95719999999998
 53
106.3895
 43
212.0989775825368
 44
124.9824114744625
 45
7.619984149967804
 46
-25.40001401396935
 79
     2
 49
0.4500880000000003
 49
-44.55879999999996
 53
110.5559999999998
 43
210.3971775825368
 44
122.8742114744625
 45
5.07999383605013
 46
-12.70001576425591
 79
     2
 49
0.4340350000000001
 49
-21.2677
 53
155.2248999999999
 43
210.2447775825368
 44
123.2806114744626
 45
27.93998702615667
 46
-12.69997040362685
 79
     2
 49
0.3636719999999997
 49
-36.00359999999994
 53
23.19859999999998
 43
209.9145775825368
 44
124.8554114744625
 45
12.70004282559083
 46
5.080022274306261
 79
     2
 49
0.3868799999999992
 49
-18.95719999999997
 53
72.64599999999998
 43
210.2701775825368
 44
125.0078114744625
 45
-10.15998467560564
 46
-33.02000178185996
 79
     2
 49
0.4257830000000002
 49
-42.15239999999993
 53
20.556
 43
209.9145775825368
 44
123.6108114744626
 45
-12.70001576425591
 46
-5.079993836050136
 79
     2
 49
0.217018
 49
-21.4848
 53
348.6901000000001
 43
209.9145775825368
 44
124.7030114744625
 45
10.15996746090261
 46
-2.539987462887348
 79
     2
 49
0.129515
 49
-12.822
 53
284.0362
 43
210.0415775825368
 44
124.6776114744625
 45
-2.539995604123638
 46
7.620005354697172
 79
     2
 49
0.5236340000000002
 49
-9.949049999999999
 53
263.9909999999999
 43
210.1685775825369
 44
124.1696114744626
 45
2.539994068547865
 46
25.39996254442795
 79
     2
 49
0.485267
 49
-48.0414
 53
146.3099000000001
 43
211.4893775825368
 44
124.4490114744626
 45
5.079995099231838
 46
-2.540000871307233
 79
     2
 49
0.366324
 49
-8.791780000000001
 53
96.84280000000001
 43
211.1845775825368
 44
124.6522114744625
 45
-5.08002275165482
 46
43.18001785664342
 79
     2
 49
0.639557
 49
-63.31599999999998
 53
29.05459999999998
 43
211.1083775825368
 44
125.2872114744626
 45
-17.77995761083413
 46
-10.15997636582908
 79
     2
 49
0.261508
 49
-25.8894
 53
360.0
 43
211.3369775825368
 44
125.4142114744626
 45
2.539999999999996
 46
-2.54
 79
     2
 49
0.1524
 49
-2.387599999999999
 53
329.7436
 43
210.2447775825368
 44
124.1188114744625
 45
-17.77999103247755
 46
10.15997846683611
 79
     2
 49
0.3528669999999998
 49
-34.93389999999997
 53
41.98719999999997
 43
210.5495775825368
 44
123.9410114744625
 45
22.86002808951258
 46
20.32001726589601
 79
     2
 49
0.6834430000000003
 49
-33.48879999999999
 53
90.0
 43
211.0575775825368
 44
124.3982114744625
 45
2.54
 46
2.539999999999999
 79
     2
 49
0.6604000000000001
 49
-1.879599999999999
 53
124.6952
 43
211.0575775825368
 44
125.0586114744625
 45
17.78000169048476
 46
-25.3999559909537
 79
     2
 49
0.4016099999999998
 49
-39.75929999999993
 53
195.9454
 43
210.8289775825368
 44
125.3888114744626
 45
-10.16002420320363
 46
-2.54000647970147
 79
     2
 49
0.369829
 49
-18.1217
 53
242.3540000000001
 43
210.4733775825368
 44
125.2872114744626
 45
-25.4000159747234
 46
-48.25998304902271
 79
     2
 49
0.6021450000000002
 49
-59.61249999999998
 53
274.5739
 43
210.1939775825368
 44
124.7538114744626
 45
2.539987711219443
 46
-33.02000760474751
 79
     2
 49
0.6370289999999994
 49
-63.06579999999996
 53
274.5739
 43
210.1939775825368
 44
124.7538114744626
 45
2.539987711219443
 46
-33.02000760474751
 79
     2
 49
0.6370289999999994
 49
-63.06579999999996
 47
0.0
 98
        1
 10
219.1838525861687
 20
129.4701188796552
1001
ACAD
1010
0.0
1020
0.0
1030
0.0
1001
AcDbBlockRepETag
1070
     1
1071
       25
1005
4F25
  0
LWPOLYLINE
  5
4F33
330
1F
100
AcDbEntity
  8
Glas
 62
   150
100
AcDbPolyline
 90
        6
 70
     0
 43
0.0
 10
229.1783936513329
 20
131.1242114744625
 10
213.4145775825367
 20
131.1242114744625
 10
212.9145775825367
 20
131.6242114744625
 10
212.9145775825367
 20
134.6242114744621
 10
213.4145775825367
 20
135.1242114744621
 10
232.9246048350307
 20
135.1242114744621
1001
AcDbBlockRepETag
1070
     1
1071
       30
1005
4F26
  0
LINE
  5
4F34
330
1F
100
AcDbEntity
  8
Aluhalter
100
AcDbLine
 10
245.9145775825408
 20
134.1242114744621
 30
0.0
 11
246.936791880448
 21
130.7509042913686
 31
0.0
1001
AcDbBlockRepETag
1070
     1
1071
        9
1005
4F20
  0
MTEXT
  5
4F5C
330
1F
100
AcDbEntity
  8
0
100
AcDbMText
 10
204.6750526023951
 20
42.56548924318916
 30
0.0
 40
2.5
 41
32.45222712164236
 71
     5
 72
     1
  1
Glasleiste profiliert\Pfür Glasstärken 24mm bis 34mm
  7
RomanS
 73
     1
 44
1.0
1001
AcDbBlockRepETag
1070
     1
1071
       16
1005
0
1001
ACAD
1000
MTEXTBEGIN
1070
    73
1070
     1
1070
    44
1040
1.0
1070
    74
1070
     0
1000
MTEXTEND
1000
ACAD_MTEXT_DEFINED_HEIGHT_BEGIN
1070
    46
1040
12.21528446946036
1000
ACAD_MTEXT_DEFINED_HEIGHT_END
  0
INSERT
  5
4F5D
102
{ACAD_XDICTIONARY
360
4F5E
102
}
330
1F
100
AcDbEntity
  8
0
100
AcDbBlockReference
  2
V-GLrust waagr1
 10
189.5498976518043
 20
60.31381528031189
 30
0.0
  0
HATCH
  5
4F86
330
1F
100
AcDbEntity
  8
Silikon
 62
     1
100
AcDbHatch
 10
0.0
 20
0.0
 30
0.0
210
0.0
220
0.0
230
1.0
  2
ANGLE
 70
     0
 71
     1
 91
        1
 92
        1
 93
        6
 72
     2
 10
187.5498966841909
 20
65.65286251436552
 40
1.999999999999737
 50
340.0000000000058
 51
435.0000000000011
 73
     1
 72
     1
 10
188.0675347743959
 20
67.58471416694343
 11
187.7734395488835
 21
67.66351674511745
 72
     2
 10
188.5498966841906
 20
70.5612942239844
 40
2.99999999999965
 50
104.9999999999934
 51
179.9999999999918
 73
     0
 72
     1
 10
185.549896684191
 20
70.56129422398398
 11
185.5498966841906
 21
72.09404455896394
 72
     1
 10
185.5498966841906
 20
72.09404455896394
 11
191.9324031924644
 21
72.09404455896394
 72
     1
 10
191.9324031924644
 20
72.09404455896394
 11
189.4292819257626
 21
64.96882222771446
 97
        1
330
4F87
 75
     0
 76
     1
 52
-90.00000000000001
 41
0.1
 77
     0
 78
     2
 53
90.0
 43
527.1436451007123
 44
486.5468223081776
 45
-0.6985000000000002
 46
0.0000000000000001
 79
     2
 49
0.508
 49
-0.1905
 53
180.0
 43
527.1436451007123
 44
486.5468223081776
 45
-0.0000000000000001
 46
-0.6985000000000002
 79
     2
 49
0.508
 49
-0.1905
 98
        1
 10
527.1436451007123
 20
486.5468223081776
1001
ACAD
1010
0.0
1020
0.0
1030
0.0
  0
LWPOLYLINE
  5
4F87
102
{ACAD_REACTORS
330
4F86
102
}
330
1F
100
AcDbEntity
  8
Silikon
 62
     1
100
AcDbPolyline
 90
        6
 70
     1
 43
0.0
 10
189.4292819257626
 20
64.96882222771446
 42
0.4400105308918068
 10
188.0675347743959
 20
67.58471416694343
 10
187.7734395488835
 20
67.66351674511745
 42
-0.3394542588633679
 10
185.549896684191
 20
70.56129422398398
 10
185.5498966841906
 20
72.09404455896394
 10
191.9324031924644
 20
72.09404455896394
  0
HATCH
  5
4F88
330
1F
100
AcDbEntity
  8
Schraffur
 62
    84
100
AcDbHatch
 10
0.0
 20
0.0
 30
0.0
210
0.0
220
0.0
230
1.0
  2
STEEL
 70
     0
 71
     1
 91
        2
 92
        7
 72
     1
 73
     1
 93
       18
 10
185.5498966841896
 20
70.56129422398432
 42
0.0
 10
185.5498966841896
 20
71.1528625143647
 42
0.0
 10
185.0498966841895
 20
71.6528625143646
 42
0.0
 10
178.9776038709312
 20
71.65286251436376
 42
0.3178372451957937
 10
178.5061993501405
 20
71.31952918103057
 42
-0.3178372451958042
 10
177.5633903085582
 20
70.65286251436353
 42
0.0
 10
172.2913307770914
 20
70.65286251436301
 42
0.0
 10
171.5498966841901
 20
68.6157890861015
 42
0.0
 10
171.5498966841915
 20
61.27772025278541
 42
-0.3639702342663363
 10
171.1367207730241
 20
60.78531637627836
 42
0.0
 10
169.9630725953586
 20
60.57837053669695
 42
0.3639702342662835
 10
169.5498966841921
 20
60.08596666019101
 42
0.0
 10
169.5498966841921
 20
58.65286251436206
 42
0.414213562373112
 10
171.5498966841919
 20
56.65286251436235
 42
0.0
 10
182.2012748914889
 20
56.65286251436296
 42
0.315298788879026
 10
187.8394306162044
 20
60.60074165441015
 42
0.0
 10
189.4292819257626
 20
64.96882222771438
 42
0.4599129408557649
 10
187.9510060221872
 20
67.62168030801396
 42
-0.3565002934506982
 97
        1
330
4F89
 92
       24
 93
        4
 72
     1
 10
175.1179304461972
 20
61.78824569499761
 11
184.3679304461972
 21
61.78824569499761
 72
     1
 10
184.3679304461972
 20
61.78824569499761
 11
184.3679304461972
 21
66.84776950452143
 72
     1
 10
184.3679304461972
 20
66.84776950452143
 11
175.1179304461972
 21
66.84776950452143
 72
     1
 10
175.1179304461972
 20
66.84776950452143
 11
175.1179304461972
 21
61.78824569499761
 97
        1
330
4F8A
 75
     0
 76
     1
 52
-90.00000000000001
 41
1.0
 77
     0
 78
     2
 53
315.0
 43
41.08610549963199
 44
295.6783805385677
 45
2.245064030267287
 46
2.245064030267286
 79
     0
 53
315.0
 43
42.67360549963195
 44
295.6783805385677
 45
2.245064030267287
 46
2.245064030267286
 79
     0
 47
0.1629915483267094
 98
        1
 10
185.1872884838147
 20
65.48072223444093
1001
ACAD
1010
0.0
1020
0.0
1030
0.0
  0
LWPOLYLINE
  5
4F89
102
{ACAD_REACTORS
330
4F88
102
}
330
1F
100
AcDbEntity
  8
Glasleiste
100
AcDbPolyline
 90
       19
 70
     1
 43
0.0
 10
187.8394306162043
 20
60.6007416544098
 10
189.4292819257626
 20
64.96882222771446
 42
0.4400105308918081
 10
188.0675347743954
 20
67.58471416694343
 10
187.7734395488826
 20
67.66351674511693
 42
-0.3394542588633679
 10
185.5498966841896
 20
70.56129422398367
 10
185.5498966841896
 20
71.1528625143647
 10
185.0498966841895
 20
71.6528625143646
 10
178.9776038709317
 20
71.65286251436376
 42
0.3178372451958047
 10
178.5061993501407
 20
71.31952918103102
 42
-0.3178372451957714
 10
177.5633903085588
 20
70.65286251436353
 10
172.2913307770914
 20
70.65286251436301
 10
171.5498966841901
 20
68.6157890861015
 10
171.5498966841915
 20
61.27772025278566
 42
-0.3639702342661387
 10
171.1367207730247
 20
60.78531637627847
 10
169.9630725953586
 20
60.57837053669695
 42
0.3639702342662978
 10
169.5498966841921
 20
60.08596666019101
 10
169.5498966841921
 20
58.65286251436216
 42
0.4142135623731284
 10
171.5498966841919
 20
56.65286251436235
 10
182.2012748914888
 20
56.65286251436296
 42
0.3152987888790134
  0
MTEXT
  5
4F8A
102
{ACAD_REACTORS
330
4F88
102
}
330
1F
100
AcDbEntity
  8
Bemaßung
100
AcDbMText
 10
175.7429304461972
 20
66.22276950452143
 30
0.0
 40
2.5
 41
9.056392058827212
 71
     1
 72
     5
  1
20/15
  7
RomanS
 73
     1
 44
1.0
1001
ACAD
1000
MTEXTBEGIN
1070
    73
1070
     1
1070
    44
1040
1.0
1070
    74
1070
     0
1000
MTEXTEND
1000
ACAD_MTEXT_DEFINED_HEIGHT_BEGIN
1070
    46
1040
3.80952380952381
1000
ACAD_MTEXT_DEFINED_HEIGHT_END
  0
INSERT
  5
4F8B
330
1F
100
AcDbEntity
  8
0
100
AcDbBlockReference
  2
Glas 36mm un IV
 10
171.5498968478252
 20
108.5352266381123
 30
0.0
 50
270.0
  0
HATCH
  5
4F8C
330
1F
100
AcDbEntity
  8
Silikon
 62
     1
100
AcDbHatch
 10
0.0
 20
0.0
 30
0.0
210
0.0
220
0.0
230
1.0
  2
ANGLE
 70
     0
 71
     1
 91
        1
 92
        1
 93
        6
 72
     2
 10
187.5498966841913
 20
114.5352266381126
 40
2.000000000000052
 50
340.0000000000048
 51
435.0000000000001
 73
     0
 72
     1
 10
188.0675347743963
 20
112.6033749855344
 11
187.7734395488835
 21
112.5245724073605
 72
     2
 10
188.5498966841911
 20
109.6267949284934
 40
2.999999999999865
 50
105.0000000000024
 51
180.0000000000008
 73
     1
 72
     1
 10
185.5498966841913
 20
109.6267949284934
 11
185.549896684191
 21
108.0940445589639
 72
     1
 10
185.549896684191
 20
108.0940445589639
 11
191.9530661933068
 21
108.0940445589639
 72
     1
 10
191.9530661933068
 20
108.0940445589639
 11
189.4292819257632
 21
115.2192669247638
 97
        1
330
4F8D
 75
     0
 76
     1
 52
-90.00000000000001
 41
0.1
 77
     0
 78
     2
 53
270.0
 43
527.1436451007123
 44
-306.3587331557008
 45
-0.6985000000000002
 46
0.0000000000000001
 79
     2
 49
0.508
 49
-0.1905
 53
180.0
 43
527.1436451007123
 44
-306.3587331557008
 45
0.0000000000000001
 46
0.6985000000000002
 79
     2
 49
0.508
 49
-0.1905
 98
        1
 10
527.1436451007123
 20
-306.3587331557008
1001
ACAD
1010
0.0
1020
0.0
1030
0.0
1001
AcDbBlockRepETag
1070
     1
1071
       17
1005
0
  0
LWPOLYLINE
  5
4F8D
102
{ACAD_REACTORS
330
4F8C
102
}
330
1F
100
AcDbEntity
  8
Silikon
 62
     1
100
AcDbPolyline
 90
        6
 70
     1
 43
0.0
 10
189.4292819257632
 20
115.2192669247638
 42
-0.4400105308918068
 10
188.0675347743963
 20
112.6033749855344
 10
187.7734395488835
 20
112.5245724073605
 42
0.3394542588633679
 10
185.5498966841913
 20
109.6267949284934
 10
185.549896684191
 20
108.0940445589639
 10
191.9530661933068
 20
108.0940445589639
1001
AcDbBlockRepETag
1070
     1
1071
       18
1005
0
  0
VIEWPORT
  5
290C
102
{ACAD_XDICTIONARY
360
507F
102
}
330
D2
100
AcDbEntity
 67
     1
  8
0
100
AcDbViewport
 10
142.5159270763397
 20
101.1674084948275
 30
0.0
 40
421.6054445617676
 41
226.5132699925849
 68
     1
 69
     1
 12
142.5159270763397
 22
101.1674084948275
 13
0.0
 23
0.0
 14
10.0
 24
10.0
 15
10.0
 25
10.0
 16
0.0
 26
0.0
 36
1.0
 17
0.0
 27
0.0
 37
0.0
 42
50.0
 43
0.0
 44
0.0
 45
226.5132699925849
 50
0.0
 51
0.0
 72
  1000
 90
   557088
  1

281
     0
 71
     1
 74
     0
110
0.0
120
0.0
130
0.0
111
1.0
121
0.0
131
0.0
112
0.0
122
1.0
132
0.0
 79
     0
146
0.0
  0
VIEWPORT
  5
290E
102
{ACAD_XDICTIONARY
360
5081
102
}
330
D2
100
AcDbEntity
 67
     1
  8
0
100
AcDbViewport
 10
142.4629672039495
 20
98.98661251652232
 30
0.0
 40
296.9260902419483
 41
209.9734313603735
 68
     2
 69
     2
 12
148.4886331210178
 22
104.830202440552
 13
0.0
 23
0.0
 14
10.0
 24
10.0
 15
10.0
 25
10.0
 16
0.0
 26
0.0
 36
1.0
 17
0.0
 27
0.0
 37
0.0
 42
50.0
 43
0.0
 44
0.0
 45
209.9734357275047
 50
0.0
 51
0.0
 72
  1000
 90
   819296
  1

281
     0
 71
     1
 74
     0
110
0.0
120
0.0
130
0.0
111
1.0
121
0.0
131
0.0
112
0.0
122
1.0
132
0.0
 79
     0
146
0.0
  0
ENDSEC
  0
SECTION
  2
OBJECTS
  0
DICTIONARY
  5
C
330
0
100
AcDbDictionary
281
     1
  3
ACAD_CIP_PREVIOUS_PRODUCT_INFO
350
4FE0
  3
ACAD_COLOR
350
6B
  3
ACAD_GROUP
350
D
  3
ACAD_LAYOUT
350
1A
  3
ACAD_MATERIAL
350
6A
  3
ACAD_MLEADERSTYLE
350
4FDC
  3
ACAD_MLINESTYLE
350
17
  3
ACAD_PLOTSETTINGS
350
19
  3
ACAD_PLOTSTYLENAME
350
E
  3
ACAD_SCALELIST
350
4FCA
  3
ACAD_TABLESTYLE
350
7E
  3
ACAD_VISUALSTYLE
350
EF
  3
ACDB_RECOMPOSE_DATA
350
5059
  3
AcDbVariableDictionary
350
5E
  3
DWGPROPS
350
505A
  0
DICTIONARY
  5
5AF
330
2
100
AcDbDictionary
280
     1
281
     1
  3
ACAD_LAYERFILTERS
360
4EB2
  3
ACAD_LAYERSTATES
360
5B0
  3
ACLYDICTIONARY
360
4EB1
  0
DICTIONARY
  5
5039
330
10
100
AcDbDictionary
280
     1
281
     1
  3
ADSK_XREC_LAYER_RECONCILED
360
503A
  0
DICTIONARY
  5
503B
330
59F
100
AcDbDictionary
280
     1
281
     1
  3
ADSK_XREC_LAYER_RECONCILED
360
503C
  0
DICTIONARY
  5
503D
330
5A0
100
AcDbDictionary
280
     1
281
     1
  3
ADSK_XREC_LAYER_RECONCILED
360
503E
  0
DICTIONARY
  5
503F
330
5A1
100
AcDbDictionary
280
     1
281
     1
  3
ADSK_XREC_LAYER_RECONCILED
360
5040
  0
DICTIONARY
  5
5041
330
5A2
100
AcDbDictionary
280
     1
281
     1
  3
ADSK_XREC_LAYER_RECONCILED
360
5042
  0
DICTIONARY
  5
5043
330
5A3
100
AcDbDictionary
280
     1
281
     1
  3
ADSK_XREC_LAYER_RECONCILED
360
5044
  0
DICTIONARY
  5
5045
330
212C
100
AcDbDictionary
280
     1
281
     1
  3
ADSK_XREC_LAYER_RECONCILED
360
5046
  0
DICTIONARY
  5
5047
330
212D
100
AcDbDictionary
280
     1
281
     1
  3
ADSK_XREC_LAYER_RECONCILED
360
5048
  0
DICTIONARY
  5
5049
330
35E3
100
AcDbDictionary
280
     1
281
     1
  3
ADSK_XREC_LAYER_RECONCILED
360
504A
  0
DICTIONARY
  5
504B
330
40BC
100
AcDbDictionary
280
     1
281
     1
  3
ADSK_XREC_LAYER_RECONCILED
360
504C
  0
DICTIONARY
  5
504D
330
4402
100
AcDbDictionary
280
     1
281
     1
  3
ADSK_XREC_LAYER_RECONCILED
360
504E
  0
DICTIONARY
  5
504F
330
47DC
100
AcDbDictionary
280
     1
281
     1
  3
ADSK_XREC_LAYER_RECONCILED
360
5050
  0
DICTIONARY
  5
5051
330
4F07
100
AcDbDictionary
280
     1
281
     1
  3
ADSK_XREC_LAYER_RECONCILED
360
5052
  0
DICTIONARY
  5
5053
330
4F08
100
AcDbDictionary
280
     1
281
     1
  3
ADSK_XREC_LAYER_RECONCILED
360
5054
  0
DICTIONARY
  5
1979
330
1F
100
AcDbDictionary
280
     1
281
     1
  3
ACAD_SORTENTS
360
197A
  0
DICTIONARY
  5
47B0
330
477F
100
AcDbDictionary
280
     1
281
     1
  0
DICTIONARY
  5
4EBA
330
4CC8
100
AcDbDictionary
280
     1
281
     1
  3
ACAD_SORTENTS
360
4EBB
  0
DICTIONARY
  5
4EDA
330
4CD1
100
AcDbDictionary
280
     1
281
     1
  0
DICTIONARY
  5
4F42
330
4F41
100
AcDbDictionary
280
     1
281
     1
  3
ACAD_SORTENTS
360
4F43
  0
DICTIONARY
  5
4F66
330
4F65
100
AcDbDictionary
280
     1
281
     1
  0
DICTIONARY
  5
5083
330
3EB3
100
AcDbDictionary
280
     1
281
     1
  3
ACAD_MTEXT_RT
360
5084
  0
DICTIONARY
  5
5085
330
3EB4
100
AcDbDictionary
280
     1
281
     1
  3
ACAD_MTEXT_RT
360
5086
  0
DICTIONARY
  5
496B
330
495E
100
AcDbDictionary
280
     1
281
     1
  3
ACAD_DIMASSOC
360
4975
  0
DICTIONARY
  5
4F5E
330
4F5D
100
AcDbDictionary
280
     1
281
     1
  0
DICTIONARY
  5
507F
330
290C
100
AcDbDictionary
280
     1
281
     1
  3
ACAD_XREC_ROUNDTRIP
360
5080
  0
DICTIONARY
  5
5081
330
290E
100
AcDbDictionary
280
     1
281
     1
  3
ACAD_XREC_ROUNDTRIP
360
5082
  0
XRECORD
  5
4FE0
102
{ACAD_REACTORS
330
C
102
}
330
C
100
AcDbXrecord
280
     1
300
ACDLT
300
2012
300
ACDLT_F_S
  0
DICTIONARY
  5
6B
102
{ACAD_REACTORS
330
C
102
}
330
C
100
AcDbDictionary
281
     1
  0
DICTIONARY
  5
D
102
{ACAD_REACTORS
330
C
102
}
330
C
100
AcDbDictionary
281
     1
  0
DICTIONARY
  5
1A
102
{ACAD_REACTORS
330
C
102
}
330
C
100
AcDbDictionary
281
     1
  3
Classic
350
D3
  3
Model
350
22
  0
DICTIONARY
  5
6A
102
{ACAD_REACTORS
330
C
102
}
330
C
100
AcDbDictionary
281
     1
  3
ByBlock
350
ED
  3
ByLayer
350
EC
  3
Global
350
EE
  0
DICTIONARY
  5
4FDC
102
{ACAD_REACTORS
330
C
102
}
330
C
100
AcDbDictionary
281
     1
  3
Standard
350
4FDD
  0
DICTIONARY
  5
17
102
{ACAD_REACTORS
330
C
102
}
330
C
100
AcDbDictionary
281
     1
  3
Standard
350
18
  0
DICTIONARY
  5
19
102
{ACAD_REACTORS
330
C
102
}
330
C
100
AcDbDictionary
281
     1
  0
ACDBDICTIONARYWDFLT
  5
E
102
{ACAD_REACTORS
330
C
102
}
330
C
100
AcDbDictionary
281
     1
  3
Normal
350
F
100
AcDbDictionaryWithDefault
340
F
  0
DICTIONARY
  5
4FCA
102
{ACAD_REACTORS
330
C
102
}
330
C
100
AcDbDictionary
281
     1
  3
A0
350
4FCB
  3
A1
350
4FCC
  3
A2
350
4FCD
  3
A3
350
4FCE
  3
A4
350
4FCF
  3
A5
350
4FD0
  3
A6
350
4FD1
  3
A7
350
4FD2
  3
A8
350
4FD3
  3
A9
350
4FD4
  3
B0
350
4FD5
  3
B1
350
4FD6
  3
B2
350
4FD7
  3
B3
350
4FD8
  3
B4
350
4FD9
  3
B5
350
4FDA
  3
B6
350
4FDB
  0
DICTIONARY
  5
7E
102
{ACAD_REACTORS
330
C
102
}
330
C
100
AcDbDictionary
281
     1
  3
Standard
350
7F
  0
DICTIONARY
  5
EF
102
{ACAD_REACTORS
330
C
102
}
330
C
100
AcDbDictionary
281
     1
  3
2dWireframe
350
F5
  3
3D Hidden
350
F7
  3
3dWireframe
350
F6
  3
Basic
350
F4
  3
Brighten
350
FB
  3
ColorChange
350
FF
  3
Conceptual
350
F8
  3
Dim
350
FA
  3
EdgeColorOff
350
4FC9
  3
Facepattern
350
FE
  3
Flat
350
F0
  3
FlatWithEdges
350
F1
  3
Gouraud
350
F2
  3
GouraudWithEdges
350
F3
  3
Hidden
350
4FC1
  3
JitterOff
350
4FC7
  3
Linepattern
350
FD
  3
OverhangOff
350
4FC8
  3
Realistic
350
F9
  3
Shaded
350
4FC6
  3
Shaded with edges
350
4FC5
  3
Shades of Gray
350
4FC2
  3
Sketchy
350
4FC3
  3
Thicken
350
FC
  3
Wireframe
350
4FC0
  3
X-Ray
350
4FC4
  0
XRECORD
  5
5059
102
{ACAD_REACTORS
330
C
102
}
330
C
100
AcDbXrecord
280
     1
 90
        1
330
7F
  0
DICTIONARY
  5
5E
102
{ACAD_REACTORS
330
C
102
}
330
C
100
AcDbDictionary
281
     1
  3
CANNOSCALE
350
4FE4
  3
CMLEADERSTYLE
350
4FE3
  3
CTABLESTYLE
350
84
  3
DIMASSOC
350
5F
  3
HIDETEXT
350
63
  3
INDEXCTL
350
1E69
  3
PSOLHEIGHT
350
5056
  3
PSOLWIDTH
350
5055
  3
SORTENTS
350
1E68
  3
XCLIPFRAME
350
5057
  0
XRECORD
  5
505A
102
{ACAD_REACTORS
330
C
102
}
330
C
100
AcDbXrecord
280
     1
  1
DWGPROPS COOKIE
  2

  3

  4

  6

  7

  8
skoelzer
  9

300
=
301
=
302
=
303
=
304
=
305
=
306
=
307
=
308
=
309
=
 40
0.4678174768518519
 41
2454312.596884572
 42
2456632.33583566
  1

 90
        0
  0
DICTIONARY
  5
4EB2
102
{ACAD_REACTORS
330
5AF
102
}
330
5AF
100
AcDbDictionary
281
     1
  0
DICTIONARY
  5
5B0
102
{ACAD_REACTORS
330
5AF
102
}
330
5AF
100
AcDbDictionary
281
     1
  0
DICTIONARY
  5
4EB1
102
{ACAD_REACTORS
330
5AF
102
}
330
5AF
100
AcDbDictionary
281
     1
1001
ACAD
1000
<All
  0
XRECORD
  5
503A
102
{ACAD_REACTORS
330
5039
102
}
330
5039
100
AcDbXrecord
280
     1
290
     1
  0
XRECORD
  5
503C
102
{ACAD_REACTORS
330
503B
102
}
330
503B
100
AcDbXrecord
280
     1
290
     1
  0
XRECORD
  5
503E
102
{ACAD_REACTORS
330
503D
102
}
330
503D
100
AcDbXrecord
280
     1
290
     1
  0
XRECORD
  5
5040
102
{ACAD_REACTORS
330
503F
102
}
330
503F
100
AcDbXrecord
280
     1
290
     1
  0
XRECORD
  5
5042
102
{ACAD_REACTORS
330
5041
102
}
330
5041
100
AcDbXrecord
280
     1
290
     1
  0
XRECORD
  5
5044
102
{ACAD_REACTORS
330
5043
102
}
330
5043
100
AcDbXrecord
280
     1
290
     1
  0
XRECORD
  5
5046
102
{ACAD_REACTORS
330
5045
102
}
330
5045
100
AcDbXrecord
280
     1
290
     1
  0
XRECORD
  5
5048
102
{ACAD_REACTORS
330
5047
102
}
330
5047
100
AcDbXrecord
280
     1
290
     1
  0
XRECORD
  5
504A
102
{ACAD_REACTORS
330
5049
102
}
330
5049
100
AcDbXrecord
280
     1
290
     1
  0
XRECORD
  5
504C
102
{ACAD_REACTORS
330
504B
102
}
330
504B
100
AcDbXrecord
280
     1
290
     1
  0
XRECORD
  5
504E
102
{ACAD_REACTORS
330
504D
102
}
330
504D
100
AcDbXrecord
280
     1
290
     1
  0
XRECORD
  5
5050
102
{ACAD_REACTORS
330
504F
102
}
330
504F
100
AcDbXrecord
280
     1
290
     1
  0
XRECORD
  5
5052
102
{ACAD_REACTORS
330
5051
102
}
330
5051
100
AcDbXrecord
280
     1
290
     1
  0
XRECORD
  5
5054
102
{ACAD_REACTORS
330
5053
102
}
330
5053
100
AcDbXrecord
280
     1
290
     1
  0
SORTENTSTABLE
  5
197A
102
{ACAD_REACTORS
330
1979
102
}
330
1979
100
AcDbSortentsTable
330
1F
331
49C1
  5
49F3
331
40BA
  5
49C2
331
4157
  5
49C3
331
49C3
  5
4112
331
4172
  5
49CA
331
4766
  5
49D4
331
3EB0
  5
3EB0
331
4364
  5
4040
331
403F
  5
4041
331
47D7
  5
49D8
331
4174
  5
49CC
331
49C5
  5
4171
331
3EB4
  5
3EB4
331
424F
  5
49CF
331
49D8
  5
4797
331
4916
  5
49ED
331
4176
  5
49CE
331
49DA
  5
47D7
331
4261
  5
404A
331
49EE
  5
4916
331
498E
  5
49F2
331
48D9
  5
49EA
331
49DC
  5
47DA
331
49D3
  5
4366
331
3EBB
  5
3EBB
331
4159
  5
49C5
331
47D8
  5
49D9
331
42F6
  5
403F
331
49D5
  5
4778
331
49DE
  5
47E4
331
49E1
  5
4889
331
415B
  5
49C7
331
47DA
  5
49DB
331
4769
  5
49D5
331
49D7
  5
477E
331
48BA
  5
49E9
331
49F0
  5
4922
331
49F2
  5
4976
331
4763
  5
49D3
331
49F4
  5
49C1
331
4797
  5
49D6
331
4171
  5
49C9
331
495E
  5
49F0
331
440E
  5
49D2
331
49C4
  5
4113
331
4173
  5
49CB
331
47D6
  5
49D7
331
3EB3
  5
3EB3
331
4175
  5
49CD
331
49C6
  5
4172
331
49D9
  5
47D6
331
49ED
  5
4913
331
49DB
  5
47D8
331
4045
  5
404B
331
4976
  5
49F1
331
47E4
  5
49DD
331
49EF
  5
4917
331
49D2
  5
4365
331
4835
  5
49DE
331
49DD
  5
47DB
331
49D4
  5
440E
331
4158
  5
49C4
331
41E6
  5
4049
331
49E0
  5
484F
331
3EBC
  5
3EBC
331
415A
  5
49C6
331
47D9
  5
49DA
331
42F7
  5
49D0
331
49D6
  5
477B
331
49DF
  5
4835
331
47DB
  5
49DC
331
415C
  5
49C8
331
49F1
  5
495E
331
490C
  5
49EB
331
4922
  5
49EF
331
49F3
  5
498E
  0
SORTENTSTABLE
  5
4EBB
102
{ACAD_REACTORS
330
4EBA
102
}
330
4EBA
100
AcDbSortentsTable
330
4CC8
331
4EB6
  5
4EB7
331
4EB7
  5
4EB8
331
4EB8
  5
4EB9
331
4EB9
  5
4EB6
  0
SORTENTSTABLE
  5
4F43
102
{ACAD_REACTORS
330
4F42
102
}
330
4F42
100
AcDbSortentsTable
330
4F41
  0
XRECORD
  5
5084
102
{ACAD_REACTORS
330
5083
102
}
330
5083
100
AcDbXrecord
280
     1
 40
4330162.0
  1
{\fArial|b1|i0|c0|p34;Holzfenster IDEAL IV68xxxx - ClassicLine\PBalkontür mit PZ\P\fArial|b0|i0|c0|p34;\H0.8x;Ausführung mit Schwelle oder Sohlbank\fArial|b1|i0|c0|p34;\H0.75x;\P\fArial|b0|i0|c0|p34;Getriebenutmitte 13.15mm\PGlasstärken 18mm bis 36mm
  1
\PDornmaß 45mm\P\PHorizontalschnitt B-B}
  0
XRECORD
  5
5086
102
{ACAD_REACTORS
330
5085
102
}
330
5085
100
AcDbXrecord
280
     1
 40
293718.0
  1
{\fArial|b0|i0|c0|p34;Zeichnung ohne Gewähr; Änderungen vorbehalten}
  0
DIMASSOC
  5
4975
102
{ACAD_REACTORS
330
496B
102
}
330
496B
100
AcDbDimAssoc
330
495E
 90
        1
 70
     0
 71
     0
  1
AcDbOsnapPointRef
 72
     1
331
403F
 73
     2
 91
       11
 40
1.0
 10
0.0
 20
0.0
 30
2.000000000000000E+50
 75
     0
  0
XRECORD
  5
5080
102
{ACAD_REACTORS
330
507F
102
}
330
507F
100
AcDbXrecord
280
     1
102
SHADEPLOT
 70
     0
  0
XRECORD
  5
5082
102
{ACAD_REACTORS
330
5081
102
}
330
5081
100
AcDbXrecord
280
     1
102
SHADEPLOT
 70
     0
  0
LAYOUT
  5
D3
102
{ACAD_XDICTIONARY
360
2989
102
}
102
{ACAD_REACTORS
330
1A
102
}
330
1A
100
AcDbPlotSettings
  1

  2
Adobe PDF
  4
A4
  6

 40
3.174999952316281
 41
3.174999952316281
 42
3.175003051757812
 43
3.17498779296875
 44
209.9733276367186
 45
297.0318298339844
 46
2.825000047683714
 47
2.825000047683714
 48
0.0
 49
0.0
140
0.0
141
0.0
142
1.0
143
1.0
 70
   688
 72
     1
 73
     1
 74
     5
  7
Grayscale.ctb
 75
    16
147
1.0
148
0.0
149
0.0
100
AcDbLayout
  1
Classic
 70
     1
 71
     1
 10
-5.999987840652463
 20
-6.0
 11
291.0318419933318
 21
203.9733276367186
 12
0.0
 22
0.0
 32
0.0
 14
-6.009141920275395
 24
-6.006510555385091
 34
-0.0015258207003583
 15
290.9275986943447
 25
203.9797365661948
 35
0.0000000349246037
146
0.0
 13
0.0
 23
0.0
 33
0.0
 16
1.0
 26
0.0
 36
0.0
 17
0.0
 27
1.0
 37
0.0
 76
     0
330
D2
331
290C
1001
ACAD_PSEXT
1000
Adobe PDF
1000
Adobe PDF Converter
1000
Eigene Dateien
1000

1070
     0
  0
LAYOUT
  5
22
102
{ACAD_XDICTIONARY
360
505B
102
}
102
{ACAD_REACTORS
330
1A
102
}
330
1A
100
AcDbPlotSettings
  1

  2
\\ideal2000-01\RICOH Aficio MP 161 PCL 6
  4
A4
  6

 40
5.027082920074462
 41
5.027085781097412
 42
5.027069091796875
 43
5.027069091796875
 44
209.9733276367186
 45
296.9259948730469
 46
-5.040412187576293
 47
-5.064079999923761
 48
0.0
 49
0.0
140
0.0
141
0.0
142
1.0
143
1.0
 70
  3748
 72
     1
 73
     0
 74
     2
  7
Grayscale.ctb
 75
    16
147
1.0
148
0.0
149
0.0
100
AcDbLayout
  1
Model
 70
     1
 71
     0
 10
0.0
 20
0.0
 11
12.0
 21
9.0
 12
0.0
 22
0.0
 32
0.0
 14
0.0
 24
0.0
 34
0.0
 15
0.0
 25
0.0
 35
0.0
146
0.0
 13
0.0
 23
0.0
 33
0.0
 16
1.0
 26
0.0
 36
0.0
 17
0.0
 27
1.0
 37
0.0
 76
     0
330
1F
331
EA
1001
ACAD_PSEXT
1000
\\ideal2000-01\RICOH Aficio MP 161 PCL 6
1000
RICOH Aficio MP 161 PCL 6
1000
Bei Hern Becker an JetAdmin 172.16.99.14
1000

1070
     0
  0
MATERIAL
  5
ED
102
{ACAD_XDICTIONARY
360
1E77
102
}
102
{ACAD_REACTORS
330
6A
102
}
330
6A
100
AcDbMaterial
  1
ByBlock
  0
MATERIAL
  5
EC
102
{ACAD_XDICTIONARY
360
1E75
102
}
102
{ACAD_REACTORS
330
6A
102
}
330
6A
100
AcDbMaterial
  1
ByLayer
  0
MATERIAL
  5
EE
102
{ACAD_XDICTIONARY
360
1E79
102
}
102
{ACAD_REACTORS
330
6A
102
}
330
6A
100
AcDbMaterial
  1
Global
  0
MLEADERSTYLE
  5
4FDD
102
{ACAD_REACTORS
330
4FDC
102
}
330
4FDC
100
AcDbMLeaderStyle
170
     2
171
     1
172
     0
 90
        2
 40
0.0
 41
0.0
173
     1
 91
-1056964608
340
14
 92
       -2
290
     1
 42
2.0
291
     1
 43
0.36
  3
Standard
 44
4.0
300

342
11
174
     1
178
     6
175
     1
176
     0
 93
-1056964608
 45
4.0
292
     0
297
     0
 46
4.0
 94
-1056964608
 47
1.0
 49
1.0
140
1.0
293
     1
141
0.0
294
     1
177
     0
142
1.0
295
     0
296
     0
143
0.125
1001
ACAD_MLEADERVER
1070
     2
  0
MLINESTYLE
  5
18
102
{ACAD_REACTORS
330
17
102
}
330
17
100
AcDbMlineStyle
  2
STANDARD
 70
     0
  3

 62
   256
 51
90.0
 52
90.0
 71
     2
 49
0.5
 62
   256
  6
BYLAYER
 49
-0.5
 62
   256
  6
BYLAYER
  0
ACDBPLACEHOLDER
  5
F
102
{ACAD_REACTORS
330
E
102
}
330
E
  0
SCALE
  5
4FCB
102
{ACAD_REACTORS
330
4FCA
102
}
330
4FCA
100
AcDbScale
 70
     0
300
1:1
140
1.0
141
1.0
290
     1
  0
SCALE
  5
4FCC
102
{ACAD_REACTORS
330
4FCA
102
}
330
4FCA
100
AcDbScale
 70
     0
300
1:2
140
1.0
141
2.0
290
     0
  0
SCALE
  5
4FCD
102
{ACAD_REACTORS
330
4FCA
102
}
330
4FCA
100
AcDbScale
 70
     0
300
1:4
140
1.0
141
4.0
290
     0
  0
SCALE
  5
4FCE
102
{ACAD_REACTORS
330
4FCA
102
}
330
4FCA
100
AcDbScale
 70
     0
300
1:5
140
1.0
141
5.0
290
     0
  0
SCALE
  5
4FCF
102
{ACAD_REACTORS
330
4FCA
102
}
330
4FCA
100
AcDbScale
 70
     0
300
1:8
140
1.0
141
8.0
290
     0
  0
SCALE
  5
4FD0
102
{ACAD_REACTORS
330
4FCA
102
}
330
4FCA
100
AcDbScale
 70
     0
300
1:10
140
1.0
141
10.0
290
     0
  0
SCALE
  5
4FD1
102
{ACAD_REACTORS
330
4FCA
102
}
330
4FCA
100
AcDbScale
 70
     0
300
1:16
140
1.0
141
16.0
290
     0
  0
SCALE
  5
4FD2
102
{ACAD_REACTORS
330
4FCA
102
}
330
4FCA
100
AcDbScale
 70
     0
300
1:20
140
1.0
141
20.0
290
     0
  0
SCALE
  5
4FD3
102
{ACAD_REACTORS
330
4FCA
102
}
330
4FCA
100
AcDbScale
 70
     0
300
1:30
140
1.0
141
30.0
290
     0
  0
SCALE
  5
4FD4
102
{ACAD_REACTORS
330
4FCA
102
}
330
4FCA
100
AcDbScale
 70
     0
300
1:40
140
1.0
141
40.0
290
     0
  0
SCALE
  5
4FD5
102
{ACAD_REACTORS
330
4FCA
102
}
330
4FCA
100
AcDbScale
 70
     0
300
1:50
140
1.0
141
50.0
290
     0
  0
SCALE
  5
4FD6
102
{ACAD_REACTORS
330
4FCA
102
}
330
4FCA
100
AcDbScale
 70
     0
300
1:100
140
1.0
141
100.0
290
     0
  0
SCALE
  5
4FD7
102
{ACAD_REACTORS
330
4FCA
102
}
330
4FCA
100
AcDbScale
 70
     0
300
2:1
140
2.0
141
1.0
290
     0
  0
SCALE
  5
4FD8
102
{ACAD_REACTORS
330
4FCA
102
}
330
4FCA
100
AcDbScale
 70
     0
300
4:1
140
4.0
141
1.0
290
     0
  0
SCALE
  5
4FD9
102
{ACAD_REACTORS
330
4FCA
102
}
330
4FCA
100
AcDbScale
 70
     0
300
8:1
140
8.0
141
1.0
290
     0
  0
SCALE
  5
4FDA
102
{ACAD_REACTORS
330
4FCA
102
}
330
4FCA
100
AcDbScale
 70
     0
300
10:1
140
10.0
141
1.0
290
     0
  0
SCALE
  5
4FDB
102
{ACAD_REACTORS
330
4FCA
102
}
330
4FCA
100
AcDbScale
 70
     0
300
100:1
140
100.0
141
1.0
290
     0
  0
TABLESTYLE
  5
7F
102
{ACAD_XDICTIONARY
360
4FE9
102
}
102
{ACAD_REACTORS
330
7E
102
}
330
7E
100
AcDbTableStyle
  3
Standard
 70
     0
 71
     0
 40
1.5
 41
1.5
280
     0
281
     0
  7
Standard
140
4.5
170
     2
 62
     0
 63
     7
283
     0
274
    -2
284
     1
 64
     0
275
    -2
285
     1
 65
     0
276
    -2
286
     1
 66
     0
277
    -2
287
     1
 67
     0
278
    -2
288
     1
 68
     0
279
    -2
289
     1
 69
     0
  7
Standard
140
6.0
170
     5
 62
     0
 63
     7
283
     0
274
    -2
284
     1
 64
     0
275
    -2
285
     1
 65
     0
276
    -2
286
     1
 66
     0
277
    -2
287
     1
 67
     0
278
    -2
288
     1
 68
     0
279
    -2
289
     1
 69
     0
  7
Standard
140
4.5
170
     5
 62
     0
 63
     7
283
     0
274
    -2
284
     1
 64
     0
275
    -2
285
     1
 65
     0
276
    -2
286
     1
 66
     0
277
    -2
287
     1
 67
     0
278
    -2
288
     1
 68
     0
279
    -2
289
     1
 69
     0
  0
VISUALSTYLE
  5
F5
102
{ACAD_XDICTIONARY
360
5069
102
}
102
{ACAD_REACTORS
330
EF
102
}
330
EF
100
AcDbVisualStyle
  2

 70
     4
 71
     0
 72
     2
 73
     1
 90
        0
 40
-0.6
 41
-30.0
 62
     5
 63
     7
 74
     1
 91
        4
 64
     7
 65
   257
 75
     1
175
     1
 42
1.0
 92
        0
 66
   257
 43
1.0
 76
     1
 77
     6
 78
     2
 67
     7
 79
     5
170
     0
171
     0
290
     0
174
     0
 93
        1
 44
0.0
173
     0
291
     0
 45
0.0
1001
ACAD
1000
AcDbSavedByObjectVersion
1070
     0
  0
VISUALSTYLE
  5
F7
102
{ACAD_XDICTIONARY
360
506D
102
}
102
{ACAD_REACTORS
330
EF
102
}
330
EF
100
AcDbVisualStyle
  2

 70
     6
 71
     1
 72
     2
 73
     2
 90
        0
 40
-0.6
 41
-30.0
 62
     5
 63
     7
 74
     2
 91
        2
 64
     7
 65
   257
 75
     2
175
     1
 42
40.0
 92
        0
 66
   257
 43
1.0
 76
     1
 77
     6
 78
     2
 67
     7
 79
     3
170
     0
171
     0
290
     0
174
     0
 93
        1
 44
0.0
173
     0
291
     0
 45
0.0
1001
ACAD
1000
AcDbSavedByObjectVersion
1070
     0
  0
VISUALSTYLE
  5
F6
102
{ACAD_XDICTIONARY
360
506B
102
}
102
{ACAD_REACTORS
330
EF
102
}
330
EF
100
AcDbVisualStyle
  2

 70
     5
 71
     0
 72
     2
 73
     1
 90
        0
 40
-0.6
 41
-30.0
 62
     5
 63
     7
 74
     1
 91
        4
 64
     7
 65
   257
 75
     1
175
     1
 42
1.0
 92
        0
 66
   257
 43
1.0
 76
     1
 77
     6
 78
     2
 67
     7
 79
     5
170
     0
171
     0
290
     0
174
     0
 93
        1
 44
0.0
173
     0
291
     0
 45
0.0
1001
ACAD
1000
AcDbSavedByObjectVersion
1070
     0
  0
VISUALSTYLE
  5
F4
102
{ACAD_XDICTIONARY
360
5067
102
}
102
{ACAD_REACTORS
330
EF
102
}
330
EF
100
AcDbVisualStyle
  2

 70
     7
 71
     1
 72
     0
 73
     1
 90
        0
 40
-0.6
 41
-30.0
 62
     5
 63
     7
 74
     0
 91
        4
 64
     7
 65
   257
 75
     1
175
     1
 42
1.0
 92
        8
 66
     7
 43
1.0
 76
     1
 77
     6
 78
     2
 67
     7
 79
     5
170
     0
171
     0
290
     0
174
     0
 93
        1
 44
0.0
173
     0
291
     1
 45
0.0
1001
ACAD
1000
AcDbSavedByObjectVersion
1070
     0
  0
VISUALSTYLE
  5
FB
102
{ACAD_XDICTIONARY
360
5075
102
}
102
{ACAD_REACTORS
330
EF
102
}
330
EF
100
AcDbVisualStyle
  2

 70
    12
 71
     2
 72
     2
 73
     1
 90
        0
 40
-0.6
 41
-30.0
 62
     5
 63
     7
 74
     1
 91
        4
 64
     7
 65
   257
 75
     1
175
     1
 42
1.0
 92
        8
 66
     7
 43
1.0
 76
     1
 77
     6
 78
     2
 67
     7
 79
     5
170
     0
171
     0
290
     0
174
     0
 93
        1
 44
50.0
173
     0
291
     1
 45
0.0
1001
ACAD
1000
AcDbSavedByObjectVersion
1070
     0
  0
VISUALSTYLE
  5
FF
102
{ACAD_XDICTIONARY
360
507D
102
}
102
{ACAD_REACTORS
330
EF
102
}
330
EF
100
AcDbVisualStyle
  2

 70
    16
 71
     2
 72
     2
 73
     3
 90
        0
 40
-0.6
 41
-30.0
 62
     5
 63
     8
 74
     1
 91
        4
 64
     7
 65
   257
 75
     1
175
     1
 42
1.0
 92
        8
 66
     8
 43
1.0
 76
     1
 77
     6
 78
     2
 67
     7
 79
     5
170
     0
171
     0
290
     0
174
     0
 93
        1
 44
0.0
173
     0
291
     1
 45
0.0
1001
ACAD
1000
AcDbSavedByObjectVersion
1070
     0
  0
VISUALSTYLE
  5
F8
102
{ACAD_XDICTIONARY
360
506F
102
}
102
{ACAD_REACTORS
330
EF
102
}
330
EF
100
AcDbVisualStyle
  2

 70
     9
 71
     3
 72
     2
 73
     1
 90
        0
 40
-0.6
 41
-30.0
 62
     5
 63
     7
 74
     2
 91
        2
 64
     7
 65
   257
 75
     1
175
     1
 42
40.0
 92
        8
 66
     7
 43
1.0
 76
     1
 77
     6
 78
     2
 67
     7
 79
     3
170
     0
171
     0
290
     0
174
     0
 93
        1
 44
0.0
173
     0
291
     0
 45
0.0
1001
ACAD
1000
AcDbSavedByObjectVersion
1070
     0
  0
VISUALSTYLE
  5
FA
102
{ACAD_XDICTIONARY
360
5073
102
}
102
{ACAD_REACTORS
330
EF
102
}
330
EF
100
AcDbVisualStyle
  2

 70
    11
 71
     2
 72
     2
 73
     1
 90
        0
 40
-0.6
 41
-30.0
 62
     5
 63
     7
 74
     1
 91
        4
 64
     7
 65
   257
 75
     1
175
     1
 42
1.0
 92
        8
 66
     7
 43
1.0
 76
     1
 77
     6
 78
     2
 67
     7
 79
     5
170
     0
171
     0
290
     0
174
     0
 93
        1
 44
-50.0
173
     0
291
     1
 45
0.0
1001
ACAD
1000
AcDbSavedByObjectVersion
1070
     0
  0
VISUALSTYLE
  5
4FC9
102
{ACAD_XDICTIONARY
360
5099
102
}
102
{ACAD_REACTORS
330
EF
102
}
330
EF
100
AcDbVisualStyle
  2

 70
    22
 71
     2
 72
     2
 73
     0
 90
        0
 40
-0.6
 41
-30.0
 62
     5
 63
     7
 74
     1
 91
        4
 64
     7
 65
   257
 75
     1
175
     1
 42
1.0
 92
        8
 66
     7
 43
1.0
 76
     1
 77
     6
 78
     2
 67
     7
 79
     5
170
     0
171
     0
290
     0
174
     0
 93
        1
 44
0.0
173
     0
291
     1
 45
0.0
1001
ACAD
1000
AcDbSavedByObjectVersion
1070
     0
  0
VISUALSTYLE
  5
FE
102
{ACAD_XDICTIONARY
360
507B
102
}
102
{ACAD_REACTORS
330
EF
102
}
330
EF
100
AcDbVisualStyle
  2

 70
    15
 71
     2
 72
     2
 73
     1
 90
        0
 40
-0.6
 41
-30.0
 62
     5
 63
     7
 74
     1
 91
        4
 64
     7
 65
   257
 75
     1
175
     1
 42
1.0
 92
        8
 66
     7
 43
1.0
 76
     1
 77
     6
 78
     2
 67
     7
 79
     5
170
     0
171
     0
290
     0
174
     0
 93
        1
 44
0.0
173
     0
291
     1
 45
0.0
1001
ACAD
1000
AcDbSavedByObjectVersion
1070
     0
  0
VISUALSTYLE
  5
F0
102
{ACAD_XDICTIONARY
360
505F
102
}
102
{ACAD_REACTORS
330
EF
102
}
330
EF
100
AcDbVisualStyle
  2

 70
     0
 71
     2
 72
     1
 73
     1
 90
        2
 40
-0.6
 41
30.0
 62
     5
 63
     7
 74
     0
 91
        4
 64
     7
 65
   257
 75
     1
175
     1
 42
1.0
 92
        8
 66
     7
 43
1.0
 76
     1
 77
     6
 78
     2
 67
     7
 79
     5
170
     0
171
     0
290
     0
174
     0
 93
        1
 44
0.0
173
     0
291
     1
 45
0.0
1001
ACAD
1000
AcDbSavedByObjectVersion
1070
     0
  0
VISUALSTYLE
  5
F1
102
{ACAD_XDICTIONARY
360
5061
102
}
102
{ACAD_REACTORS
330
EF
102
}
330
EF
100
AcDbVisualStyle
  2

 70
     1
 71
     2
 72
     1
 73
     1
 90
        2
 40
-0.6
 41
30.0
 62
     5
 63
     7
 74
     1
 91
        4
 64
     7
 65
   257
 75
     1
175
     1
 42
1.0
 92
        0
 66
   257
 43
1.0
 76
     1
 77
     6
 78
     2
 67
     7
 79
     5
170
     0
171
     0
290
     0
174
     0
 93
        1
 44
0.0
173
     0
291
     1
 45
0.0
1001
ACAD
1000
AcDbSavedByObjectVersion
1070
     0
  0
VISUALSTYLE
  5
F2
102
{ACAD_XDICTIONARY
360
5063
102
}
102
{ACAD_REACTORS
330
EF
102
}
330
EF
100
AcDbVisualStyle
  2

 70
     2
 71
     2
 72
     2
 73
     1
 90
        2
 40
-0.6
 41
30.0
 62
     5
 63
     7
 74
     0
 91
        4
 64
     7
 65
   257
 75
     1
175
     1
 42
1.0
 92
        0
 66
     7
 43
1.0
 76
     1
 77
     6
 78
     2
 67
     7
 79
     5
170
     0
171
     0
290
     0
174
     0
 93
        1
 44
0.0
173
     0
291
     1
 45
0.0
1001
ACAD
1000
AcDbSavedByObjectVersion
1070
     0
  0
VISUALSTYLE
  5
F3
102
{ACAD_XDICTIONARY
360
5065
102
}
102
{ACAD_REACTORS
330
EF
102
}
330
EF
100
AcDbVisualStyle
  2

 70
     3
 71
     2
 72
     2
 73
     1
 90
        2
 40
-0.6
 41
30.0
 62
     5
 63
     7
 74
     1
 91
        4
 64
     7
 65
   257
 75
     1
175
     1
 42
1.0
 92
        0
 66
   257
 43
1.0
 76
     1
 77
     6
 78
     2
 67
     7
 79
     5
170
     0
171
     0
290
     0
174
     0
 93
        1
 44
0.0
173
     0
291
     1
 45
0.0
1001
ACAD
1000
AcDbSavedByObjectVersion
1070
     0
  0
VISUALSTYLE
  5
4FC1
102
{ACAD_XDICTIONARY
360
5089
102
}
102
{ACAD_REACTORS
330
EF
102
}
330
EF
100
AcDbVisualStyle
  2

 70
     6
 71
     1
 72
     2
 73
     2
 90
        0
 40
-0.6
 41
-30.0
 62
     5
 63
     7
 74
     2
 91
        2
 64
     7
 65
   257
 75
     2
175
     1
 42
40.0
 92
        0
 66
   257
 43
1.0
 76
     1
 77
     6
 78
     2
 67
     7
 79
     3
170
     0
171
     0
290
     0
174
     0
 93
        1
 44
0.0
173
     0
291
     0
 45
0.0
1001
ACAD
1000
AcDbSavedByObjectVersion
1070
     0
  0
VISUALSTYLE
  5
4FC7
102
{ACAD_XDICTIONARY
360
5095
102
}
102
{ACAD_REACTORS
330
EF
102
}
330
EF
100
AcDbVisualStyle
  2

 70
    20
 71
     2
 72
     2
 73
     0
 90
        0
 40
-0.6
 41
-30.0
 62
     5
 63
     7
 74
     1
 91
        4
 64
     7
 65
   257
 75
     1
175
     1
 42
1.0
 92
       10
 66
     7
 43
1.0
 76
     1
 77
     6
 78
     2
 67
     7
 79
     5
170
     0
171
     0
290
     0
174
     0
 93
        1
 44
0.0
173
     0
291
     1
 45
0.0
1001
ACAD
1000
AcDbSavedByObjectVersion
1070
     0
  0
VISUALSTYLE
  5
FD
102
{ACAD_XDICTIONARY
360
5079
102
}
102
{ACAD_REACTORS
330
EF
102
}
330
EF
100
AcDbVisualStyle
  2

 70
    14
 71
     2
 72
     2
 73
     1
 90
        0
 40
-0.6
 41
-30.0
 62
     5
 63
     7
 74
     1
 91
        4
 64
     7
 65
   257
 75
     7
175
     7
 42
1.0
 92
        8
 66
     7
 43
1.0
 76
     1
 77
     6
 78
     2
 67
     7
 79
     5
170
     0
171
     0
290
     0
174
     0
 93
        1
 44
0.0
173
     0
291
     1
 45
0.0
1001
ACAD
1000
AcDbSavedByObjectVersion
1070
     0
  0
VISUALSTYLE
  5
4FC8
102
{ACAD_XDICTIONARY
360
5097
102
}
102
{ACAD_REACTORS
330
EF
102
}
330
EF
100
AcDbVisualStyle
  2

 70
    21
 71
     2
 72
     2
 73
     0
 90
        0
 40
-0.6
 41
-30.0
 62
     5
 63
     7
 74
     1
 91
        4
 64
     7
 65
   257
 75
     1
175
     1
 42
1.0
 92
        9
 66
     7
 43
1.0
 76
     1
 77
     6
 78
     2
 67
     7
 79
     5
170
     0
171
     0
290
     0
174
     0
 93
        1
 44
0.0
173
     0
291
     1
 45
0.0
1001
ACAD
1000
AcDbSavedByObjectVersion
1070
     0
  0
VISUALSTYLE
  5
F9
102
{ACAD_XDICTIONARY
360
5071
102
}
102
{ACAD_REACTORS
330
EF
102
}
330
EF
100
AcDbVisualStyle
  2

 70
     8
 71
     2
 72
     2
 73
     1
 90
        0
 40
-0.6
 41
-30.0
 62
     5
 63
     7
 74
     1
 91
        0
 64
     7
 65
   257
 75
     1
175
     1
 42
1.0
 92
        8
 66
     8
 43
1.0
 76
     1
 77
     6
 78
     2
 67
     7
 79
     5
170
     0
171
     0
290
     0
174
     0
 93
       13
 44
0.0
173
     0
291
     0
 45
0.0
1001
ACAD
1000
AcDbSavedByObjectVersion
1070
     0
  0
VISUALSTYLE
  5
4FC6
102
{ACAD_XDICTIONARY
360
5093
102
}
102
{ACAD_REACTORS
330
EF
102
}
330
EF
100
AcDbVisualStyle
  2

 70
    27
 71
     2
 72
     2
 73
     1
 90
        2
 40
-0.6
 41
30.0
 62
     5
 63
     7
 74
     0
 91
        4
 64
     7
 65
   257
 75
     1
175
     1
 42
1.0
 92
        8
 66
   257
 43
1.0
 76
     1
 77
     6
 78
     2
 67
     8
 79
     3
170
     0
171
     0
290
     0
174
     0
 93
        5
 44
0.0
173
     0
291
     0
 45
0.0
1001
ACAD
1000
AcDbSavedByObjectVersion
1070
     0
  0
VISUALSTYLE
  5
4FC5
102
{ACAD_XDICTIONARY
360
5091
102
}
102
{ACAD_REACTORS
330
EF
102
}
330
EF
100
AcDbVisualStyle
  2

 70
    26
 71
     2
 72
     2
 73
     1
 90
        2
 40
-0.6
 41
30.0
 62
     5
 63
     7
 74
     1
 91
       10
 64
     7
 65
   257
 75
     2
175
     1
 42
1.0
 92
        8
 66
   257
 43
1.0
 76
     1
 77
     6
 78
     2
 67
     7
 79
     3
170
     0
171
     0
290
     0
174
     0
 93
        5
 44
0.0
173
     0
291
     0
 45
0.0
1001
ACAD
1000
AcDbSavedByObjectVersion
1070
     0
  0
VISUALSTYLE
  5
4FC2
102
{ACAD_XDICTIONARY
360
508B
102
}
102
{ACAD_REACTORS
330
EF
102
}
330
EF
100
AcDbVisualStyle
  2

 70
    23
 71
     2
 72
     2
 73
     3
 90
        0
 40
-0.6
 41
-30.0
 62
     5
 63
     7
 74
     2
 91
        2
 64
     7
 65
     7
 75
     1
175
     1
 42
40.0
 92
        8
 66
     7
 43
1.0
 76
     1
 77
     6
 78
     2
 67
     7
 79
     3
170
     0
171
     0
290
     0
174
     0
 93
        1
 44
0.0
173
     0
291
     0
 45
0.0
1001
ACAD
1000
AcDbSavedByObjectVersion
1070
     0
  0
VISUALSTYLE
  5
4FC3
102
{ACAD_XDICTIONARY
360
508D
102
}
102
{ACAD_REACTORS
330
EF
102
}
330
EF
100
AcDbVisualStyle
  2

 70
    24
 71
     1
 72
     2
 73
     2
 90
        0
 40
-0.6
 41
-30.0
 62
     5
 63
     7
 74
     2
 91
        2
 64
     7
 65
     7
 75
     1
175
     1
 42
40.0
 92
       11
 66
     7
 43
1.0
 76
     1
 77
     6
 78
     2
 67
     7
 79
     6
170
     0
171
     0
290
     0
174
     0
 93
        1
 44
0.0
173
     0
291
     0
 45
0.0
1001
ACAD
1000
AcDbSavedByObjectVersion
1070
     0
  0
VISUALSTYLE
  5
FC
102
{ACAD_XDICTIONARY
360
5077
102
}
102
{ACAD_REACTORS
330
EF
102
}
330
EF
100
AcDbVisualStyle
  2

 70
    13
 71
     2
 72
     2
 73
     1
 90
        0
 40
-0.6
 41
-30.0
 62
     5
 63
     7
 74
     1
 91
        4
 64
     7
 65
   257
 75
     1
175
     1
 42
1.0
 92
       12
 66
     7
 43
1.0
 76
     1
 77
     6
 78
     2
 67
     7
 79
     5
170
     0
171
     0
290
     0
174
     0
 93
        1
 44
0.0
173
     0
291
     1
 45
0.0
1001
ACAD
1000
AcDbSavedByObjectVersion
1070
     0
  0
VISUALSTYLE
  5
4FC0
102
{ACAD_XDICTIONARY
360
5087
102
}
102
{ACAD_REACTORS
330
EF
102
}
330
EF
100
AcDbVisualStyle
  2

 70
     5
 71
     0
 72
     2
 73
     0
 90
        0
 40
-0.6
 41
-30.0
 62
     5
 63
     7
 74
     1
 91
        4
 64
     7
 65
   257
 75
     1
175
     1
 42
1.0
 92
        0
 66
   257
 43
1.0
 76
     1
 77
     6
 78
     2
 67
     7
 79
     3
170
     0
171
     0
290
     0
174
     0
 93
        1
 44
0.0
173
     0
291
     0
 45
0.0
1001
ACAD
1000
AcDbSavedByObjectVersion
1070
     0
  0
VISUALSTYLE
  5
4FC4
102
{ACAD_XDICTIONARY
360
508F
102
}
102
{ACAD_REACTORS
330
EF
102
}
330
EF
100
AcDbVisualStyle
  2

 70
    25
 71
     2
 72
     2
 73
     1
 90
        1
 40
0.5
 41
-30.0
 62
     5
 63
     7
 74
     1
 91
        0
 64
     7
 65
   257
 75
     1
175
     1
 42
1.0
 92
        8
 66
     7
 43
1.0
 76
     1
 77
     6
 78
     2
 67
     7
 79
     3
170
     0
171
     0
290
     0
174
     0
 93
       13
 44
0.0
173
     0
291
     0
 45
0.0
1001
ACAD
1000
AcDbSavedByObjectVersion
1070
     0
  0
DICTIONARYVAR
  5
4FE4
102
{ACAD_REACTORS
330
5E
102
}
330
5E
100
DictionaryVariables
280
     0
  1
1:1
  0
DICTIONARYVAR
  5
4FE3
102
{ACAD_REACTORS
330
5E
102
}
330
5E
100
DictionaryVariables
280
     0
  1
STANDARD
  0
DICTIONARYVAR
  5
84
102
{ACAD_REACTORS
330
5E
102
}
330
5E
100
DictionaryVariables
280
     0
  1
STANDARD
  0
DICTIONARYVAR
  5
5F
102
{ACAD_REACTORS
330
5E
102
}
330
5E
100
DictionaryVariables
280
     0
  1
2
  0
DICTIONARYVAR
  5
63
102
{ACAD_REACTORS
330
5E
102
}
330
5E
100
DictionaryVariables
280
     0
  1
1
  0
DICTIONARYVAR
  5
1E69
102
{ACAD_REACTORS
330
5E
102
}
330
5E
100
DictionaryVariables
280
     0
  1
0
  0
DICTIONARYVAR
  5
5056
102
{ACAD_REACTORS
330
5E
102
}
330
5E
100
DictionaryVariables
280
     0
  1
80.000000
  0
DICTIONARYVAR
  5
5055
102
{ACAD_REACTORS
330
5E
102
}
330
5E
100
DictionaryVariables
280
     0
  1
5.000000
  0
DICTIONARYVAR
  5
1E68
102
{ACAD_REACTORS
330
5E
102
}
330
5E
100
DictionaryVariables
280
     0
  1
127
  0
DICTIONARYVAR
  5
5057
102
{ACAD_REACTORS
330
5E
102
}
330
5E
100
DictionaryVariables
280
     0
  1
2
  0
DICTIONARY
  5
2989
330
D3
100
AcDbDictionary
280
     1
281
     1
  3
ACAD_XREC_ROUNDTRIP
360
505E
  3
ADSK_XREC_LAYOUTTHUMBNAIL
360
298A
  0
DICTIONARY
  5
505B
330
22
100
AcDbDictionary
280
     1
281
     1
  3
ACAD_XREC_ROUNDTRIP
360
505C
  0
DICTIONARY
  5
1E77
330
ED
100
AcDbDictionary
280
     1
281
     1
  3
ACAD_XREC_ROUNDTRIP
360
1E78
  0
DICTIONARY
  5
1E75
330
EC
100
AcDbDictionary
280
     1
281
     1
  3
ACAD_XREC_ROUNDTRIP
360
1E76
  0
DICTIONARY
  5
1E79
330
EE
100
AcDbDictionary
280
     1
281
     1
  3
ACAD_XREC_ROUNDTRIP
360
1E7A
  0
DICTIONARY
  5
4FE9
330
7F
100
AcDbDictionary
280
     1
281
     1
  3
ACAD_ROUNDTRIP_2008_TABLESTYLE_CELLSTYLEMAP
360
5058
  3
ACAD_XREC_ROUNDTRIP
360
505D
  0
DICTIONARY
  5
5069
330
F5
100
AcDbDictionary
280
     1
281
     1
  3
ACAD_XREC_ROUNDTRIP
360
506A
  0
DICTIONARY
  5
506D
330
F7
100
AcDbDictionary
280
     1
281
     1
  3
ACAD_XREC_ROUNDTRIP
360
506E
  0
DICTIONARY
  5
506B
330
F6
100
AcDbDictionary
280
     1
281
     1
  3
ACAD_XREC_ROUNDTRIP
360
506C
  0
DICTIONARY
  5
5067
330
F4
100
AcDbDictionary
280
     1
281
     1
  3
ACAD_XREC_ROUNDTRIP
360
5068
  0
DICTIONARY
  5
5075
330
FB
100
AcDbDictionary
280
     1
281
     1
  3
ACAD_XREC_ROUNDTRIP
360
5076
  0
DICTIONARY
  5
507D
330
FF
100
AcDbDictionary
280
     1
281
     1
  3
ACAD_XREC_ROUNDTRIP
360
507E
  0
DICTIONARY
  5
506F
330
F8
100
AcDbDictionary
280
     1
281
     1
  3
ACAD_XREC_ROUNDTRIP
360
5070
  0
DICTIONARY
  5
5073
330
FA
100
AcDbDictionary
280
     1
281
     1
  3
ACAD_XREC_ROUNDTRIP
360
5074
  0
DICTIONARY
  5
5099
330
4FC9
100
AcDbDictionary
280
     1
281
     1
  3
ACAD_XREC_ROUNDTRIP
360
509A
  0
DICTIONARY
  5
507B
330
FE
100
AcDbDictionary
280
     1
281
     1
  3
ACAD_XREC_ROUNDTRIP
360
507C
  0
DICTIONARY
  5
505F
330
F0
100
AcDbDictionary
280
     1
281
     1
  3
ACAD_XREC_ROUNDTRIP
360
5060
  0
DICTIONARY
  5
5061
330
F1
100
AcDbDictionary
280
     1
281
     1
  3
ACAD_XREC_ROUNDTRIP
360
5062
  0
DICTIONARY
  5
5063
330
F2
100
AcDbDictionary
280
     1
281
     1
  3
ACAD_XREC_ROUNDTRIP
360
5064
  0
DICTIONARY
  5
5065
330
F3
100
AcDbDictionary
280
     1
281
     1
  3
ACAD_XREC_ROUNDTRIP
360
5066
  0
DICTIONARY
  5
5089
330
4FC1
100
AcDbDictionary
280
     1
281
     1
  3
ACAD_XREC_ROUNDTRIP
360
508A
  0
DICTIONARY
  5
5095
330
4FC7
100
AcDbDictionary
280
     1
281
     1
  3
ACAD_XREC_ROUNDTRIP
360
5096
  0
DICTIONARY
  5
5079
330
FD
100
AcDbDictionary
280
     1
281
     1
  3
ACAD_XREC_ROUNDTRIP
360
507A
  0
DICTIONARY
  5
5097
330
4FC8
100
AcDbDictionary
280
     1
281
     1
  3
ACAD_XREC_ROUNDTRIP
360
5098
  0
DICTIONARY
  5
5071
330
F9
100
AcDbDictionary
280
     1
281
     1
  3
ACAD_XREC_ROUNDTRIP
360
5072
  0
DICTIONARY
  5
5093
330
4FC6
100
AcDbDictionary
280
     1
281
     1
  3
ACAD_XREC_ROUNDTRIP
360
5094
  0
DICTIONARY
  5
5091
330
4FC5
100
AcDbDictionary
280
     1
281
     1
  3
ACAD_XREC_ROUNDTRIP
360
5092
  0
DICTIONARY
  5
508B
330
4FC2
100
AcDbDictionary
280
     1
281
     1
  3
ACAD_XREC_ROUNDTRIP
360
508C
  0
DICTIONARY
  5
508D
330
4FC3
100
AcDbDictionary
280
     1
281
     1
  3
ACAD_XREC_ROUNDTRIP
360
508E
  0
DICTIONARY
  5
5077
330
FC
100
AcDbDictionary
280
     1
281
     1
  3
ACAD_XREC_ROUNDTRIP
360
5078
  0
DICTIONARY
  5
5087
330
4FC0
100
AcDbDictionary
280
     1
281
     1
  3
ACAD_XREC_ROUNDTRIP
360
5088
  0
DICTIONARY
  5
508F
330
4FC4
100
AcDbDictionary
280
     1
281
     1
  3
ACAD_XREC_ROUNDTRIP
360
5090
  0
XRECORD
  5
505E
102
{ACAD_REACTORS
330
2989
102
}
330
2989
100
AcDbXrecord
280
     1
102
SHADEPLOT
 70
     0
102
SHADEPLOTRESLEVEL
 70
     2
102
SHADEPLOTCUSTOMDPI
 70
   300
  0
XRECORD
  5
298A
102
{ACAD_REACTORS
330
2989
102
}
330
2989
100
AcDbXrecord
280
     1
310
28000000B40000007E00000001000800000000009858000000000000000000000001000000000000FFFFFF0000000000FFFFFF000000000000000000000000000000000000000000000000000000000000000000330000006600000099000000CC000000FF00000000330000333300006633000099330000CC330000FF3300
310
0000660000336600006666000099660000CC660000FF66000000990000339900006699000099990000CC990000FF99000000CC000033CC000066CC000099CC0000CCCC0000FFCC000000FF000033FF000066FF000099FF0000CCFF0000FFFF000000003300330033006600330099003300CC003300FF003300003333003333
310
33006633330099333300CC333300FF33330000663300336633006666330099663300CC663300FF66330000993300339933006699330099993300CC993300FF99330000CC330033CC330066CC330099CC3300CCCC3300FFCC330000FF330033FF330066FF330099FF3300CCFF3300FFFF330000006600330066006600660099
310
006600CC006600FF00660000336600333366006633660099336600CC336600FF33660000666600336666006666660099666600CC666600FF66660000996600339966006699660099996600CC996600FF99660000CC660033CC660066CC660099CC6600CCCC6600FFCC660000FF660033FF660066FF660099FF6600CCFF6600
310
FFFF660000009900330099006600990099009900CC009900FF00990000339900333399006633990099339900CC339900FF33990000669900336699006666990099669900CC669900FF66990000999900339999006699990099999900CC999900FF99990000CC990033CC990066CC990099CC9900CCCC9900FFCC990000FF99
310
0033FF990066FF990099FF9900CCFF9900FFFF99000000CC003300CC006600CC009900CC00CC00CC00FF00CC000033CC003333CC006633CC009933CC00CC33CC00FF33CC000066CC003366CC006666CC009966CC00CC66CC00FF66CC000099CC003399CC006699CC009999CC00CC99CC00FF99CC0000CCCC0033CCCC0066CC
310
CC0099CCCC00CCCCCC00FFCCCC0000FFCC0033FFCC0066FFCC0099FFCC00CCFFCC00FFFFCC000000FF003300FF006600FF009900FF00CC00FF00FF00FF000033FF003333FF006633FF009933FF00CC33FF00FF33FF000066FF003366FF006666FF009966FF00CC66FF00FF66FF000099FF003399FF006699FF009999FF00CC
310
99FF00FF99FF0000CCFF0033CCFF0066CCFF0099CCFF00CCCCFF00FFCCFF0000FFFF0033FFFF0066FFFF0099FFFF00CCFFFF00FFFFFF00000000000D0D0D001A1A1A00282828003535350043434300505050005D5D5D006B6B6B00787878008686860093939300A1A1A100AEAEAE00BBBBBB00C9C9C900D6D6D600E4E4E400
310
F1F1F100FFFFFF0000000000000000000000000000000000000000000000000000000000000000000000000000000000E2E2E2E2E2E2E2E2E2E2E2E2E2E2E2E2E2E2E2E2E2E2E2E2E2E2E2E2E2E2E2E2E2E2E2E2E2E2E2E2E2E2E2E2E2E2E2E2E2E2E2E2E2E2E2E2E2E2E2E2E2E2E2E2E2E2E2E2E2E2E2E2E2E2E2E2E2E2E2
310
E2E2E2E2E2E2E2E2E2E2E2E2E2E2E2E2E2E2E2E2E2E2E2E2E2E2E2E2E2E2E2E2E2E2E2E2E2E2E2E2E2E2E2E2E2E2E2E2E2E2E2E2E2E2E2E2E2E2E2E2E2E2E2E2E2E2E2E2E2E2E2E2E2E2E2E2E2E2E2E2E2E2E2E2E2E2E2E2E2E2E2E2E2E2E2E2E2E2E2EFEFE2F5F5F5F5F5F5F5F5F5F5F5F5F5F5F5F5F5F5F5F5F5F5F5F5F5
310
F5F5F5F5F5F5F5F5F5F5F5F5F5F5F5F5F5F5F5F5F5F5F5F5F5F5F5F5F5F5F5F5F5F5F5F5F5F5F5F5F5F5F5F5F5F5F5F5F5F5F5F5F5F5F5F5F5F5F5F5F5F5F5F5F5F5F5F5F5F5F5F5F5F5F5F5F5F5F5F5F5F5F5F5F5F5F5F5F5F5F5F5F5F5F5F5F5F5F5F5F5F5F5F5F5F5F5F5F5F5F5F5F5F5F5F5F5F5F5F5F5F5F5F5F5F5F5
310
F5F5F5F5F5F5F5F5F5F5F5F5F5F5F5F5F5F5F5F5F5F5F5E2E2EFEFE2F5E2E2E2E2E2E2E2E2F5F5F5F5F5F5F5F5F5E2E2E2E2E2E2E2E2E2E2E2E2E2E2E2E2F5F5F5F5F5F5F5F5F5E2E2E2E2E2E2E2E2E2E2E2E2E2E2E2E2F5F5F5F5F5F5F5F5E2E2E2E2E2E2E2E2E2E2E2E2E2E2E2E2F5F5F5F5F5F5F5F5F5E2E2E2E2E2E2E2
310
E2E2E2E2E2E2E2E2E2F5F5F5F5F5F5F5F5E2E2E2E2E2E2E2E2E2E2E2E2E2E2E2E2F5F5F5F5F5F5F5F5F5E2E2E2E2E2E2E2E2E2E2E2E2E2E2E2E2F5F5F5F5F5F5F5F5F5E2E2E2E2E2E2E2E2F5E2E2EFEFE2F5E2E2E2E2E2E2E2E2E2E2E2E2E2E2E2E2E2E2E2E2E2E2E2E2E2E2E2E2E2E2E2E2E2E2E2E2E2E2E2E2E2E2E2E2E2
310
E2E2E2E2E2E2E2E2E2E2E2E2E2E2E2E2E2E2E2E2E2E2E2E2E2E2E2E2E2E2E2E2E2E2E2E2E2E2E2E2E2E2E2E2E2E2E2E2E2E2E2E2E2E2E2E2E2E2E2E2E2E2E2E2E2E2E2E2E2E2E2E2E2E2E2E2E2E2E2E2E2E2E2E2E2E2E2E2E2E2E2E2E2E2E2E2E2E2E2E2E2E2E2E2E2E2E2E2E2E2E2E2E2E2E2E2E2E2E2E2E2E2E2E2E2E2E2
310
E2F5E2E2EFEFE2F5E2E2E2E2E2E2E2E2E2E2E2E2E2E2E2E2E2E2E2E2E2E2E2E2E2E2E2E2E2E2E2E2E2E2E2E2E2E2E2E2E2E2E2E2E2E2E2E2E2E2E2E2E2E2E2E2E2E2F5F5F5F5F5F5F5F5F5F5F5F5F5F5F5F5F5F5F5F5F5F5F5F5F5F5F5F5F5F5F5F5F5F5F5F5F5F5F5F5F5F5F5F5F5F5F5F5F5F5F5F5F5F5F5F5F5F5F5F5F5
310
F5F5F5F5F5F5F5F5F5F5F5F5F5F5F5F5F5F5F5F5F5F5F5F5F5F5F5F5F5F5F5F5F5F5F5F5F5F5F5F5F5F5F5F5F5F5F5F5F5F5F5F5E2E2F5E2E2EFEFE2F5E2E2E2E2E2E2E2E2E2E2E2E2E2E2E2E2E2E2E2E2E2E2E2E2E2E2E2E2E2E2E2E2E2E2E2E2E2E2E2E2E2E2E2E2E2E2E2E2E2E2E2E2E2E2E2E2E2E2F5F5F5F5F5F5F5F5
310
F5F5F5F5F5F5F5F5F5F5F5F5F5F5F5F5F5F5F5F5F5F5F5F5F5F5F5F5F5F5F5F5F5F5F5F5F5F5F5F5F5F5F5F5F5F5F5F5F5F5F5F5F5F5F5F5F5F5F5F5F5F5F5F5F5F5F5F5F5F5F5F5F5F5F5F5F5F5F5F5F5F5F5F5F5F5F5F5F5F5F5F5F5F5F5F5F5F5F5F5F5F5F5F5F5E2E2F5E2E2EFEFE2F5E2E2F5F5F5F5F5F5F5F5F5F5F5
310
F5F5F5F5F5F5F5F5F5F5F5F5F5F5F5F5F5F5F5F5F5F5F5F5F5F5F5F5F5F5F5F5F5F5F5F5F5F5F5F5F5F5F5F5F5F5F5F5F5F5F5F5F5F5F5F5F5F5F5F5F5F5F5F5F5F5F5F5F5F5F5F5F5F5F5F5F5F5F5F5F5F5F5F5F5F5F5E2E2E2E2E2E2E2F5F5F5F5F5F5F5F5F5F5F5F5F5F5F5F5F5F5F5F5F5F5F5F5F5F5F5F5F5F5F5E2E2
310
E2E2E2E2E2E2E2E2E2E2E2E2E2E2E2E2E2E2E2E2E2E2E2E2E2E2E2E2F5F5F5E2E2F5E2E2EFEFE2F5E2E2F5F5F5F5F5F5F5F5F5F5F5F5F5F5F5F5F5F5F5F5F5F5F5F5F5F5F5F5F5F5F5F5F5F5F5F5F5F5F5F5F5F5F5F5F5F5F5F5F5F5F5F5F5F5F5F5F5F5F5F5F5F5F5F5F5F5F5F5F5F5F5F5F5F5F5F5F5F5F5F5F5F5F5F5F5
310
F5F5F5F5F5F5F5F5F5F5F5E2E2F5F5F5F5F5F5F5E2E2F5F5F5F5F5F5F5F5F5F5F5F5F5F5F5F5F5F5F5F5F5F5F5F5F5F5F5F5F5E2E2E2E2E2E2E2E2E2E2E2E2E2E2E2E2E2E2E2E2E2E2E2E2E2E2E2E2E2E2F5F5F5E2E2F5E2E2EFEFE2F5E2E2E2E2E2E2E2E2E2E2E2E2E2E2E2E2E2E2E2E2E2E2E2E2E2E2E2E2E2E2E2E2E2E2
310
E2F5F5F5F5F5F5F5F5F5F5F5F5F5F5F5F5F5F5F5F5F5F5F5F5F5F5F5F5F5F5F5F5F5F5F5F5F5F5F5F5F5F5F5F5F5F5F5F5F5F5F5F5F5F5F5F5F5F5F5F5F5F5E2F5F5F5F5F5F5F5F5F5F5F5E2E2F5F5F5F5F5F5F5F5F5F5F5F5F5F5F5F5F5F5F5F5F5F5F5F5F5F5F5E2E2E2E2E2E2E2E2E2E2E2E2E2E2E2E2E2E2E2E2E2E2E2
310
E2E2E2E2E2E2E2F5F5F5E2E2F5E2E2EFEFE2F5E2E2E2E2E2E2E2E2E2E2E2E2E2E2E2E2E2E2E2E2E2E2E2E2E2E2E2E2E2E2E2E2E2E2E2F5F5F5F5F5F5F5F5F5F5F5F5F5F5F5E2E2E2E2E2F5F5F5F5F5F5F5F5F5F5F5F5F5F5F5F5F5F5F5F5F5F5F5F5F5F5F5F5F5F5F5F5F5F5F5F5F5F5F5F5F5E2F5F5F5F5F5F5F5F5F5F5F5
310
F5F5F5E2F5F5F5F5F5F5F5F5F5F5F5F5F5F5F5F5F5F5F5F5F5F5F5F5F5F5E2E2E2E2E2E2E2E2E2E2E2E2E2E2E2E2E2E2E2E2E2E2E2E2E2E2E2E2E2E2F5F5F5E2E2F5E2E2EFEFE2F5F5E2F5F5F5F5F5F5F5F5F5F5F5F5F5F5F5F5F5F5F5F5F5F5F5F5F5F5F5F5F5F5F5F5F5F5F5F5F5F5F5F5F5F5F5F5F5F5E2E2F5F5F5F5F5
310
E2E2F5F5F5F5F5F5F5F5F5F5F5F5F5F5F5F5F5F5F5F5F5F5F5F5F5F5F5F5F5F5F5F5F5F5F5F5F5F5E23A3AF53A3A3A3A3A3A3AF5F5F5F5F5E2F5F5F5F5F5F5F5F5F5F5F5F5F5F5F5F5F5F5F5F5F5F5F5F5F5F5F5F5F5F5F5F5F5F5F5F5F5F5F5F5F5F5F5F5F5F5F5F5F5F5F5F5F5F5F5F5F5F5F5E2F5F5E2E2EFEFE2F5F5E2
310
F5F5F5F5F5F5F5F5F5F5F5F5F5F5F5F5F5F5F5F5F5F5F5F5F5F5F5F5F5F5F5F5F5F5F5F5F5F5F5F5F5F5F5F5E2E2F5F5F5F5F5F5F5F5F5E2E2F5F5F5F5F5F5F5F5F5F5F5F5F5F5F5F5F5F5F5F5F5F5F5F5F5F5F5F5F5F5F5F5F5F5F5F5E23A3AF53A3AF53A3A3A3A3AF5F5F5F5F5E2F5F5F5F5F5F5F5F5F5F5F5F5F5F5F5F5
310
F5F5F5F5F5F5F5F5F5F5F5F5F5F5F5F5F5F5F5F5F5F5F5F5F5F5F5F5F5F5F5F5F5F5F5F5F5F5F5F5F5F5E2F5F5E2E2EFEFE2F5F5E2F5F5F5F5F5F5F5F5F5F5F5F5F5F5F5F5F5F5F5F5F5F5F5F5F5F5F5F5F5F5F5F5F5F5F5F5F5F5F5F5F5F5F5E2F5F5F5F5F5F5F5F5F5F5F5F5F5E2F5F5F5F5F5F5F5F5F5F5F5F5F5F5F5F5
310
F5F5F5F5F5F5F5F5F5F5F5F5F5F5F5F5F5F5E2F5F53A3A3AF53A3A3A3AF53AF5F5F5F5F5F5E2F5F5F5F5F5F5F5F5F5F5F5F5F5F5F5F5F5F5F5F5F5F5F5F5F5F5F5F5F5F5F5F5F5F5F5F5F5F5F5F5F5F5F5F5F5F5F5F5F5F5F5F5F5F5F5F5F5E2F5F5E2E2EFEFE2F5F5E2F5F5F5F5F5F5F5F5F5F5F5F5F5F5F5F5F5F5F5F5F5
310
F5F5F5F5F5F5F5F5F5F5F5F5F5F5F5F5F5F5F5F5F5E2E2F5F5F5F5F5F5F5F5F5F5F5F5F5F5E2F5F5F5F5F5F5F5F5F5F5F5F5F5F5F5F5F5F5F5F5F5F5F5F5F5F5F5F5F5F5F5F5F5E2F5F5F53A3A3A3A3A3AF53A3A3AF5F5F5F5F5E2F5F5F5F5F5F5F5F5F5F5F5F5F5F5F5F5F5F5F5F5F5F5F5F5F5F5F5F5F5F5F5F5F5F5F5F5
310
F5F5F5F5F5F5F5F5F5F5F5F5F5F5F5F5F5F5F5F5F5E2F5F5E2E2EFEFE2F5F5E2F5F5F5F5F5F5F5F5F5F5F5F5F5F5F5F5F5F5F5F5F5F5F5F5F5F5F5F5F5F5F5F5F5F5F5F5F5F5F5F5F5E2F5F5F5F5F5F5F5F5F5F5F5F5F5F5F5F5F5E2F5F5F5F5F5F5F5F5F5F5F5F5F5F5F5F5F5F5F5F5F5F5F5F5F5F5F5F5F5F5F5E2F53AF5
310
3A3A3A3AF53AF53A3AF53AF5F5F5F5F5E2F5F5F5F5F5F5F5F5F5F5F5F5F5F5F5F5F5F5F5F5F5F5F5F5F5F5F5F5F5F5F5F5F5F5F5F5F5F5F5F5F5F5F5F5F5F5F5F5F5F5F5F5F5F5F5F5F5E2F5F5E2E2EFEFE2F5F5E2F5F5F5F5F5F5F5F5F5F5F5F5F5F5F5F5F5F5F5F5F5F5F5F5F5F5F5F5F5F5F5F5F5F5F5F5F5F5F5F5F5E2
310
F5F5F5F5F5F5F5F5F5F5F5F5F5F5F5F5F5E2F5F5F5F5F5F5F5F5F5F5F5F5F5F5F5F5F5F5F5F5F5F5F5F5F5F5F5F5F5F5F5E23AF53A3AF5F53A3A3A3A3AF53AF53A3AF5F5F5E2F5F5F5F5F5F5F5F5F5F5F5F5F5F5F5F5F5F5F5F5F5F5F5F5F5F5F5F5F5F5F5F5F5F5F5F5F5F5F5F5F5F5F5F5F5E2E2E2E2E2E2E2E2E2E2F5F5
310
E2F5F5E2E2EFEFE2F5F5E2F5F5F5F5F5F5F5F5F5F5F5F5F5F5F5F5F5F5F5F5F5F5F5F5F5F5F5F5F5F5F5F5F5F5F5F5F5F5F5F5E2F5F5F5F5F53A3A3A3A3A3A3A3A3A3A3A3A3A3AE2F5F5F5F5F5F5F5F5F5F5F5F5F5F5F5F5F5F5F5F5F5F5F5F5F5F5F5F5F5F5E2F53AF53AF5F53A3A3A3AF53AF53A3A3AF5F5F5E2F5F5F5F5
310
F5F5F5F5F5F5F5F5F5F5F5F5F5F5F5F5F5F5F5F5F5F5F5F5F5F5F5F5F5F5F5F5F5F5F5F5F5F5F5F5F5E5E2E2E2E2E2E2E2E2E5F5F5E2F5F5E2E2EFEFE2F5F5E2F5F5F5F5F5F5F5F5F5F5F5F5F5F5F5F5F5F5F5F5F5F5F5F5F5F5F5F5F5F5F5F5F5F5F5F5F5F5F5F5E2F5F5F5F5F53ABEBEBEBEF53AF53AF5F53AF53AE2F5F5
310
F5F5F5F5F5F5F5F5F5F5F5F5F5F5F5F5F5F5F5F5F5F5F5F5F5F5F5F5E2F5F53A3A3A3A3A3A3AF53AF53A3AF53A3AF5F5E2F5F5F5F5F5F5F5F5F5F5F5F5F5F5F5F5F5F5F5F5F5F5F5F5F5F5F5F5F5F5F5F5F5F5F5F5F5F5F5F5F5F5F5F5F5E5E2E2E2E2E2E2E2E5E5F5F5E2F5F5E2E2EFEFE2F5F5E2F5F5F5F5F5F5F5F5F5F5
310
F5F5F5F5F5F5F5F5F5F5F5F5F5F5F5F5F5F5F5F5F5F5F5F5F5F5F5F5F5F5E2F5F5F5F5F53ABEBEBEBEF5F53AF53AF5F53AF53AF5F5F5F5F5F5F5F5F5F5F5F5F5F5F5F5F5F5F5F5F5F5F5F5F5F5F5F5F5F5E2F5F5F53AF53A3A3AF53A3A3A3AF53A3A3AF5F5E2F5F5F5F5F5F5F5F5F5F5F5F5F5F5F5F5F5F5F5F5F5F5F5F5F5
310
F5F5F5F5F5F5F5F5F5F5F5F5F5F5F5F5F5F5F5F5E5E2E2E2E2F5F5E5E2E5F5F5E2F5F5E2E2EFEFE2F5E2E2F5F5F5F5F5F5F5F5F5F5F5F5F5F5F5F5F5F5F5F5F5F5F5F5F5F5F5F5F5F5F5F5F5F5F5F5F5F5F5F5E2F5F5F5F5F53ABEBEBEBEF5F5F53AF53AF5F53AE2F5F5F5F5F5F5F5F5F5F5F5F5F5F5F5F5F5F5F5F5F5F5F5
310
F5F5F5F5F5F5F5F5E2F5F5F53AF53AF53A3A3A3AF53A3AF53AF5F5E2F5F5F5F5F5F5F5F5F5F5F5F5F5F5F5F5F5F5F5F5F5F5F5F5F5F5F5F5F5F5F5F5F5F5F5F5F5F5F5F5F5F5F5F5F5E2E5E2F5F5F5F5E5E5E2F5F5E2E2F5E2E2EFEFE2F5E2E2F5F5F5F5F5F5F5F5F5F5F5F5F5F5F5F5F5F5F5F5F5F5F5F5F5F5F5F5F5F5F5
310
F5F5F5F5F5F5F5F5F5E2F5F5F5F5F53A3ABEBEF53AF5F5F53AF53AF5F53AF5F5F5F5F5F5F5F5F5F5F5F5F5F5F5F5F5F5F5F5F5F5F5F5F5F5F5F5F5F5F5E23AF5F5F53A3A3A3A3A3AF53A3AF53ABEBEF5E2F5F5F5F5F5F5F5F5F5F5F5F5F5F5F5F5F5F5F5F5F5F5F5F5F5F5F5F5F5F5F5F5F5F5F5F5F5F5F5F5F5F5F5F5F5E2
310
E5E2F5F5F5E5F5E5E2F5F5E2E2F5E2E2EFEFE2F5E2E2F5F5F5F5F5F5F5F5F5F5F5F5F5F5F5F5F5F5F5F5F5F5F5F5F5F5F5F5F5F5F5F5F5F5F5F5F5F5F5F5E2F5F5F5F5F53AF5BEBE3AF53AF5F5F53AF53AF5E2F5F5F5F5F5F5F5F5F5F5F5F5F5F5F5F5F5F5F5F5F5F5F5F5F5F5F5F5F5F5F53AE23A3AF5F53A3A3A3AF53A3A
310
F53ABEBEBEE2F5F5F5E2E2E2F5E2E2E2E2E2F5F5F5F5F5F5F5F5F5F5F5F5F5F5F5F5F5F5F5F5F5F5F5F5F5F5F5F5F5F5F5F5F5F5E2E5E2F5F5E5F5F5E5E2F5F5E2E2F5E2E2EFEFE2F5E2E2F5F5F5F5F5F5F5F5F5F5F5F5F5F5F5F5F5F5F5F5F5F5F5F5F5F5F5F5F5F5F5F5F5F5F5F5F5F5F5F5E2F5F5F5F5F53A3A3AF5F53A
310
F53AF5F5F53AF53AE2F5F5F5F5F5F5F5F5F5F5F5F5F5F5F5F5F5F5F5F5F5F5F5F5F5F5F5F5F5F5F5F5E2F5F53AF53A3A3AF53A3AF53ABEBEBEE2F5F5F5F5E2E2E2F5E2E2E2E2E2F5F5F5F5F5F5F5F5F5F5F5F5F5F5F5F5F5F5F5F5F5F5F5F5F5F5F5F5F5F5F5F5E2E2E2E2E2F5E5F5F5E2E2E2E2E2E2E2F5E2E2EFEFE2F5E2
310
E2F5F5F5F5F5F5F5F5F5F5F5F5F5F5F5F5F5F5F5F5F5F5F5F5F5F5F5F5F5F5F5F5F5F5F5F5F5F5F5F5E2F5F5F5F5F53AF53A3AF5F53AF53A3AF5F53AF53AF5F5F5F5F5F5F5F5F5F5F5F5F5F5F5F5F5F5F5F5F5F5F5F5F5F5F5F5F5F5F5F5F5E2F5F53A3A3A3A3A3AF53A3ABEBEBEE2F5F5F5F5E2E2F5F5E2E2F5F5F5F5F5F5
310
F5F5F5F5F5F5F5F5F5F5F5F5F5F5F5F5F5F5F5F5F5F5F5F5F5F5F5F5F5F5E5E2E2E5E5F5F5F5F5E5E2E5E5E2E2F5E2E2EFEFE2F5E2E2F5F5F5F5F5F5F5F5F5F5F5F5F5F5F5F5F5F5F5F5F5F5F5F5F5F5F5F5F5F5F5F5F5F5F5F5F5F5F5F5F5E2F5F5F5F53AF53AF53AF5F53AF5F53AF5F53AF5F5F5F5F5F5F5F5F5F5F5F5F5
310
F5F5F5F5F5F5F5F5F5F5F5F5F5F5F5F5F5F5F5F5F5F5E2F5F56F6F6F6F6F6F6F6F6F6FE2E2E2E2F5E2E2E2E2E2E2E2E2E2F5E2E2E2E2E2F5F5F5F5F5F5F5F5F5F5F5F5F5F5F5F5F5F5F5F5F5F5F5F5F5F5F5F5E5E2E2E5F5F5F5F5F5E5E2E5E5E2E2F5E2E2EFEFE2F5E2E2F5F5F5F5F5F5F5F5F5F5F5F5F5F5F5F5F5F5F5F5
310
F5F5E2E2E2E2E2E2E2F5E2E2F5E2E2E2E2E2E2E2E2E2E2F5F5F53A3AF53AF53AF5F53AF5F53AE2F5F5F5F5F5F5F5F5F5F5F5F5F5F5F5F5F5F5F5F5F5F5F5F5F5F5F5F5F5F5F5F5F5F5F5F5F5E2E26FF56F6F6F6F6F6F6FF5F5E2E2E2F5E2E2E2E2E2E2E2E2E2F5E2E2E2E2E2F5F5F5F5F5F5F5F5F5F5F5F5F5F5F5F5F5F5F5
310
F5F5F5F5F5F5F5F5F5F5E2E2E5F5F5F5F5E5E2E2F5F5E2E2F5E2E2EFEFE2F5E2E2F5F5F5F5F5F5F5F5F5F5F5F5F5F5F5F5F5F5F5F5F5F5E2E2E2E2E2E2E2E2E2E2F5E2E2E2E2E2E2E2E2E20F0F0F0F0F3A3A3A3A3A3A3A3A3A3A3A3AF5F5F5F5F5F5F5F5F5F5F5F5F5F5F5F5F5F5F5F5F5F5F5F5F5F5F5F5F5F5F5F5F5F5F5
310
F5F5F5F56FE26F6F6F6F6F6FF5F5F5F5F5E2E2E2E2E2E2E2E2E2E2E2E2E2E2E2F5F5F5F5F5F5F5F5F5F5F5F5F5F5F5F5F5F5F5F5F5F5F5F5F5F5F5F5F5F5F5E2E5E5F5F5F5F5E5E2E2F5F5E2E2F5E2E2EFEFE2F5E2E2F5F5F5F5F5F5F5F5F5F5F5F5F5F5F5F5F5F5F5F5F5F5E2E2E2E2F5F5F5F5F5F5F5E2E2F5F5F5E2E2F5
310
E2F5E2F50FF50F0FF50FF5F5F5F5F5F53AF5F5F5F5F5F5F5F5F5F5F5F5F5F5F5F5F5F5F5F5F5F5F5F5F5F5F5F5F5F5F5F5F5F5F5F5F5F5F5F5F5F5F5F5F5F5F5F5F5F5F5F5F5E2E2E2E2E2E2E2E2E2E2E2E2E2E2E2F5F5F5F5F5F5F5F5F5F5F5F5F5F5F5F5F5F5F5F5F5F5F5F5F5F5F5F5F5F5F5E5E2E5F5F5F5F5E5E2E2F5
310
F5E2E2F5E2E2EFEFE2F5E2E2F5F5F5F5F5F5F5F5F5F5F5F5F5F5F5F5F5F5F5F5F5F5F5F5F5E2F5F5F5F5F5F5F5F5F5F5F5F5F5F5F5F5F5F5E2E20FF5F50F0FF5F5F5F5E2E2F5F5F5F5F5F5F5F5F5F5F5F5F5F5F5F5F5F5F5F5F5F5F5F5F5F5F5F5F5F5F5F5F5F5F5F5F5F5F5F5F5F5F5F5F5F5F5F5F5F5F5F5F5F5E2E2F5E2
310
F5E2E2F5F5F5F5E2E2F5E2F5F5F5F5F5F5F5F5F5F5F5F5F5F5F5F5F5F5F5F5F5F5F5F5F5F5F5F5F5F5F5E2E5E2E5F5F5F5E5E2E2F5F5E2E2F5E2E2EFEFE2F5E2E2F5F5F5F5F5F5F5F5F5F5F5F5F5F5F5F5F5F5F5F5F5F5F5E2E2E2E2E2E2E2E2E2F5E2E2E2E2E2E2F5F5F5F5F5F5F5E2E2E2E20FE2E2E2E2F5F5F5F5F5F5F5
310
F5F5F5F5F5F5F5F5F5F5F5F5F5F5F5F5F5F5F5F5F5F5F5F5F5F5F5F5F5F5F5F5F5F5F5F5F5F5F5F5F5F5F5F5F5F5F5F5F5F5F5F5F5F5F5F5F5F5F5F5F5F5F5F5F5F5F5F5F5F5F5F5F5F5F5F5F5F5F5F5F5F5F5F5F5F5F5F5F5F5F5F5F5F5F5E2E2E5E5F5F5F5E5E2E2F5F5E2E2F5E2E2EFEFE2F5E2E2F5F5F5F5F5F5F5F5F5
310
F5F5F5F5F5F5F5F5F5F5F5F5F5F5E2E2E2E2E2E2E2E2E2F5E2E2E2E2E2E2F5F5F5F5F5F5F5F5F5F5F50FF5F5F5F5F5F5F5F5F5F5F5F5F5F5F5181818181818181818181818F5F5F5F5F5F5F5F5F5F5F5F5F5F5F5F5F5F5F5F5F5F5F5F5F5F5F5F5F5F5F5F5F5F5F5F5F5F5F5F5F5F5F5F5F5F5F5F5F5F5F5F5F5F5F5F5F5F5
310
F5F5F5F5F5F5F5F5F5F5F5F5F5F5F5F5F5F5F5F5F5E2E2E5E5F5F5F5E5E2E2F5F5E2E2F5E2E2EFEFE2F5E2E2F5F5F5F5F5F5F5F5F5F5F5F5F5F5F5F5F5F5F5F5F5F5F5F5F5F5E2E2F5F5F5E2F5F5F5E2F5F5F5F5F5F5F5F5F5F5F5F5F5F5F5F5F5F5F5F5F5F5F5F5F5F5F5F5F5F5181818181818181818181818F5F5F5F5F5
310
F5F5F5F5F5F5F5F5F5F5F5F5F5F5F5F5F5F5F5F5F5F5F5F5F5F5F5F5F5F5F5F5F5F5F5F5F5F5F5F5F5F5F5F5F5F5F5F5F5F5F5F5F5F5F5F5F5F5F5F5F5F5F5F5F5F5F5F5F5F5F5F5F5F5E2E2E2E5F5F5E5F5E2E2F5F5E2E2F5E2E2EFEFE2F5E2E2F5F5F5F5F5F5F5F5F5F5F5F5F5F5F5F5F5F5F5F5F5F5F5F5F5F5F5F5F5F5
310
F5F5F5F5F5F5F5F5F5F5F5F5F5F5F5F5F5F5F5F5F5F5F5F5F5F5F5F5F5F5F5F5F5F5F5F518F518F518F5F5F5F51818F5F5F5F5F5F5F5F5F5F5F5F5F5F5F5F5F5F5F5F5F5F5F5F5F5F5F5F5F5F5F5F5F5F5F5F5F5F5F5F5F5F5F5F5F5F5F5F5F5F5F5F5F5F5F5F5F5F5F5F5F5F5F5F5F5F5F5F5F5F5F5F5F5F5F5F5F5F5F5F5
310
E2E2E2E5E5F5E5F5E2E2F5F5E2E2F5E2E2EFEFE2F5E2E2F5F5F5F5F5F5F5F5F5F5F5F5F5F5F5F5F5F5F5F5F5F5F5F5F5F5F5F5F5F5F5F5F5F5F5F5F5F5F5F5F5F5F5F5F5BEF5F5F5BEF5F5F5F5F5F5F5F5F5F5F5F5F5F5F5F518181818181818181818181818181818F518181818F5181818F5F5F5F5F5F5F5F5F5F5F5F5F5
310
F5F5F5F5F5F5F5F5F5F5F5F5F5F5F5F5F5F5F5F5F5F5F5F5F5F5F5F5F5F5F5F5F5F5F5F5F5F5F5F5F5F5F5F5F5F5F5F5F5F5F5F5F5E2E2E2F5E5E5E5F5E2E2F5F5E2E2F5E2E2EFEFE2F5F5E2F5F5F5F5F5F5F5F5F5F5F5F5F5F5F5F5F5F5F5F5F5F5F5F5F5F5F5F5F5F5F5F5F5F5F5F5F5F5F5F5F5F5F5F5F5F5BEBEBEBEBE
310
F5F5F5F5F5F5F5F5F5F5F5F5F5F5F5181818181818181818181818181818F5F518181818F5181818F5F5F5F5F5F53A3A3A3A3A3A3A3A3A3AF5F5F5F5F5F5F5F5F5F5F5F5F5F5F5F5F5F5F5F5F5F5F5F5F5F5F5F5F5F5F5F5F5F5F5F5F5F5F5F5F5F5F5F5F5F5F5F5F5F5E2E2E2F5E5E5E5F5E2E2F5F5E2F5F5E2E2EFEFE2F5
310
F5E2F5F5F5F5F5F5F5F5F5F5F5F5F5F5F5F5F5F5F5F5F5F5F5F5F5F5F5F5F5F5F5F5F5F5F5F5F5F5F5F5F5F5F5F5F5F5F5BEBEF5F5F5F5F5F5F5F5F5F5F5F5F5F5F5F5F5F5F5F5F5F5F5F5F5F5F5F5F5F5F5F5F5F5F5F5F5F5F5F5F5F5F5F5F5F5F5F53A3AF53A3A3A3AF53A3A3AF5F5F5F5F5E2F5F5F5F5F5F5F5F5F5F5F5
310
F5F5F5F5F5F5F5F5F5F5F5F5F5F5F5F5F5F5F5F5F5F5F5F5F5F5F5F5F5F5F5F5E2E2E2F5E5F5E5F5E2E2F5F5E2F5F5E2E2EFEFE2F5F5E2F5F5F5F5F5F5F5F5F5F5F5F5F5F5F5F5F5F5F5F5F5F5F5F5F5F5F5F5F5F5F5F5F5F5F5F5F5F5F5F5F5F5F5F5F5F5F53A3A3A3A3A3A3A3A3A3A3A3A3A3A3A3A3A3A3A3A3A3A3A3A3A
310
3A3A3A3A3A3A3A3A3A3A3A3A3A3A3A3A3A3A3A3A3A3A3A3A3A3A3A3A3A3A3AF53A3A3A3AF5F5F5F5F5E2F5F5F5F5F5F5F5F5F5F5F5F5F5F5F5F5F5F5F5F5F5F5F5F5F5F5F5F5F5F5F5F5F5F5F5F5F5F5F5F5F5F5F5E2E2E2F5E5F5E5E5E2E2F5F5E2F5F5E2E2EFEFE2F5F5E2F5F5F5F5F5F5F5F5F5F5F5F5F5F5F5F5F5F5F5
310
F5F5F5F5F5F5F5F5F5F5F5F5F5F5F5F5F5F5F5F5F5F5F5F5F5F5F53AF5BE3ABE3AF5F53AF53AF5F53AF53AF5F5F53AF53AF5F53AF53AF5F53AF53AF5F5F53AF53AF5F53AF53AF5F5F53A3AF5F53A3A3A3A3A3ABE3A3A3A3A3A3AF5F5F5F5E2F5F5F5F5F5F5F5F5F5F5F5F5F5F5F5F5F5F5F5F5F5F5F5F5F5F5F5F5F5F5F5F5
310
F5F5F5F5F5F5F5F5F5F5F5E2E2E2F5F5E5F5F5E5E2F5F5E2F5F5E2E2EFEFE2F5F5E2F5F5F5F5F5F5F5F5F5F5F5F5F5F5F5F5F5F5F5F5F5F5F5F5F5F5F5F5F5F5F5F5F5F5F5F5F5F5F5F5F5F5F5F5F5F53AF5BEBEBEBEF53AF53AF5F53AF53AF5F5F53AF53AF5F53AF53AF5F53AF53AF5F5F53AF53AF5F53AF53AF5F5F53A3A
310
F5F53AF5F53AF5BEBEBEBEBEBEF53A3AF5F5F5F5F5F5F5F5F5F5F5F5F5F5F5F5F5F5F5F5F5F5F5F5F5F5F5F5F5F5F5F5F5F5F5F5F5F5F5F5F5F5F5F5F5F5F5F5E2E2E2E2E2E5E2E2E5E2F5F5E2F5F5E2E2EFEFE2F5F5E2F5F5F5F5F5F5F5F5F5F5F5F5F5F5F5F5F5F5F5F5F5F5F5BEF5F5F5F5F5F5F5F5F5F5F5F5F5F5F5F5
310
F5F5F5F5F5BE3A3ABEBEBEBE3AF53AF5F53AF53AF5F5F53AF53AF5F53AF53AF5F53AF53AF5F5F53AF53AF5F53AF53AF5F5F53A3AF5F53AF5F53A3A3ABEBEBEBEBEBE3A3A3ABEF5F5F5E2F5F5F5F5F5F5F5F5F5F5F5F5F5F5F5F5F5F5F5F5F5F5F5F5F5F5F5F5F5F5F5F5F5F5F5F5F5F5F5F5F5F5F5E2E2E2E2E2E5E2E2E2E5
310
F5F5E2F5F5E2E2EFEFE2F5F5E2F5F5F5F5F5F5F5F5F5F5F5F5F5F5F5F5F5F5F5F5F5F5F5F5BEBEBEBEBEBEBEBEBEBEBEBEBEBEBEBEBEBEBEBEBEBEBEF5BEF5BEF5F53AF5F53AF53AF5F5F53AF53AF5F53AF53AF5F53AF53AF5F5F53AF53AF5F53AF53AF5F5F53A3AF5F53AF5F53AF53AF53A3AF53A3A3A3A3A3ABEF5F5F5E2
310
F5F5F5F5F5F5F5F5F5F5F5F5F5F5F5F5F5F5F5F5F5F5F5F5F5F5F5F5F5F5F5F5F5F5F5F5F5F5F5F5F5F5F5F5F5F5F5F5F5F5F5F5F5F5F5E2F5F5E2E2EFEFE2F5F5E2F5F5F5F5F5F5F5F5F5F5F5F5F5F5F5F5F5F5F5F5F5F5F5F5BEBEF5F5F5F5F5F5F5F5BEBEBEF5F5F5F5F5F5F5F5F5BEBEBEBEBEF53AF5F53AF53AF5F5F5
310
3AF53AF5F53AF53AF5F53AF53AF5F5F53AF53AF5F53AF53AF5F5F53A3AF5F53AF5F53A3A3A3A3A3AF53A3AF53A3A3ABEBEF5F5F5E2F5F5F5F5F5F5F5F5F5F5F5F5F5F5F5F5F5F5F5F5F5F5F5F5F5F5F5F5F5F5F5F5F5F5F5F5F5F5F5F5F5F5F5F5F5F5F5F5F5F5F5F5F5F5F5E2F5F5E2E2EFEFE2F5F5E2F5F5F5F5F5F5F5F5
310
F5F5F5F5F5F5F5F5F5F5F5F5F5F5F5F5F5F5F5F5F5F5F5F5F5F5BEBEBEF5F5F5F5F5F5F5F5F5C3C3C3C3C3C3C3C3C33A3AF5F5F53AF53AF5F53AF53AF5F53AF53AF5F5F53AF53AF5F53AF53AF5F5F53A3AF5F53AF5F53A3AF5F53A3A3A3A3AF53A3A3ABEBEBEBEF5F5E2F5F5F5F5F5F5F5F5F5F5F5F5F5F5F5F5F5F5F5F5F5
310
F5F5F5F5F5F5F5F5F5F5F5F5F5F5F5F5F5F5F5F5F5F5F5F5F5F5F5F5F5F5F5F5F5F5E2F5F5E2E2EFEFE2F5E2E2F5F5F5F5F5F5F5F5F5F5F5F5F5F5F5F5F5F5F5F5F5F5F5F5F5F5F5F5F5F5F5F5F5F5F5F5F5F5F5F5F5F5F5F5F5F5C3C3C3C3C3C3C3C3C3C3F5F5F53AF53AF5F53AF53AF5F53AF53AF5F5F53AF53AF5F53AF5
310
3AF5F53A3A3AF5F5F53AF53AF53A3A3A6F6F6F6F6F6F6F6F6F6F6F6F6F6F6F6F6FF5F5F5F5F5F5F5F5F5F5F5F5F5F5F5F5F5F5F5F5F5F5F5F5F5F5F5F5F5F5F5F5F5F5F5F5F5F5F5F5F5F5F5F5F5F5F5F5F5F5F5F5F5F5E2E2F5E2E2EFEFE2F5E2E2F5F5F5F5F5F5F5F5F5F5F5F5F5F5F5F5F5F5F5F5F5F5F5F5F5F5F5F5F5
310
F5F5F5F5F5F5F5F5F5F5F5F5F5F5F5F5F5F5C3C3F5F5C3C3C3C33AF5F53AF53AF5F53AF53AF5F53AF53AF5F5F53AF53AF5F53AF53AF5F53AF53AF5F5F53AF53AF5F53AF53A6FF5F56F6F6F6F6F6F6F6F6F6F6F6F6F6FF5F5F5F5F5F5F5F5F5F5F5F5F5F5F5F5F5F5F5F5F5F5F5F5F5F5F5F5F5F5F5F5F5F5F5F5F5F5F5F5F5
310
F5F5F5F5F5F5F5F5F5F5F5F5F5E2E2F5E2E2EFEFE2F5E2E2F5F5F5F5F5F5F5F5F5F5F5F5F5F5F5F5F5F5F5F5F5F5F5F5F5F5F5F5F5F5F5F5F5F5F5F5F5F5F5F5F5F5F5F5F5F5C3C3C3C3C3C3C3F53AF5F53AF53AF5F53AF53AF5F53AF53AF5F5F53AF53AF5F53AF53AF5F53AF53AF5F5F53AF53AF5F53AF53AF56FF5F56F6F
310
6F6F6F6F6F6F6F6F6F6F6F6FF5F5F5F5F5F5F5F5F5F5F5F5F5F5F5F5F5F5F5F5F5F5F5F5F5F5F5F5F5F5F5F5F5F5F5F5F5F5F5F5F5F5F5F5F5F5F5F5F5F5F5F5F5F5E2E2F5E2E2EFEFE2F5E2E2F5F5F5F5F5F5F5F5F5F5F5F5F5F5F5F5F5F5F5F5F5F5F5F5F50F0F0F0F0F0F0F0F0F0F0F0F0F0F0F0F0F0F0F0F0FC3C3C30F
310
F5C3C33A3A3A3A3A3AF5F53AF53AF5F53AF53AF5F5F53AF53AF5F53AF53AF5F53AF53AF5F5F53AF53AF5F53AF53AF5F56FF5F56FF5F5F5F5F56FF56F6F6FF5E2F5F5F5F5F5F5F5F5F5F5F5F5F5F5F5F5F5F5F5F5F5F5F5F5F5F5F5F5F5F5F5F5F5F5F5F5F5F5F5F5F5F5F5E2E2E2E2E2E2E2E2E2E2F5F5E2E2F5E2E2EFEFE2
310
F5E2E2F5F5F5F5F5F5F5F5F5F5F5F5F5F5F5F5F5F5F5F5F5F5F5F50FF5F5F50FF50FF5F5F50F0FF5F5F50FF50FF5F50FF50FF5F50F0FF5F5F5F5F5F53AF5F53AF53AF5F53AF53AF5F5F53AF53AF5F53AF53AF5F53AF53AF5F5F53AF53AF5F53AF53AF5F5F56F6F6F6FF5F5F5F5F56FF56F6F6FF5E2F5F5F5F5F5F5F5F5F5F5
310
F5F5F5F5F5F5F5F5F5F5F5F5F5F5F5F5F5F5F5F5F5F5F5F5F5F5F5F5F5F5F5F5F5E2E2E2E2E2E2E2E2E2E2F5F5E2E2F5E2E2EFEFE2F5E2E2F5F5F5F5F5F5F5F5F5F5F5F5F5F5F5F5F5F5F5F5F5F5F5F50F0FF5F5F50FF50FF5F5F50F0FF5F5F50FF50FF5F50FF50F0FBE0FF5F5F5F5F5BE3AF53AF53AF5F53AF53AF5F5F53A
310
F53AF5F53AF53AF5F53AF53AF5F5F53AF53AF5F53AF53AF5F53A3A6F6F6F6FF5F5F5F5F56FF56F6FF5F5E2F5F5F5F5F5F5F5F5F5F5F5F5F5F5F5F5F5F5F5F5F5F5F5F5F5F5F5F5F5F5F5F5F5F5F5F5F5F5F5F5F5F5F5E2E2E2E2E2F5F5F5E2E2F5F5E2E2F5E2E2EFEFE2F5E2E2F5F5F5F5F5F5F5F5F5F5F5F5F5F5F5F5F5F5
310
F5F5F5F5F5F50F0F0FF5F5F50FF50FF5F5F50F0FF5F5F50FF50FF5F50F0FF50FBEBEBEBEBEBEBEBE3A3A3A3A3A3A3A3A3A3A3A3A3A3A3A3A3A3A3A3A3A3A3A3A3A3A3A3A3A3A3A3A3A3A3A3A3A3A3A3A6F6F6F6FF5F5F5F5F56FF56F6FF5F5E2F5F5F5F5F5F5F5F5F5F5F5F5F5F5F5F5F5F5F5F5F5F5F5F5F5F5F5F5F5F5F5
310
F5F5F5F5F5F5F5F5F5F5F5F5E2E2E2F5F5F5F5E2E2E2F5F5E2E2F5E2E2EFEFE2F5E2E2F5F5F5F5F5F5F5F5F5F5F5F5F5F5F5F5F5F5F5F5F5F5F5F50FF50F0FF5F5F50FF50FF5F5F50F0FF5F5F50FF50FF5F5F50FF5BEF5BEBEBEF5F5BE3A3A3A3A3A3AECECECEC3AECECECECECF5ECECECECECF5ECECECECEC3AECECECECEC
310
F5ECECECECEC6F6F6F6FF5F5F5F5F56FF56F6FF5F5E2F5F5F5F5F5F5F5F5F5F5F5F5F5F5F5F5F5F5F5F5F5F5F5F5F5F5F5F5F5F5F5F5F5F5F5F5F5F5F5F5F5F5F5E2E2E2F5F5F5E2F5E2E2F5F5E2E2F5E2E2EFEFE2F5E2E2F5F5F5F5F5F5F5F5F5F5F5F5F5F5F5F5F5F5F5F5F5F5F5F50FF5F50F0FF5F5F50FF50FF5F5F50F
310
0FF5F5F50FF50FF5F5F50F0FF5BEBEBEF5F5F5F5F5F5F5F5F53AF53AF5F53AF53AF5F53AF53AF5F5F53AF53AF5F53AF53AF5F53AF53AF5E9F53AF56F6F6F6FF5F5F5F5F56FF56F6F6FF5F5F5F5F5F5F5F5F5F5F5F5F5F5F5F5F5F5F5F5F5F5F5F5F5F5F5F5F5F5F5F5F5F5F5F5F5F5F5F5F5F5F5F5F5E2E2E2F5F5E2F5F5E2
310
E2F5F5E2E2F5E2E2EFEFE2F5E2E2F5F5F5F5F5F5F5F5F5F5F5F5F5F5F5F5F5F5F5F5F5F5F5F50F0FF5F50F0FF5F5F50FF50FF5F5F50F0FF5F5F50FF50FF5F5F50FF5F5F5F5F5F5F5F5F5F5F5F5F53A3AF53AF5F53AF53AF5F53AF53AF5F53AF53AF5F5F53AF53AF5F53AF53AE9F5F53A6F6F6F6F6F6F6F6F6F6F6F6F6F6F6F
310
6F6FF5F5F5F5F5F5F5F5F5F5F5F5F5F5F5F5F5F5F5F5F5F5F5F5F5F5F5F5F5F5F5F5F5F5F5F5F5F5F5F5F5F5E2E2E2F5F5E2F5F5E2E2F5F5E2E2F5E2E2EFEFE2F5E2E2F5F5F5F5F5F5F5F5F5F5F5F5F5F5F5F5F5F5F5F5F5F5F5F50FF50FF5F50F0F0FF5F50FF50FF5F5F50F0F0FF5F50FF50FF5F50FF5F5F5F5F5F5F5F5F5
310
F5F5F5F53AF53AF53AF5F53AF53AF5F53AF53AF5BE3AF53AF5F5F53AF53AF5F53AF5E9F5F5F56F6F6F6F6F6F6F6F6F6F6F6F6F6F6F6F6FF5F5F5F5F5F5F5F5F5F5F5F5F5F5F5F5F5F5F5F5F5F5F5F5F5F5F5F5F5F5F5F5F5F5F5F5F5F5F5F5E2E5E2E2E2F5E2F5F5E2E2E2E5E5E2E2F5E2E2EFEFE2F5E2E2F5F5F5F5F5F5F5
310
F5F5F5F5F5F5F5F5F5F5F5F5F5F5F5F5F50F0FF50FF5F50FF50FF5F50FF50FF5F5F50FF50FF5F50FF50FF50FF5F5F5F5F5F5F5F5F5F5F5F5F5F53AF53AF53AF5F53AF53AF5BEBEBEBEBEF5BEBEBEF5F5F53AF53AF5F53AE93AF5F56F6F6F6F6F6F6F6F6F6F6F6F6F6F6F6F6FF5F5F5F5F5F5F5F5F5F5F5F5F5F5F5F5F5F5F5
310
F5F5F5F5F5F5F5F5F5F5F5F5F5F5F5F5F5F5F5F5F5F5E5E2E2E2E2F5F5F5F5E2E2E5E5E2E2F5E2E2EFEFE2F5E2E2F5F5F5F5F5F5F5F5F5F5F5F5F5F5F5F5F5F5F5F5F5F5F5F50FF50FF50FF5F50FF50FF5F50FF50FF5F5F50FF50FF5F50FF50F0FF5F5F5F5F5F5F5F5F5F5F5F5F53AF5F5F53AF53AF5F53AF53ABEBEBEBEF5
310
BEBEBEBE3AF5F5F53A3AF5F5F5E9F53AF56F6F6F6F6F6F6F6F6F6F6F6F6F6F6F6F6FF5F5F5F5F5F5F5F5F5F5F5F5F5F5F5F5F5F5F5F5F5F5F5F5F5F5F5F5F5F5F5F5F5F5F5F5F5F5F5F5F5E5E2E2E2F5F5F5F5E2E2E2E5F5E2E2F5E2E2EFEFE2F5E2E2F5F5F5F5F5F5F5F5F5F5F5F5F5F5F5F5F5F5F5F5F5F5F5F50FF5F50F
310
F50FF5F50FF50FF5F50FF50FF5F5F50FF50FF5F50FF50FF5F5F5F5F5F5F5F5F5F5F5F5F53A3AF5F5F53AF53AF5F53ABEBEBEBEBEF5BEBEBEBEF53AF5F5F53A3AF5F5E93AF53A6F6F6F6FF5F5F5F5F56FF5F5F5F5F5E2F5F5F5F5F5F5F5F5F5F5F5F5F5F5F5F5F5F5F5F5F5F5F5F5F5F5F5F5F5F5F5F5F5F5F5F5F5F5F5F5F5
310
F5F5E2E2E2F5F5F5F5E2E2E2F5F5E2E2F5E2E2EFEFE2F5E2E2F5F5F5F5F5F5F5F5F5F5F5F5F5F5F5F5F5F5F5F5F5F5F5F50FF5F5F50FF50FF5F50FF50FF5F50FF50FF5F5F50FF50FF5F50F0FF5F5F5F5F5F5F53A3A3A3A3A3AECECECECECF5ECECECECEC3AECECECECECBEECECEC3AECECECECECF5ECECECECEC3A6F6F6F6F
310
F5F5F5F5F56FF5F5F5F5F5F5F5F5F5F5F5F5F5F5F5F5F5F5F5F5F5F5F5F5F5F5F5F5F5F5F5F5F5F5F5F5F5F5F5F5F5F5F5F5F5F5F5F5F5E2E2E2F5F5F5F5E2E2E2F5F5E2E2F5E2E2EFEFE2F5E2E2F5F5F5F5F5F5F5F5F5F5F5F5F5F5F5F5F5F5F5F5F5F5F5F50F0FF5F5F50FF50FF5F50FF50FF5F50FF50FF5F5F50FF50FF5
310
F50FF5F5F5F5F5F5F53AF53AF53AF5F53AF53AF5F53AF53AF5F5F53AF53AF5F5F53A3AF5F53AF53AF5F53AF53AE9F53AF56F6F6F6FF5F5F5F5F56FF5F5F5F5F5E2F5F5F5F5F5F5F5F5F5F5F5F5F5F5F5F5F5F5F5F5F5F5F5F5F5F5F5F5F5F5F5F5F5F5F5F5F5F5F5F5F5F5F5E2E2E2E2F5F5F5E2E2E2F5F5E2E2F5E2E2EFEF
310
E2F5F5E2F5F5F5F5F5F5F5F5F5F5F5F5F5F5F5F5F5F5F5F5F5F5F5F50F0F0F0F0F0F0F0F0F0F0F0F0F0F0F0F0F0F0F0F0F0F0F0F0F0F0FF5F5F5F5F5F53AE9E9E9E9E9E9E9E9E9E9E9E9E9E9E9E9E9E9E9E9E9E9E9E9E9E9E9E9E9E9E9E9E9E9E9E9E9F53AF56F6F6F6FF5F5F5F5F56FF5F5F5F5F5E2F5F5F5F5F5F5F5F5F5
310
F5F5F5F5F5F5F5F5F5F5F5F5F5F5F5F5F5F5F5F5F5F5F5F5F5F5F5F5F5F5F5F5F5F5E2E2E2E2F5F5F5E2E2E2F5F5E2F5F5E2E2EFEFE2F5F5E2F5F5F5F5F5F5F5F5F5F5F5F5F5F5F5F5F5F5F5F5F5F5F5F50F0F0F0F0F0FECECEC0FECECECECEC0FECECECECECF5ECECECECECF5F5F5F5F5F53A3AF5F5F53AF53AF5F53A3AF5
310
F5F53AF53AF5F5F53AF53AF5F5F53A3AF5F53AF53AF5F53AF53A3AF56F6F6F6FF5F5F5F5F56FF5F5F5F5F5E2F5F5F5F5F5F5F5F5F5F5F5F5F5F5F5F5F5F5F5F5F5F5F5F5F5F5F5F5F5F5F5F5F5F5F5F5F5F5F5F5F5F5F5E2E2E2E2F5F5F5E2E2E2F5F5E2F5F5E2E2EFEFE2F5F5E2F5F5F5F5F5F5F5F5F5F5F5F5F5F5F5F5F5
310
F5F5F5F5F5F5F5F5F5F5F5F5F50F0F0FF5F5F50FF50FF5F50FF50FF5F50FF5F50F0FF5F5F5F5F5F5C3C3C3C3C3C3C3C3C3C3C3C33AF5F5F53AF53AF5F53AF53AF5F5F53A3AF5F5F53AF53AF5F53AF53AF56FF5F56FF5F5F5F5F56FF5F5F5F5F5E2F5F5F5F5F5F5F5F5F5F5F5F5F5F5F5F5F5F5F5F5F5F5F5F5F5F5F5F5F5F5
310
F5F5F5F5F5F5F5F5F5F5F5F5F5E2E2E2E2F5F5E2F5E2E2F5F5E2F5F5E2E2EFEFE2F5F5E2F5F5F5F5F5F5F5F5F5F5F5F5F5F5F5F5F5F5F5F5F5F5F5F5F5F5F5F5F5F50F0FF5F5F50FF50FF5F50FF50FF5F5F50FF50FF50FF5F5F5F5F5F5C3C3C3C3C3C3C3C3C3C3C3C33A3AF5F5F53AF53AF5F53AF53AF5F5F53A3AF5F5F53A
310
F53AF5F53A3A3A6FF5F56F6F6F6F6F6F6F6F6F6F6F6F6F6FF5F5F5F5F5F5F5F5F5F5F5F5F5F5F5F5F5F5F5F5F5F5F5F5F5F5F5F5F5F5F5F5F5F5F5F5F5F5F5F5F5F5E2E2E2E2F5F5E2F5E2E2F5F5E2F5F5E2E2EFEFE2F5F5E2F5F5F5F5F5F5F5F5F5F5F5F5F5F5F5F5F5F5F5F5F5F5F5F5F5F5F5F5F5F50FF5F5F50FF50FF5
310
F50FF50FF5F5F50FF50FF5F50FF5F5F5F5F5F5C3C3C3F5C3C3C3C3C3F5C3C33A3A3AF5F5F53AF53AF5F53AF53AF5F5F53A3AF5F5F53AF53AF5F53AF56FF5F56F6F6F6F6F6F6F6F6F6F6F6F6F6FF5F5F5F5F5F5F5F5F5F5F5F5F5F5F5F5F5F5F5F5F5F5F5F5F5F5F5F5F5F5F5F5F5F5F5F5F5F5F5F5F5F5E2E2E2F5E2F5E2F5
310
E2E2F5F5E2F5F5E2E2EFEFE2F5F5E2F5F5F5F5F5F5F5F5F5F5F5F5F5F5F5F5F5F5F5F5F5F5F5F5F5F5F5F5F5F50FF5F50FF50FF5F50FF50FBEF5F50FF50FF5F50F0F0F0F0F0F0F0FC3C3C3C3C3C3C3C33AC3C33A3A3A3A3A3A3A3A3A3A3A3A3A3A3A3A3A3A3A3A3A3A3A3A3A3A3A3A3A3A6F6F6F6F6F6F6F6F6F6F6F6F6F6F
310
6F6F6FF5F5F5F5F5F5F5F5F5F5F5F5F5F5F5F5F5F5F5F5F5F5F5F5F5F5F5F5F5F5F5F5F5F5F5F5F5F5F5F5F5F5E2E2E2F5E2E2E2F5E2E2F5F5E2F5F5E2E2EFEFE2F5F5E2F5F5F5F5F5F5F5F5F5F5F5F5F5F5F5F5F5F5F5F5F5F5F5F5F5F5F5F5F5F50FF50FF50FF5F50FF5BEBEBEBEBEBEBEBEF50FF50FF5F50FF50FF5F5F5
310
0F0F0FF5C3C3F53AF5F5F53A3AF5F5F53AF53AF5F53AF53AF5F5F53A3AF5F5F53AF53AF5F53AF53A3A3A3A3A3A3A3ABEBEBEBEBEF5F5E2F5F5F5F5F5F5F5F5F5F5F5F5F5F5F5F5F5F5F5F5F5F5F5F5F5F5F5F5F5F5F5F5F5F5F5F5F5F5F5F5F5F5F5E2E2E2F5E2F5E2F5E2E2F5F5E2F5F5E2E2EFEFE2F5F5E2F5F5F5F5F5F5
310
F5F5F5F5F5F5F5F5F5F5F5F5F5F5F5F5F5F5F5F5F5F5F5F50F0F0F0FF5F50FF50FBEBEBEBEBEBEBEBE0FF50FF5F50FF50FF5F5F50F0FF5BEF5BE3A3AF5F5F53A3AF5F5F53AF53AF5F53AF53AF5F5F53A3AF5F5F53AF53AF5F53AF53AF5F53AF53AF5F53ABEBEBEBEF5F5F5E2F5F5F5F5F5F5F5F5F5F5F5F5F5F5F5F5F5F5F5
310
F5F5F5F5F5F5F5F5F5F5F5F5F5F5F5F5F5F5F5F5F5F5F5F5E2E2E2F5E2F5E2E2E2E2F5F5E2F5F5E2E2EFEFE2F5E2E2F5F5F5F5F5F5F5F5F5F5F5F5F5F5F5F5F5F5F5F5F5F5F5F50F0F0F0F0F0FECECECF5ECECECECECBEBEBEECBEBEBEBEECECECEC0FECECECECEC0FECECECBEBEBEBEF5F53A3A3AF5F5F53AF53AF5F53AF5
310
3AF5F5F53A3AF5F5F53AF53AF5F53AF53AF5F53AF53AF5F53AF5BEBEBEBEF5F5F5E2F5F5F5F5F5F5F5F5F5F5F5F5F5F5F5F5F5F5F5F5F5F5F5F5F5F5F5F5F5F5F5F5F5F5F5F5F5F5F5F5F5F5F5E2E2E2F5F5E2F5E2E2E2F5F5E2E2F5E2E2EFEFE2F5E2E2F5F5F5F5F5F5F5F5F5F5F5F5F5F5F5F5F5F5F5F5F5F5F5F50F0FF5
310
F5F50F0FF5F5F50FF50FF5BEBEBEBEF5BEBEBEBE0FF5F50FF50FF5F5F50F0FF5F50F0FBEBEBEBE3AF53AF5F5F53AF53AF5F53AF53AF5F5F53A3AF5F5F53AF53AF5F53AF53AF5F53AF53AF5F53AF5F53AF5BEBEF5F5F5E2F5F5F5F5F5F5F5F5F5F5F5F5F5F5F5F5F5F5F5F5F5F5F5F5F5F5F5F5F5F5F5F5F5F5F5F5F5F5F5F5
310
F5F5F5E2E2E2E2E2E2E2E2E2E2F5F5E2E2F5E2E2EFEFE2F5E2E2F5F5F5F5F5F5F5F5F5F5F5F5F5F5F5F5F5F5F5F5F5F5F5F50FF5F5F50F0FF5F5F50FF50FF5F5F50FF50FF5F50FF50FF5F50FF50FF5F50F0F0FF5F50FF50FF5BEECECECECECF5ECECECECECF5ECECECECECECECECECF5ECECECECECF5ECECECECEC3AECECEC
310
ECECF5ECECECECECF5F5F5F5F5F5F5F5F5F5F5F5F5F5F5F5F5F5F5F5F5F5F5F5F5F5F5F5F5F5F5F5F5F5F5F5F5F5F5F5F5F5F5F5F5F5F5F5E2E2E2E2E2E2E2E2E2E2F5F5E2E2F5E2E2EFEFE2F5E2E2F5F5F5F5F5F5F5F5F5F5F5F5F5F5F5F5F5F5F5F5F5F5F5F50FF5F50F0FF5F5F50FF50FF5F5F50FF50FF5F50FF50FF5F5
310
0FF50FF5F50FF50FF5F5F50F0F0FF5F53AF53AF5F5F53AF53AF5F53AF53AF5F5F53A3AF5F5F53AF53AF5F53AF53AF5F53AF53AF5F53AF5F53AF53AF53AF5F5F5F5E2F5F5F5F5F5F5F5F5F5F5F5F5F5F5F5F5F5F5F5F5F5F5F5F5F5F5F5F5F5F5F5F5F5F5F5F5F5F5F5F5F5F5F5E2E2E2E2E2E2E2E2E2E2F5F5E2E2F5E2E2EF
310
EFE2F5E2E2F5F5F5F5F5F5F5F5F5F5F5F5F5F5F5F5F5F5F5F5F5F5F5F50FF50F0FF5F5F50FF50FF5F50F0F0F0FF5F50F0F0FF5F50FF50FF5F50FF50FF5F5F50F0FF50FF5F53A3AF5F5F53AF53AF5F53AF53AF5F53A3A3AF5F5F53AF53AF5F53AF53AF5F53AF53AF5F5F53AF53AF5F53A3AF5F5F5F5F5E2F5F5F5F5F5F5F5F5
310
F5F5F5F5F5F5F5F5F5F5F5F5F5F5F5F5F5F5F5F5F5F5F5F5F5F5F5F5F5F5F5F5F5F5F5F5F5F5F5F5F5F5F5F5F5F5F5E2E2F5E2E2EFEFE2F5E2E2F5F5F5F5F5F5F5F5F5F5F5F5F5F5F5F5F5F5F5F5F5F5F5F50F0F0FF5F5F50FF50FF5F50FF50FF5F5F50F0FF5F5F50FF50FF5F50FF50FF5F5F50F0FF5F50FF5F53AF5F5F53A
310
F53AF5F53AF53AF5F53AF53AF5F5F53AF53AF5F53AF53AF5F53AF53AF5F5F53AF53AF5F53A3A3AF5F5F5F5F5E2F5F5F5F5F5F5F5F5F5F5F5F5F5F5F5F5F5F5F5F5F5F5F5F5F5F5F5F5F5F5F5F5F5F5F5F5F5F5F5F5F5F5F5F5F5F5F5F5F5F5F5F5F5F5F5E2E2F5E2E2EFEFE2F5E2E2F5F5F5F5F5F5F5F5F5F5F5F5F5F5F5F5
310
F5F5F5F5F5F5F5F50F0F0F0F0F0F0F0F0F0F0F0F0F0F0F0F0F0F0F0F0F0F0F0F0F0F0F0F0F0F0F0F0F0F0F0F0F0FF5F53AF5F53AF53AF5F53AF53AF5F53AF53AF5F5F53AF53AF5F53AF53AF5F53AF53AF5F5F53AF53AF5F53AF53A3AF5F5F5F5F5E2F5F5F5F5F5F5F5F5F5F5F5F5F5F5F5F5F5F5F5F5F5F5F5F5F5F5F5F5F5
310
F5F5F5F5F5F5F5F5F5F5F5F5F5F5F5F5F5F5F5F5F5F5F5F5F5F5E2E2F5E2E2EFEFE2F5E2E2F5F5F5F5F5F5F5F5F5F5F5F5F5F5F5F5F5F5F5F5F5F5F5F5F50F0F0F0F0FECECECF5ECECECECECF5ECECECECEC0FECECECECECF5ECECECECEC0FECECECECF5F53AF53AF53AF5F53AF53AF5F53AF53AF5F5F53AF53AF5F53AF53A
310
F5F53AF53AF5F5F53AF53AF5F5BEBE3A3AF5F5F5F5F5F5E2F5F5F5F5F5F5F5F5F5F5F5F5F5F5F5F5F5F5F5F5F5F5F5F5F5F5F5F5F5F5F5F5F5F5F5F5F5F5F5F5F5F5F5F5F5F5F5F5F5F5F5F5F5F5F5E2E2F5E2E2EFEFE2F5E2E2F5F5F5F5F5F5F5F5F5F5F5F5F5F5F5F5F5F5F5F5F5F5F5F5F5F5F5F5F5F50FF50FF5F50FF5
310
0FF5F5F50F0FF5F5F50FF50FF5F50FF50FF5F5F50F0FF5F50FF5F53A3AF53AF5F53AF53AF5F53AF53AF5F5F53AF53AF5F53AF53AF5F53AF53AF5F5F53AF53AF5F53ABEBEF53AF5F5F5F5F5F5F5F5F5F5F5F5F5F5F5F5F5F5F5F5F5F5F5F5F5F5F5F5F5F5F5F5F5F5F5F5F5F5F5F5F5F5F5F5F5F5F5F5F5F5F5F5F5F5F5F5F5
310
F5F5F5F5F5E2E2F5E2E2EFEFE2F5E2E2F5F5F5F5F5F5F5F5F5F5F5F5F5F5F5F5F5F5F5F5F5F5F5F5F5F5F5F5F5F50F0FF50FF5F50FF50FF5F5F50F0FF5F5F50FF50FF5F50FF50FF5F5F50F0FF50FF5F53AF53AF5F53AF53AF5F53AF53AF5F5F53AF53AF5F53AF53AF5F53AF53AF5F5F53AF53AF5F53AF53AF53A3AF5F5F5F5
310
F5F5E2F5F5F5F5F5F5F5F5F5F5E2E2E2E26FF5F5F5F5F5F5F5F5F5F5F5F5F5F5F5F5F5E2E2E2E26FE2F5F5F5F5F5F5F5F5F5F5F5F5F5F5F5F5F5E2E2F5E2E2EFEFE2F5E2E2F5F5F5F5F5F5F5F5F5F5F5F5F5F5F5F5F5F5F5F5F5F5F5F5F5F5F5F5F5F50FF50FF50FF5F50FF50FF5F5F50F0FF5F5F50FF50FF5F50FF50FF5F5
310
F50F0F0F0F0F0F0F0F0F0F0F0F3A3A3A3A3A3A3A3A3A3A3A3A3A3A3A3A3A3A3A3A3A3A3A3A3A3A3A3A3A3A3A3A3A3A3AF5F5F5F5F5F5F5E2F5F5F5F5F5F5F56F6FE2F5F5F5F56FE2E2E2F5F5F5F5F5F5F5F5F5F5F5E26FE2F5F5F5F56FF5E2E2F5F5F5F5F5F5F5F5F5F5F5F5F5F5F5E2E2F5E2E2EFEFE2F5E2E2F5F5F5F5F5
310
F5F5F5F5F5F5F5F5F5F5F5F5F5F5F5F5F5F5F5F5F5F5F5F5F50FF5F50FF50FF5F50FF50FF5F5F50F0FF5F5F50FF50FF5F50FF50FF5F5F50F0FF5F50FF50FF5F5F50FF5F5F5F5F5F5F5F5F5F5F5F5F5F5F5F5F5F5F5F5F5F5F5F5F5F5F5F5F5F5F5F5F5F5F5F5F5F5F5F5F5F5E2F5F5F5F5F53A6F6F6FF5F5F5F5F56FF5F5F5
310
E2F5F5F5F5F5F5F5F5F53AF56FF5F5F5F5F56FF5F5F5E2F5F5F5F5F5F5F5F5F5F5F5F5F5F5E2E2F5E2E2EFEFE2F5E2E2F5F5F5F5F5F5F5F5F5F5F5F5F5F5F5F5F5F5F5F5F5F5F5F5F50F0F0F0F0FECECECECECEC0FECECECECECECECECEC0FECECECECEC0FECECECECECF5ECECECECECF5ECECECECECBEF5F5F5F5F5F5F5F5
310
F5F5F5F5F5F5F5F5F5F5F5F5F5F5F5F5F5F5F5F5F5F5F5F5F5F5F5F5F5BEF5F5F5F5E2F5F5F5F5F53A6FF56F6F6F6F6F6F6F6F6F6F6F6FF5F5F5F5F5F5F5F53AF56F6F6F6F6F6F6F6F6F6F6F6F6FF5F5F5F5F5F5F5F5F5F5F5F5E2E2F5E2E2EFEFE2F5E2E2F5F5F5F5F5F5F5F5F5F5F5F5F5F5F5F5F5F5F5F5F5F5F5F50FF5
310
0FF5F5F50F0FF5F5F50F0FF5F50FF50FF5F5F50FF50FF5F50FF50FF5F50FF50FF5F5F50FF50FF5F50F0F0FF5BEBEBEBEBEBEBEBEBEBEBEBEBEBEBEBEBEBEBEBEBEBEBEBEBEBEBEBEBEBEBEBEBEBEBEBEBEBEBEBEF5F5F5E2F5F5F5F53A3A6F6F6F6F6F6F6F6F6F6F6F6F6F6F6FF5F5F5F5F5E23A3A6F6F6F6F6F6F6F6F6F6F
310
6F6F6F6F6FF5F5F5F5F5F5F5F5F5F5F5E2E2F5E2E2EFEFE2F5E2E2F5F5F5F5F5F5F5F5F5F5F5F5F5F5F5F5F5F5F5F5F5F5F5F50F0FF50FF5F5F50F0FF5F50FF50FF5F50FF50FF5F5F50FF50FF5F50FF50FF5F50FF50FF5F5F50FF50FF5F5F50F0FF5F5F5F5F5F5F5F5F5F5F5F5F5F5F5F5F5F5F5BEBEF5F5F5F5F5F5F5F5F5
310
F5F5F5F5F5F5F5F5F5F5F5F5F5F5F5F5F5E23A3A3A3A3A3A3A3A3A3A3ABEBEBE6F6F6FE2F5F5F5F5E23A3A3A3A3A3A3A3A3A3ABEBEBEBE6F6F6FF5F5F5F5F5F5F5F5F5F5F5E2E2F5E2E2EFEFE2F5E2E2F5F5F5F5F5F5F5F5F5F5F5F5F5F5F5F5F5F5F5F5F5F5F5F50FF50FF50FF5F5F50F0FF5F50FF50FF5F50FF50FF5F5F5
310
0FF50FF5F50FF50FF5F50FF50FF5F5F50FF50FF5F5F50FF5F5F5F5F5F5F5F5F5F5F5F5F5F5F5F5F5F5F5F5F5F5F5F5F5F5F5F5F5F5F5F5F5F5F5F5F5F5F5F5F5F5F5E2F5F53AE2F5F53AF53AF5F5F53AF53ABEBEBEF5F5F5E2F5F5F5E23AF53AF5F53AF53AF5F53ABEBEBEBEF5F5F5E2F5F5F5F5F5F5F5F5F5F5E2E2F5E2E2
310
EFEFE2F5F5E2F5F5F5F5F5F5F5F5F5F5F5F5F5F5F5F5F5F5F5F5F5F5F5F50FF5F50FF50FF5F5F50F0FF5F50FF50FF5F50FF50FF5F5F50FF50FF5F50FF50FF5F50FF50FF5F5F50FF50FF5F50FF5F5F5F5F5F5F5F5F5F5F5F5F5F5F5F5F5F5F5F5F5F5F5F5F5F5F5F5F5F5F5F5F5F5F5F5F5F5F5F5F5F5F5E2F5F5E2F5F53AF5
310
3AF5F5F53AF53A3A3ABEBEF5F5F5E2F5F5F5E2F53AF5F53AF53AF5F53AF53A3ABEBEF5F5F5E2F5F5F5F5F5F5F5F5F5F5E2F5F5E2E2EFEFE2F5F5E2F5F5F5F5F5F5F5F5F5F5F5F5F5F5F5F5F5F5F5F5F5F5F5F50FF5F50FF50FF5F5F50FF50FF5F50FF50FF5F50FF50FF5F5F50FF50FF5F50FF50FF5F50FF50FF5F5F50FF50F
310
0FF5F5F5F5F5F5F5F5F5F5F5F5F5F5F5F5F5F5F5F5F5F5F5F5F5F5F5F5F5F5F5F5F5F5F5F5F5F5F5F5F5F5F5F5E2F5F5E2F5F53A3AF5F5F53AF53AF5F5F53AF5F5F5F5F5E2F5E2F53AF5F53AF53AF5F53AF53AF53A3AF5F5F5F5E2F5F5F5F5F5F5F5F5F5F5E2F5F5E2E2EFEFE2F5F5E2F5F5F5F5F5F5F5F5F5F5F5F5F5F5F5
310
F5F5F5F5F5F5F5F5F50F0FF5F50FF50FF5F5F50FF50FF5F50FF50FF5F50FF50FF5F5F50FF50FF5F50FF50FF5F50FF50FF5F5F50FF50FF5F5F5F5F5F5F5F5F5F5F5F5F5F5F5F5F5F5F5F5F5F5F5F5F5F5F5F5F5F5F5F5F5F5F5F5F5F5F5F5F5F5F5F5F5F5F5E2F53A3AF5F5F53AF53AF5F5F53A3AF5F5F5F5F5E2F5E23AF5F5
310
F53A3AF5F53AF53AF5F5F53AF5F5F5F5E2F5F5F5F5F5F5F5F5F5F5E2F5F5E2E2EFEFE2F5F5E2F5F5F5F5F5F5F5F5F5F5F5F5F5F5F5F5F5F5F5F5F5F5F5F50F0F0FF5F50FF50FF5F5F50FF50FF5F50FF50FF5F50FF50FF5F5F50FF50FF5F50FF50FF5F50FF50FF5F5F50F0FF5F5F5F5F5F5F5F5F5F5F5F5F5F5F5F5F5F5F5F5
310
F5F5F5F5F5F5F5F5F5F5F5F5F5F5F5F5F5F5F5F5F5F5F5F5F5F5F5E23A3AF5F5F53AF53AF5F53A3A3A3AF5F5F5F5F5E2F5E2F5F5F53A3AF5F53AF53AF5F5F53A3AF5F5F5F5F5E2F5F5F5F5F5F5F5F5F5E2F5F5E2E2EFEFE2F5F5E2F5F5F5F5F5F5F5F5F5F5F5F5F5F5F5F5F5F5F5F5F5F5F5F5F5F50F0F0F0F0F0F0F0F0F0F
310
0F0F0F0F0F0F0F0F0F0F0F0F0F0F0F0F0F0F0F0F0F0F0F0F0F0F0F0F0F0F0FF5F5F5F5F5F5F5F5F5F5F5F5F5F5F5F5F5F5F5F5F5F5F5F5F5F5F5F5F5F5F5F5F5F5F5F5F5F5F5F5F5F5F5F5F5F5F5F5F5E23AF5F5F53AF53AF5F53AF53A3AF5F5F5F5F5F5E2F5E2F5F53A3AF5F53AF53AF5F5F53A3AF5F5F5F5F5E2F5F5F5F5
310
F5F5F5F5F5F5E2F5F5E2E2EFEFE2F5F5E2F5F5F5F5F5F5F5F5F5F5F5F5F5F5F5F5F5F5F5F5F5F5F5F5F5F5F5F5F5F5F5F5F5F5F5F5F5F5F5F5F5F5F5F5F5F5F5F5F5F5F5F5F5F5F5F5F5F5F5F5F5F5F5F5F5F5F5F5F5F5F5F5F5F5F5F5F5F5F5F5F5F5F5F5F5F5F5F5F5F5F5F5F5F5F5F5F5F5F5F5F5F5F5F5F5F5F5F5F5F5
310
F5F5F5F5F5F5E2F5F5F53AF53ABEBEBEF53AF53AF5F5F5F5F5F5E2F5F5E23A3AF5F53AF5F53AF5F53AF53AF5F5F5F5F5E2F5F5F5F5F5F5F5F5F5F5E2F5F5E2E2EFEFE2F5F5E2F5F5F5F5F5F5F5F5F5F5F5F5F5F5F5F5F5F5F5F5F5F5F5F5F5F5F5F5F5F5F5F5F5F5F5F5F5F5F5F5F5F5F5F5F5F5F5F5F5F5F5F5F5F5F5F5F5
310
F5F5F5F5F5F5F5F5F5F5F5F5F5F5F5F5F5F5F5F5F5F5F5F5F5F5F5F5F5F5F5F5F5F5F5F5F5F5F5F5F5F5F5F5F5F5F5F5F5F5F5F5F5F5F5F5F5F5F5E2F5F53AF53AF5BEBEBE3AF53A3AF5F5F5F5F5F5E2F5F5E23AF5F53AF5F53AF5F53AF53AF5F5F5F5F5F5E2F5F5F5F5F5F5F5F5F5F5E2F5F5E2E2EFEFE2F5F5E2F5E2E2E2
310
E2E2E2E2E2E2E2E2E2E2E2E2E2E2E2E2E2E2E2E2F5F5F5F5F5F5F5F5F5F5F5F5F5F5F5F5F5F5F5F5F5F5F5F5F5F5F5F5F5F5F5F5F5F5F5F5F5F5F5F5F5F5F5F5F5F5F5F5F5F5F5F5F5F5F5F5F5F5F5F5F5F5F5F5F5F5F5F5F5F5F5F5F5F5F5F5F5F5F5F5F5F5F5F5F5F5F5F5F5F5F5F5E2F53AF53AF5F53AF53AF5F53AF5F5
310
F5F5F5F5E2F5F5F5E2F5F53AF5F53AF5F53A3A3A3AF5F5F5F5F5F5E2F5F5F5F5F5F5F5F5F5F5E2F5F5E2E2EFEFE2F5F5E2F5E2E2E2E2E2E2E2E2E2E2E2E2E2E2E2E2E2E2E2E2E2E2E2F5F5F5F5F5F5F5F5F5F5F5F5F5F5F5F5F5F5F5F5F5F5F5F5F5F5F5F5F5F5F5F5F5F5F5F5F5F5F5F5F5F5F5F5F5F5F5F5F5F5F5F5F5F5
310
F5F5F5F5F5F5F5F5F5F5F5F5F5F5F5F5F5F5F5F5F5F5F5F5F5F5F5F5F5F5F5F5F5F5F5F5F5F5F5E2F53AF5F53AF53AF53A3AF5F5F5F5F5F5F5E2F5F5F5E2F53AF5F53AF5F53AF53AF5F5F5F5F5F5F5F5E2F5F5F5F5F5F5F5F5F5F5E2F5F5E2E2EFEFE2F5E2E2F5E2E2E2E2E2E2E2E2E2E2E2E2E2E2E2E2E2E2E2E2E2E2E2F5
310
F5F5F5F5F5F5F5F5F5F5F5F5F5F5F5F5F5F5F5F5F5F5F5F5F5F5F5F5F5F5F5F5F5F5F5F5F5F5F5F5F5F5F5F5F5F5F5F5F5F5F5F5F5F5F5F5F5F5F5F5F5F5F5F5F5F5F5F5F5F5F5F5F5F5F5F5F5F5F5F5F5F5F5F5F5F5F5F5F5F5F5F5E2E2F5F53AF53A3A3AF5F5F5F5F5F5F5F5E2F5F5F5F5F5E2F5F53AF5F53AF53A3AF5F5
310
F5F5F5F5E2E2F5F5F5F5F5F5F5F5F5F5F5E2E2F5E2E2EFEFE2F5E2E2F5F5F5F5F5F5F5F5F5F5F5F5F5F5F5F5F5F5F5F5F5F5F5F5F5F5F5F5F5F5F5F5F5F5F5F5F5F5F5F5F5F5F5F5F5F5F5F5F5F5F5F5F5F5F5F5F5F5F5F5F5F5F5F5F5F5F5F5F5F5F5F5F5F5F5F5F5F5F5F5F5F5F5F5F5F5F5F5F5F5F5F5F5F5F5F5F5F5F5
310
F5F5F5F5F5F5F5F5F5F5F5F5F5F5F5F5F5F5F53A3A3A3A3A3A3AF5F5F5F5F5F5F5F5E2F5F5F5F5F5F5F53A3A3A3A3A3A3AF5F5F5F5F5F5F5F5E2F5F5F5F5F5F5F5F5F5F5F5F5E2E2F5E2E2EFEFE2F5E2E2F5F5F5F5F5F5F5F5F5F5F5F5F5F5F5F5F5F5F5F5F5F5F5F5F5F5F5F5F5F5F5F5F5F5F5F5F5F5F5F5F5F5F5F5F5F5
310
F5F5F5F5F5F5F5F5F5F5F5F5F5F5F5F5F5F5F5F5F5F5F5F5F5F5F5F5F5F5F5F5F5F5F5F5F5F5F5F5F5F5F5F5F5F5F5F5F5F5F5F5F5F5F5F5F5F5F5F5F5F5F5F5F5F5F5F5F5F5F5F5F5E2F5F5F5F5F5F5F5F5F5F5F5F5E2F5F5F5F5F5F5F5F5F5E2F5F5F5F5F5F5F5F5F5F5F5F5E2F5F5F5F5F5F5F5F5F5F5F5F5F5E2E2F5E2
310
E2EFEFE2F5E2E2F5F5F5F5F5F5F5F5F5F5F5F5F5F5F5F5F5F5F5F5F5F5F5F5F5F5F5F5F5F5F5F5F5F5F5F5F5F5F5F5F5F5F5F5F5F5F5F5F5F5F5F5F5F5F5F5F5F5F5F5F5F5F5F5F5F5F5F5F5F5F5F5F5F5F5F5F5F5F5F5F5F5F5F5F5F5F5F5F5F5F5F5F5F5F5F5F5F5F5F5F5F5F5F5F5F5F5F5F5F5F5F5F5F5F5F5F5F5F5F5
310
E2E2F5F5F5F5F5F5F5F5F5E2E2F5F5F5F5F5F5F5F5F5F5E2E2F5F5F5F5F5F5F5F5E2E2F5F5F5F5F5F5F5F5F5F5F5F5F5F5E2E2F5E2E2EFEFE2F5E2E2F5F5F5F5F5F5F5F5F5F5F5F5F5F5F5F5F5F5F5F5F5F5F5F5F5F5F5F5F5F5F5F5F5F5F5F5F5F5F5F5F5F5F5F5F5F5F5F5F5F5F5F5F5F5F5F5F5F5F5F5F5F5F5F5F5F5F5
310
F5F5F5F5F5F5F5F5F5F5F5F5F5F5F5F5F5F5F5F5F5F5F5F5F5F5F5F5F5F5F5F5F5F5F5F5F5F5F5F5F5F5F5F5F5F5F5F5F5F5F5F5F5F5F5E2E20FE2F5E2E2E2E2F5F5F5F5F5F5F5F5F5F5F5F5F5E2E2E2E2E2E2E2E2E2F5F5F5F5F5F5F5F5F5F5F5F5F5F5F5F5E2E2F5E2E2EFEFE2F5E2E2F5E2E2E2E2E2E2E2E2E2E2E2E2E2
310
E2E2E2E2E2F5F5F5F5F5F5F5F5F5F5F5F5F5F5F5F5F5F5F5F5F5F5F5F5F5F5F5F5F5F5F5F5F5F5F5F5F5F5F5F5F5F5F5F5F5F5F5F5F5F5F5F5F5F5F5F5F5F5F5F5F5F5F5F5F5F5F5F5F5F5F5F5F5F5F5F5F5F5F5F5F5F5F5F5F5F5F5F5F5F5F5F5F5F5F5F5F5F5F5F5F5F5F50FE20FF5F53A3AE23AF5F5F5F5F5F5F5F5F5F5
310
F5F5F5E20FE20FF53AE23A3AF5F5F5F5F5F5F5F5F5F5F5F5F5F5F5F5E2E2F5E2E2EFEFE2F5E2E2F5E2E2E2E2E2E2E2E2E2E2E2E2E2E2E2E2E2E2F5F5F5F5F5F5F5F5F5F5F5F5F5F5F5F5F5F5F5F5F5F5F5F5F5F5F5F5F5F5F5F5F5F5F5F5F5F5F5F5F5F5F5F5F5F5F5F5F5F5F5F5F5F5F5F5F5F5F5F5F5F5F5F5F5F5F5F5F5
310
F5F5F5F5F5F5F5F5F5F5F5F5F5F5F5F5F5F5F5F5F5F5F5F5F5F5F5F5F5F5F5F5E20FF50F0FF5F53AF53AF5E23AF5F5F5F5F5F5F5F5F5F5E20FF50F0FF53A3A3AF5E2E23AF5F5F5F5F5F5F5F5F5F5F5F5F5E2E2F5E2E2EFEFE2F5E2E2F5E2E2E2E2E2E2E2E2E2E2E2E2E2E2E2E2E2E2F5F5F5F5F5F5F5F5F5F5F5F5F5F5F5F5
310
F5F5F5F5F5F5F5F5F5F5F5F5F5F5F5F5F5F5F5F5F5F5F5F5F5F5F5F5F5F5F5F5F5F5F5F5F5F5F5F5F5F5F5F5F5F5F5F5F5F5F5F5F5F5F5F5F5F5F5F5F5F5F5F5F5F5F5F5F5F5F5F5F5F5F5F5F5F5F5F5F5F5F5F5E20FF50FF50FF5F53A3AF5F53AE23AF5F5F5F5F5F5F5F5E20FF50FF50FF53A3AF5F5F53AE23AF5F5F5F5F5
310
F5F5F5F5F5F5F5E2E2F5E2E2EFEFE2F5E2E2F5E2E2E2E2E2E2E2E2E2E2E2E2E2E2E2E2E2E2E2E2E2E2E2E2E2E2E2E2E2E2E2E2F5F5F5F5F5F5F5F5F5F5F5F5F5F5F5F5F5F5F5F5F5F5F5F5F5F5F5F5F5F5F5F5F5F5F5F5F5F5F5F5F5F5F5F5F5F5F5F5F5F5F5F5F5F5F5F5F5F5F5F5F5F5F5F5F5F5F5F5F5F5F5F5F5F5F5F5
310
F5F5F5F5F5F5F5F5F50F0F0F0F0F0F0FF5F53AF5F53AF53AE2E2F5F5F5F5F5E20F0F0F0F0F0F0FF53AF5F5F53AF53AE2F5F5F5F5F5F5F5F5F5F5F5F5E2E2F5E2E2EFEFE2F5E2E2F5E2E2E2E2E2E2E2E2E2E2E2E2E2E2E2E2E2E2E2E2E2E2E2E2E2E2E2E2E2E2E2E2F5F5F5F5F5F5F5F5F5F5F5F5F5F5F5F5F5F5F5F5F5F5F5
310
F5F5F5F5F5F5F5F5F5F5F5F5F5F5F5F5F5F5F5F5F5F5F5F5F5F5F5F5F5F5F5F5F5F5F5F5F5F5F5F5F5F5F5F5F5F5F5F5F5F5F5F5F5F5F5F5F5F5F5F5F5E2F5F5F50FF50F0FF5F53AF53AF53AF5F53AF5F5F5F5F5E2F5F50FF50FF50FF53AF5F53AF53AF5F53AF5F5F5F5F5F5F5F5F5F5F5E2E2F5E2E2EFEFE2F5E2E2F5E2E2
310
E2E2E2E2E2E2E2E2E2E2E2E2E2E2E2E2E2E2E2E2E2E2E2E2E2E2E2E2E2E2F5F5F5F5F5F5F5F5F5F5F5F5F5F5F5F5F5F5F5F5F5F5F5F5F5F5F5F5F5F5F5F5F5F5F5F5F5F5F5F5F5F5F5F5F5F5F5F5F5F5F5F5F5F5F5F5F5F5F5F5F5F5F5F5F5F5F5F5F5F5F5F5F5F5F5F5F5F5F5F5F5F5F5F5E20FF5F5F50FF50FF5F53A3AF5
310
3AF5F53AF53AF5F5F5E2F50FF5F50FF50F0FF53A3A3AF53AF5F53AF5E2F5F5F5F5F5F5F5F5F5F5E2E2F5E2E2EFEFE2F5E2E2F5F5F5F5F5F5F5F5F5F5F5F5F5F5F5F5F5F5F5F5F5F5F5F5F5F5F5F5F5F5F5F5F5F5F5F5F5F5F5F5F5F5F5F5F5F5F5F5F5F5F5F5F5F5F5F5F5F5F5F5F5F5F5F5F5F5F5F5F5F5F5F5F5F5F5F5F5
310
F5F5F5F5F5F5F5F5F5F5F5F5F5F5F5F5F5F5F5F5F5F5F5F5F5F5F5F5F5F5F5F5F5F5F5F5F5F5F5E2F50F0FF5F5F50F0F0FF53A3A3A3A3A3A3A3AE2F5F5F5E2F5F50FF5F50FF50FF5F53A3A3A3A3A3A3A3A3AF5F5F5F5F5F5F5F5F5F5E2E2F5E2E2EFEFE2F5E2E2F5E2E2E2E2E2E2E2E2E2E2E2E2E2E2E2E2E2E2E2E2E2E2E2
310
E2E2E2E2E2E2F5F5F5F5F5F5F5F5F5F5F5F5F5F5F5F5F5F5F5F5F5F5F5F5F5F5F5F5F5F5F5F5F5F5F5F5F5F5F5F5F5F5F5F5F5F5F5F5F5F5F5F5F5F5F5F5F5F5F5F5F5F5F5F5F5F5F5F5F5F5F5F5F5F5F5F5F5F5F5F5F5F5F5F5F5F5E2F5F50F0FF5F5F50F0F0F0F0F0F0F0F0F0FF5F5E2F5F5E20FF5F50FF5F50FF50F0F0F
310
0F0F0F0F0F0FF5E2F5F5F5F5F5F5F5F5F5F5E2E2F5E2E2EFEFE2F5E2E2F5E2E2E2E2E2E2E2E2E2E2E2E2E2E2E2E2E2E2E2E2E2E2E2E2E2E2E2E2E2F5F5F5F5F5F5F5F5F5F5F5F5F5F5F5F5F5F5F5F5F5F5F5F5F5F5F5F5F5F5F5F5F5F5F5F5F5F5F5F5F5F5F5F5F5F5F5F5F5F5F5F5F5F5F5F5F5F5F5F5F5F5F5F5F5F5F5F5
310
F5F5F5F5F5F5F5F5F5F5F5F5F5F5F5F5F5F5E2F5F5F50F0FF5F5F50FF50FF5F50FF50F0FF5F5E2F5E2F5F50FF5F50FF5F50FF50FF5F50FF50FF50FF5E2F5F5F5F5F5F5F5F5F5F5E2E2F5E2E2EFEFE2F5E2E2F5E2E2E2E2E2E2E2E2E2E2E2E2E2E2E2E2E2E2E2E2E2E2E2E2E2E2E2E2E2F5F5F5F5F5F5F5F5F5F5F5F5F5F5F5
310
F5F5F5F5F5F5F5F5F5F5F5F5F5F5F5F5F5F5F5F5F5F5F5F5F5F5F5F5F5F5F5F5F5F5F5F5F5F5F5F5F5F5F5F5F5F5F5F5F5F5F5F5F5F5F5F5F5F5F5F5F5F5F5F5F5F5F5F5F5F5F5E20FF5F5F50F0FF5F5F50FF50FF5F50F0F0FF5F5E2F5E20FF5F50FF5F50FF5F50FF50FF5F50FF50F0FF5F5E2F5F5F5F5F5F5F5F5F5E2E2F5
310
E2E2EFEFE2F5F5E2F5E2E2E2E2E2E2E2E2E2E2E2E2E2E2E2E2E2E2E2E2E2E2E2E2E2E2E2E2E2E2E2E2E2E2E2E2E2E2E2E2E2E2E2E2E2E2E2E2E2E2E2E2E2E2E2E2E2E2E2F5F5F5F5F5F5F5F5F5F5F5F5F5F5F5F5F5F5F5F5F5F5F5F5F5F5F5F5F5F5F5F5F5F5F5F5F5F5F5F5F5F5F5F5F5F5F5F5F5F5F5F5F5F5F5F5E20F0F
310
F5F5F50F0F0FF5F50FF50FF5F50F0FF5F5E2F5E2F50FF5F50FF50FF5F5F50FF50FF5F50F0FF5F5E2F5F5F5F5F5F5F5F5F5F5E2F5F5E2E2EFEFE2F5F5E2F5E2E2E2E2E2E2E2E2E2E2E2E2E2E2E2E2E2E2E2E2E2E2E2E2E2E2E2E2E2E2E2E2E2E2E2E2E2E2E2E2E2E2E2E2E2E2E2E2E2E2E2E2E2E2E2E2E2E2E2F5F5F5F5F5F5
310
F5F5F5F5F5F5F5F5F5F5F5F5F5F5F5F5F5F5F5F5F5F5F5F5F5F5F5F5F5F5F5F5F5F5F5F5F5F5F5F5F5F5F5F5F5F5F5F5F5F5E2F50F0FF5F50FF5F50FF5F50FF50FF50FF5F5F5E2F5E20FF50FF5F50F0F0FF5F5F50FF50FF5F50FF5F5E2F5F5F5F5F5F5F5F5F5F5E2F5F5E2E2EFEFE2F5F5E2F5E2E2E2E2E2E2E2E2E2E2E2E2
310
E2E2E2E2E2E2E2E2E2E2E2E2E2E2E2E2E2E2E2E2E2E2E2E2E2E2E2E2E2E2E2E2E2E2E2E2E2E2E2E2E2E2E2E2E2E2E2F5F5F5F5F5F5F5F5F5F5F5F5F5F5F5F5F5F5F5F5F5F5F5F5F5F5F5F5F5F5F5F5F5F5F5F5F5F5F5F5F5F5F5F5F5F5F5F5F5F5F5F5F5F5F5F5E2F5F50F0FF5F50FF5F50FF5F50FF50F0FF5F5F5E2F5E2F5
310
0FF50FF5F5F50F0FF5F5F50FF50F0FF5F5F5E2F5F5F5F5F5F5F5F5F5F5E2F5F5E2E2EFEFE2F5F5E2F5E2E2E2E2E2E2E2E2E2E2E2E2E2E2E2E2E2E2E2E2E2E2E2E2E2E2E2E2E2E2E2E2E2E2E2E2E2E2E2E2E2E2E2E2E2E2E2E2E2E2E2E2E2E2E2E2E2E2E2F5F5F5F5F5F5F5F5F5F5F5F5F5F5F5F5F5F5F5F5F5F5F5F5F5F5F5
310
F5F5F5F5F5F5F5F5F5F5F5F5F5F5F5F5F5F5F5F5F5F5F5F5F5F5F5F5F5E2F5F50FF50FF5F50FF5F50FF5F50F0F0FF5F5E2F5F5F5E2F50FF50FF5F5F50F0FF5F5F50F0F0FF5F5F5E2F5F5F5F5F5F5F5F5F5F5E2F5F5E2E2EFEFE2F5F5E2F5E2E2E2E2E2E2E2E2E2E2E2E2E2E2E2E2E2E2E2E2E2E2E2E2E2E2E2E2E2E2E2E2E2
310
F5F5F5F5F5F5F5F5F5F5F5F5F5F5F5F5F5F5F5F5F5F5F5F5F5F5F5F5F5F5F5F5F5F5F5F5F5F5F5F5F5F5F5F5F5F5F5F5F5F5F5F5F5F5F5F5F5F5F5F5F5F5F5F5F5F5F5F5F5F5F5F5F5F5F5F5F5F5F5F5F5F5F5E2F5F50FF50FF5F50FF5F50FF50F0FF5F5F5E2F5F5F5E2F5F50FF50FF5F5F50F0FF5F50F0FF5F5F5F5E2F5F5
310
F5F5F5F5F5F5F5F5E2F5F5E2E2EFEFE2F5F5E2F5E2E2E2E2E2E2E2E2E2E2E2E2E2E2E2E2E2E2E2E2E2E2E2E2E2E2E2E2E2E2E2E2E2F5F5F5F5F5F5F5F5F5F5F5F5F5F5F5F5F5F5F5F5F5F5F5F5F5F5F5F5F5F5F5F5F5F5F5F5F5F5F5F5F5F5F5F5F5F5F5F5F5F5F5F5F5F5F5F5F5F5F5F5F5F5F5F5F5F5F5F5F5F5F5F5F5F5
310
F5F5F5F5F5F5F5F5F5E2E2F5F50FF50FF5F50FF5F50FF5F5F5F5E2E2F5F5F5F5E2F5F50FF50FF5F5F50F0FF50FF5F5F5F5E2F5F5F5F5F5F5F5F5F5F5F5E2F5F5E2E2EFEFE2F5F5E2F5E2E2E2E2E2E2E2E2E2E2E2E2E2E2E2E2E2E2E2E2E2E2E2E2E2E2E2E2E2E2E2E2E2F5F5F5F5F5F5F5F5F5F5F5F5F5F5F5F5F5F5F5F5F5
310
F5F5F5F5F5F5F5F5F5F5F5F5F5F5F5F5F5F5F5F5F5F5F5F5F5F5F5F5F5F5F5F5F5F5F5F5F5F5F5F5F5F5F5F5F5F5F5F5F5F5F5F5F5F5F5F5F5F5F5F5F5F5F50F0F0F0F0F0F0F0F0F0F0FF5F5F5F5E2F5F5F5F5F5F5F5E20F0F0F0F0F0F0F0F0F0FF5F5F5F5E2F5F5F5F5F5F5F5F5F5F5F5F5E2F5F5E2E2EFEFE2F5F5E2F5E2
310
E2E2E2E2E2E2E2E2E2E2E2E2E2E2E2E2E2E2E2E2E2E2E2E2E2E2E2E2E2E2E2E2F5F5F5F5F5F5F5F5F5F5F5F5F5F5F5F5F5F5F5F5F5F5F5F5F5F5F5F5F5F5F5F5F5F5F5F5F5F5F5F5F5F5F5F5F5F5F5F5F5F5F5F5F5F5F5F5F5F5F5F5F5F5F5F5F5F5F5F5F5F5F5F5F5F5F5F5F5F5F5F5F5F5F5F5F5E2F5F5F5F5F5F5F5F5F5
310
F5F5F5F5E2F5F5F5F5F5F5F5F5E2F5F5F5F5F5F5F5F5F5F5F5F5E2F5F5F5F5F5F5F5F5F5F5F5F5F5E2F5F5E2E2EFEFE2F5F5E2F5E2E2E2E2E2E2E2E2E2E2E2E2E2E2E2E2E2E2E2E2E2E2E2E2E2E2E2E2E2E2E2E2E2F5F5F5F5F5F5F5F5F5F5F5F5F5F5F5F5F5F5F5F5F5F5F5F5F5F5F5F5F5F5F5F5F5F5F5F5F5F5F5F5F5F5
310
F5F5F5F5F5F5F5F5F5F5F5F5F5F5F5F5F5F5F5F5F5F5F5F5F5F5F5F5F5F5F5F5F5F5F5F5F5F5F5F5F5F5F5F5E2E2F5F5F5F5F5F5F5F5F5E2E2F5F5F5F5F5F5F5F5F5E2E2F5F5F5F5F5F5F5F5F5E2E2F5F5F5F5F5F5F5F5F5F5F5F5F5F5E2F5F5E2E2EFEFE2F5E2E2F5E2E2E2E2E2E2E2E2E2E2E2E2E2E2E2E2E2E2E2E2E2E2
310
E2E2E2E2E2E2E2E2E2E2E2E2E2E2E2E2E2E2E2E2E2E2E2E2E2E2E2E2E2E2E2E2E2E2E2E2E2F5F5F5F5F5F5F5F5F5F5F5F5F5F5F5F5F5F5F5F5F5F5F5F5F5F5F5F5F5F5F5F5F5F5F5F5F5F5F5F5F5F5F5F5F5F5F5F5F5F5F5F5F5F5F5F5F5F5F5F5F5F5E2E2E2F5F5F5E2E2E2F5F5F5F5F5F5F5F5F5F5F5F5F5E2E2E2F5F5F5
310
F5E2E2E2F5F5F5F5F5F5F5F5F5F5F5F5F5F5F5E2E2F5E2E2EFEFE2F5E2E2F5E2E2E2E2E2E2E2E2E2E2E2E2E2E2E2E2E2E2E2E2E2E2E2E2E2E2E2E2E2E2E2E2E2E2E2E2E2E2E2E2E2E2E2E2E2E2E2E2E2E2E2E2E2E2E2E2E2E2E2F5F5F5F5F5F5F5F5F5F5F5F5F5F5F5F5F5F5F5F5F5F5F5F5F5F5F5F5F5F5F5F5F5F5F5F5F5
310
F5F5F5F5F5F5F5F5F5F5F5F5F5F5F5F5F5F5F5F5F5F5F5F5F5F5F5F5E2E2E2F5F5F5F5F5F5F5F5F5F5F5F5E2E2E2E2E2E2E2E2E2E2E2E2E2E2E2E2E2E2E2F5F5F5F5F5F5F5F5F5F5E2E2F5E2E2EFEFE2F5E2E2F5E2E2E2E2E2E2E2E2E2E2E2E2E2E2E2E2E2E2E2E2E2E2E2E2E2E2E2E2E2E2E2E2E2E2E2E2E2E2E2E2E2E2E2
310
E2E2E2E2E2E2E2E2E2E2E2E2E2E2E2E2F5F5F5F5F5F5F5F5F5F5F5F5F5F5F5F5F5F5F5F5F5F5F5F5F5F5F5F5F5F5F5F5F5F5F5F5F5F5F5F5F5F5F5F5F5F5F5F5F5F5F5F5F5F5F5F5F5F5E2E2E2E2E2E2E2E2E2E2E2E2E2E2E2E2E2E2F5F5F5F5E2E2E2E2E2E2E2E2E2F5E2E2E2E2E2E2E2E2E2F5F5F5F5F5F5F5F5F5F5E2E2
310
F5E2E2EFEFE2F5E2E2F5E2E2E2E2E2E2E2E2E2E2E2E2E2E2E2E2E2E2E2E2E2E2E2E2E2E2E2E2E2E2E2E2E2E2E2E2E2E2E2E2E2E2E2E2E2E2E2E2E2E2E2E2E2E2E2E2E2E2E2F5F5F5F5F5F5F5F5F5F5F5F5F5F5F5F5F5F5F5F5F5F5F5F5F5F5F5F5F5F5F5F5F5F5F5F5F5F5F5F5F5F5F5F5F5F5F5F5F5F5F5F5F5F5F5F5F5F5
310
E2E2E2E2E2E2E2E2E2E2E2E2E2E2E2E2E2E2F5F5F5E2E2E2E2E2E2E2E2E2E2F5E2E2E2E2E2E2E2E2E2F5F5F5F5F5F5F5F5F5F5E2E2F5E2E2EFEFE2F5E2E2F5E2E2E2E2E2E2E2E2E2E2E2E2E2E2E2E2E2E2E2E2E2E2E2E2E2E2E2E2E2E2E2E2E2E2E2E2E2E2E2E2E2E2E2E2E2E2E2E2E2E2E2E2E2E2E2E2E2E2E2F5F5F5F5F5
310
F5F5F5F5F5F5F5F5F5F5F5F5F5F5F5F5F5F5F5F5F5F5F5F5F5F5F5F5F5F5F5F5F5F5F5F5F5F5F5F5F5F5F5F5F5F5F5F5F5F5F5F5E2E2F5F5E2F5F5E2F5F5E2E2F5E2E2E2F5F5F5F5F5F5E2E2F5F5E2F5F5E2F5F5F5E2F5F5F5E2E2F5F5E2F5F5F5F5F5F5F5F5F5F5E2E2F5E2E2EFEFE2F5E2E2F5F5F5F5F5F5F5F5F5F5F5F5
310
F5F5F5F5F5F5F5F5F5F5F5F5F5F5F5F5F5F5F5F5F5F5F5F5F5F5F5F5F5F5F5F5F5F5F5F5F5F5F5F5F5F5F5F5F5F5F5F5F5F5F5F5F5F5F5F5F5F5F5F5F5F5F5F5F5F5F5F5F5F5F5F5F5F5F5F5F5F5F5F5F5F5F5F5F5F5F5F5F5F5F5F5F5F5F5F5F5F5F5F5F5F5F5F5F5F5F5F5F5F5F5F5F5F5F5F5F5F5F5F5F5F5F5F5F5F5F5
310
F5F5F5F5F5F5F5F5F5F5F5F5F5F5F5F5F5F5F5F5F5F5F5F5F5F5F5F5F5F5E2E2F5E2E2EFEFE2F5E2E2E2E2E2E2E2E2E2E2E2E2E2E2E2E2E2E2E2E2E2E2E2E2E2E2E2E2E2E2E2E2E2E2E2E2E2E2E2E2E2E2E2E2E2E2E2E2E2E2E2E2E2E2E2E2E2E2E2E2E2E2E2E2E2E2E2E2E2E2E2E2E2E2E2E2E2E2E2E2E2E2E2E2E2E2E2E2
310
E2E2E2E2E2E2E2E2E2E2E2E2E2E2E2E2E2E2E2E2E2E2E2E2E2E2E2E2E2E2E2E2E2E2E2E2E2E2E2E2E2E2E2E2E2E2E2E2E2E2E2E2E2E2E2E2E2E2E2E2E2E2E2E2E2E2E2E2E2E2E2E2E2E2E2E2E2E2E2E2E2E2E2E2E2F5E2E2EFEFE2F5E2E2E2E2E2E2E2E2F5F5F5F5F5F5F5F5F5E2E2E2E2E2E2E2E2E2E2E2E2E2E2E2E2F5F5
310
F5F5F5F5F5F5F5E2E2E2E2E2E2E2E2E2E2E2E2E2E2E2E2F5F5F5F5F5F5F5F5E2E2E2E2E2E2E2E2E2E2E2E2E2E2E2E2F5F5F5F5F5F5F5F5F5E2E2E2E2E2E2E2E2E2E2E2E2E2E2E2E2F5F5F5F5F5F5F5F5E2E2E2E2E2E2E2E2E2E2E2E2E2E2E2E2F5F5F5F5F5F5F5F5F5E2E2E2E2E2E2E2E2E2E2E2E2E2E2E2E2F5F5F5F5F5F5
310
F5F5F5E2E2E2E2E2E2E2E2F5E2E2EFEFE2F5F5F5F5F5F5F5F5F5F5F5F5F5F5F5F5F5F5F5F5F5F5F5F5F5F5F5F5F5F5F5F5F5F5F5F5F5F5F5F5F5F5F5F5F5F5F5F5F5F5F5F5F5F5F5F5F5F5F5F5F5F5F5F5F5F5F5F5F5F5F5F5F5F5F5F5F5F5F5F5F5F5F5F5F5F5F5F5F5F5F5F5F5F5F5F5F5F5F5F5F5F5F5F5F5F5F5F5F5F5
310
F5F5F5F5F5F5F5F5F5F5F5F5F5F5F5F5F5F5F5F5F5F5F5F5F5F5F5F5F5F5F5F5F5F5F5F5F5F5F5F5F5F5F5F5F5F5F5F5F5F5F5F5F5F5F5F5F5F5F5F5F5F5F5F5F5E2EFEFEFE2E2E2E2E2E2E2E2E2E2E2E2E2E2E2E2E2E2E2E2E2E2E2E2E2E2E2E2E2E2E2E2E2E2E2E2E2E2E2E2E2E2E2E2E2E2E2E2E2E2E2E2E2E2E2E2E2E2
310
E2E2E2E2E2E2E2E2E2E2E2E2E2E2E2E2E2E2E2E2E2E2E2E2E2E2E2E2E2E2E2E2E2E2E2E2E2E2E2E2E2E2E2E2E2E2E2E2E2E2E2E2E2E2E2E2E2E2E2E2E2E2E2E2E2E2E2E2E2E2E2E2E2E2E2E2E2E2E2E2E2E2E2E2E2E2E2E2E2E2E2E2E2E2E2E2E2E2E2E2E2E2E2E2E2E2E2E2E2E2E2E2E2E2E2E2E2E2E2EFEFEF
  0
XRECORD
  5
505C
102
{ACAD_REACTORS
330
505B
102
}
330
505B
100
AcDbXrecord
280
     1
102
SHADEPLOT
 70
     1
102
SHADEPLOTRESLEVEL
 70
     2
102
SHADEPLOTCUSTOMDPI
 70
   300
  0
XRECORD
  5
1E78
102
{ACAD_REACTORS
330
1E77
102
}
330
1E77
100
AcDbXrecord
280
     1
102
MATERIAL
148
0.0
149
0.0
149
0.0
 93
        0
 94
      127
282
     0
 72
     1
 77
     1
171
     1
175
     1
179
     1
273
     0
  0
XRECORD
  5
1E76
102
{ACAD_REACTORS
330
1E75
102
}
330
1E75
100
AcDbXrecord
280
     1
102
MATERIAL
148
0.0
149
0.0
149
0.0
 93
        0
 94
      127
282
     0
 72
     1
 77
     1
171
     1
175
     1
179
     1
273
     0
  0
XRECORD
  5
1E7A
102
{ACAD_REACTORS
330
1E79
102
}
330
1E79
100
AcDbXrecord
280
     1
102
MATERIAL
148
0.0
149
0.0
149
0.0
 93
        0
 94
      127
282
     0
 72
     1
 77
     1
171
     1
175
     1
179
     1
273
     0
  0
CELLSTYLEMAP
  5
5058
102
{ACAD_REACTORS
330
4FE9
102
}
330
4FE9
100
AcDbCellStyleMap
 90
        3
300
CELLSTYLE
  1
TABLEFORMAT_BEGIN
 90
        5
170
     1
 91
        0
 92
    32768
 62
   257
 93
        1
300
CONTENTFORMAT
  1
CONTENTFORMAT_BEGIN
 90
        0
 91
        0
 92
      512
 93
        0
300

 40
0.0
140
1.0
 94
        5
 62
     0
340
11
144
6.0
309
CONTENTFORMAT_END
171
     1
301
MARGIN
  1
CELLMARGIN_BEGIN
 40
1.5
 40
1.5
 40
1.5
 40
1.5
 40
0.18
 40
0.18
309
CELLMARGIN_END
 94
        6
 95
        1
302
GRIDFORMAT
  1
GRIDFORMAT_BEGIN
 90
        0
 91
        1
 62
     0
 92
       -2
340
0
 93
        0
 40
0.045
309
GRIDFORMAT_END
 95
        2
302
GRIDFORMAT
  1
GRIDFORMAT_BEGIN
 90
        0
 91
        1
 62
     0
 92
       -2
340
0
 93
        0
 40
0.045
309
GRIDFORMAT_END
 95
        4
302
GRIDFORMAT
  1
GRIDFORMAT_BEGIN
 90
        0
 91
        1
 62
     0
 92
       -2
340
0
 93
        0
 40
0.045
309
GRIDFORMAT_END
 95
        8
302
GRIDFORMAT
  1
GRIDFORMAT_BEGIN
 90
        0
 91
        1
 62
     0
 92
       -2
340
0
 93
        0
 40
0.045
309
GRIDFORMAT_END
 95
       16
302
GRIDFORMAT
  1
GRIDFORMAT_BEGIN
 90
        0
 91
        1
 62
     0
 92
       -2
340
0
 93
        0
 40
0.045
309
GRIDFORMAT_END
 95
       32
302
GRIDFORMAT
  1
GRIDFORMAT_BEGIN
 90
        0
 91
        1
 62
     0
 92
       -2
340
0
 93
        0
 40
0.045
309
GRIDFORMAT_END
309
TABLEFORMAT_END
  1
CELLSTYLE_BEGIN
 90
        1
 91
        1
300
_TITLE
309
CELLSTYLE_END
300
CELLSTYLE
  1
TABLEFORMAT_BEGIN
 90
        5
170
     1
 91
        0
 92
        0
 62
   257
 93
        1
300
CONTENTFORMAT
  1
CONTENTFORMAT_BEGIN
 90
        0
 91
        0
 92
      512
 93
        0
300

 40
0.0
140
1.0
 94
        5
 62
     0
340
11
144
4.5
309
CONTENTFORMAT_END
171
     1
301
MARGIN
  1
CELLMARGIN_BEGIN
 40
1.5
 40
1.5
 40
1.5
 40
1.5
 40
0.18
 40
0.18
309
CELLMARGIN_END
 94
        6
 95
        1
302
GRIDFORMAT
  1
GRIDFORMAT_BEGIN
 90
        0
 91
        1
 62
     0
 92
       -2
340
0
 93
        0
 40
0.045
309
GRIDFORMAT_END
 95
        2
302
GRIDFORMAT
  1
GRIDFORMAT_BEGIN
 90
        0
 91
        1
 62
     0
 92
       -2
340
0
 93
        0
 40
0.045
309
GRIDFORMAT_END
 95
        4
302
GRIDFORMAT
  1
GRIDFORMAT_BEGIN
 90
        0
 91
        1
 62
     0
 92
       -2
340
0
 93
        0
 40
0.045
309
GRIDFORMAT_END
 95
        8
302
GRIDFORMAT
  1
GRIDFORMAT_BEGIN
 90
        0
 91
        1
 62
     0
 92
       -2
340
0
 93
        0
 40
0.045
309
GRIDFORMAT_END
 95
       16
302
GRIDFORMAT
  1
GRIDFORMAT_BEGIN
 90
        0
 91
        1
 62
     0
 92
       -2
340
0
 93
        0
 40
0.045
309
GRIDFORMAT_END
 95
       32
302
GRIDFORMAT
  1
GRIDFORMAT_BEGIN
 90
        0
 91
        1
 62
     0
 92
       -2
340
0
 93
        0
 40
0.045
309
GRIDFORMAT_END
309
TABLEFORMAT_END
  1
CELLSTYLE_BEGIN
 90
        2
 91
        1
300
_HEADER
309
CELLSTYLE_END
300
CELLSTYLE
  1
TABLEFORMAT_BEGIN
 90
        5
170
     1
 91
        0
 92
        0
 62
   257
 93
        1
300
CONTENTFORMAT
  1
CONTENTFORMAT_BEGIN
 90
        0
 91
        0
 92
      512
 93
        0
300

 40
0.0
140
1.0
 94
        2
 62
     0
340
11
144
4.5
309
CONTENTFORMAT_END
171
     1
301
MARGIN
  1
CELLMARGIN_BEGIN
 40
1.5
 40
1.5
 40
1.5
 40
1.5
 40
0.18
 40
0.18
309
CELLMARGIN_END
 94
        6
 95
        1
302
GRIDFORMAT
  1
GRIDFORMAT_BEGIN
 90
        0
 91
        1
 62
     0
 92
       -2
340
0
 93
        0
 40
0.045
309
GRIDFORMAT_END
 95
        2
302
GRIDFORMAT
  1
GRIDFORMAT_BEGIN
 90
        0
 91
        1
 62
     0
 92
       -2
340
0
 93
        0
 40
0.045
309
GRIDFORMAT_END
 95
        4
302
GRIDFORMAT
  1
GRIDFORMAT_BEGIN
 90
        0
 91
        1
 62
     0
 92
       -2
340
0
 93
        0
 40
0.045
309
GRIDFORMAT_END
 95
        8
302
GRIDFORMAT
  1
GRIDFORMAT_BEGIN
 90
        0
 91
        1
 62
     0
 92
       -2
340
0
 93
        0
 40
0.045
309
GRIDFORMAT_END
 95
       16
302
GRIDFORMAT
  1
GRIDFORMAT_BEGIN
 90
        0
 91
        1
 62
     0
 92
       -2
340
0
 93
        0
 40
0.045
309
GRIDFORMAT_END
 95
       32
302
GRIDFORMAT
  1
GRIDFORMAT_BEGIN
 90
        0
 91
        1
 62
     0
 92
       -2
340
0
 93
        0
 40
0.045
309
GRIDFORMAT_END
309
TABLEFORMAT_END
  1
CELLSTYLE_BEGIN
 90
        3
 91
        2
300
_DATA
309
CELLSTYLE_END
  0
XRECORD
  5
505D
102
{ACAD_REACTORS
330
4FE9
102
}
330
4FE9
100
AcDbXrecord
280
     1
102
ACAD_ROUNDTRIP_PRE2007_TABLESTYLE
 90
      512
 91
        0
  1

 92
      512
 93
        0
  2

 94
      512
 95
        0
  3

  0
XRECORD
  5
506A
102
{ACAD_REACTORS
330
5069
102
}
330
5069
100
AcDbXrecord
280
     1
102
RTVSPropertyOp0
 70
     1
102
RTVSPropertyOp1
 70
     1
102
RTVSPropertyOp2
 70
     1
102
RTVSPropertyOp3
 70
     1
102
RTVSPropertyOp4
 70
     1
102
RTVSPropertyOp5
 70
     1
102
RTVSPropertyOp6
 70
     1
102
RTVSPropertyOp7
 70
     1
102
RTVSPropertyOp8
 70
     1
102
RTVSPropertyOp9
 70
     1
102
RTVSPropertyOp10
 70
     1
102
RTVSPropertyOp11
 70
     1
102
RTVSPropertyOp12
 70
     1
102
RTVSPropertyOp13
 70
     1
102
RTVSPropertyOp14
 70
     1
102
RTVSPropertyOp15
 70
     1
102
RTVSPropertyOp16
 70
     1
102
RTVSPropertyOp17
 70
     1
102
RTVSPropertyOp18
 70
     1
102
RTVSPropertyOp19
 70
     1
102
RTVSPropertyOp20
 70
     1
102
RTVSPropertyOp21
 70
     1
102
RTVSPropertyOp22
 70
     1
102
RTVSPropertyOp23
 70
     1
102
RTVSPropertyOp24
 70
     1
102
RTVSPropertyOp25
 70
     1
102
RTVSPropertyOp26
 70
     1
102
RTVSPropertyOp27
 70
     1
102
RTVSPropertyOp28
 70
     1
102
RTVSPropertyOp29
 70
     1
102
RTVSPropertyOp30
 70
     1
102
RTVSPropertyOp31
 70
     1
102
RTVSPropertyOp32
 70
     1
  0
XRECORD
  5
506E
102
{ACAD_REACTORS
330
506D
102
}
330
506D
100
AcDbXrecord
280
     1
102
RTVSPropertyOp0
 70
     1
102
RTVSPropertyOp1
 70
     1
102
RTVSPropertyOp2
 70
     1
102
RTVSPropertyOp3
 70
     1
102
RTVSPropertyOp4
 70
     1
102
RTVSPropertyOp5
 70
     1
102
RTVSPropertyOp6
 70
     1
102
RTVSPropertyOp7
 70
     1
102
RTVSPropertyOp8
 70
     1
102
RTVSPropertyOp9
 70
     1
102
RTVSPropertyOp10
 70
     1
102
RTVSPropertyOp11
 70
     1
102
RTVSPropertyOp12
 70
     1
102
RTVSPropertyOp13
 70
     1
102
RTVSPropertyOp14
 70
     1
102
RTVSPropertyOp15
 70
     1
102
RTVSPropertyOp16
 70
     1
102
RTVSPropertyOp17
 70
     1
102
RTVSPropertyOp18
 70
     1
102
RTVSPropertyOp19
 70
     1
102
RTVSPropertyOp20
 70
     1
102
RTVSPropertyOp21
 70
     1
102
RTVSPropertyOp22
 70
     1
102
RTVSPropertyOp23
 70
     1
102
RTVSPropertyOp24
 70
     1
102
RTVSPropertyOp25
 70
     1
102
RTVSPropertyOp26
 70
     1
102
RTVSPropertyOp27
 70
     1
102
RTVSPropertyOp28
 70
     1
102
RTVSPropertyOp29
 70
     1
102
RTVSPropertyOp30
 70
     1
102
RTVSPropertyOp31
 70
     1
102
RTVSPropertyOp32
 70
     1
  0
XRECORD
  5
506C
102
{ACAD_REACTORS
330
506B
102
}
330
506B
100
AcDbXrecord
280
     1
102
RTVSPropertyOp0
 70
     1
102
RTVSPropertyOp1
 70
     1
102
RTVSPropertyOp2
 70
     1
102
RTVSPropertyOp3
 70
     1
102
RTVSPropertyOp4
 70
     1
102
RTVSPropertyOp5
 70
     1
102
RTVSPropertyOp6
 70
     1
102
RTVSPropertyOp7
 70
     1
102
RTVSPropertyOp8
 70
     1
102
RTVSPropertyOp9
 70
     1
102
RTVSPropertyOp10
 70
     1
102
RTVSPropertyOp11
 70
     1
102
RTVSPropertyOp12
 70
     1
102
RTVSPropertyOp13
 70
     1
102
RTVSPropertyOp14
 70
     1
102
RTVSPropertyOp15
 70
     1
102
RTVSPropertyOp16
 70
     1
102
RTVSPropertyOp17
 70
     1
102
RTVSPropertyOp18
 70
     1
102
RTVSPropertyOp19
 70
     1
102
RTVSPropertyOp20
 70
     1
102
RTVSPropertyOp21
 70
     1
102
RTVSPropertyOp22
 70
     1
102
RTVSPropertyOp23
 70
     1
102
RTVSPropertyOp24
 70
     1
102
RTVSPropertyOp25
 70
     1
102
RTVSPropertyOp26
 70
     1
102
RTVSPropertyOp27
 70
     1
102
RTVSPropertyOp28
 70
     1
102
RTVSPropertyOp29
 70
     1
102
RTVSPropertyOp30
 70
     1
102
RTVSPropertyOp31
 70
     1
102
RTVSPropertyOp32
 70
     1
  0
XRECORD
  5
5068
102
{ACAD_REACTORS
330
5067
102
}
330
5067
100
AcDbXrecord
280
     1
102
RTVSPropertyOp0
 70
     1
102
RTVSPropertyOp1
 70
     1
102
RTVSPropertyOp2
 70
     1
102
RTVSPropertyOp3
 70
     1
102
RTVSPropertyOp4
 70
     1
102
RTVSPropertyOp5
 70
     1
102
RTVSPropertyOp6
 70
     1
102
RTVSPropertyOp7
 70
     1
102
RTVSPropertyOp8
 70
     1
102
RTVSPropertyOp9
 70
     1
102
RTVSPropertyOp10
 70
     1
102
RTVSPropertyOp11
 70
     1
102
RTVSPropertyOp12
 70
     1
102
RTVSPropertyOp13
 70
     1
102
RTVSPropertyOp14
 70
     1
102
RTVSPropertyOp15
 70
     1
102
RTVSPropertyOp16
 70
     1
102
RTVSPropertyOp17
 70
     1
102
RTVSPropertyOp18
 70
     1
102
RTVSPropertyOp19
 70
     1
102
RTVSPropertyOp20
 70
     1
102
RTVSPropertyOp21
 70
     1
102
RTVSPropertyOp22
 70
     1
102
RTVSPropertyOp23
 70
     1
102
RTVSPropertyOp24
 70
     1
102
RTVSPropertyOp25
 70
     1
102
RTVSPropertyOp26
 70
     1
102
RTVSPropertyOp27
 70
     1
102
RTVSPropertyOp28
 70
     1
102
RTVSPropertyOp29
 70
     1
102
RTVSPropertyOp30
 70
     1
102
RTVSPropertyOp31
 70
     1
102
RTVSPropertyOp32
 70
     1
  0
XRECORD
  5
5076
102
{ACAD_REACTORS
330
5075
102
}
330
5075
100
AcDbXrecord
280
     1
102
RTVSPropertyOp0
 70
     1
102
RTVSPropertyOp1
 70
     1
102
RTVSPropertyOp2
 70
     1
102
RTVSPropertyOp3
 70
     1
102
RTVSPropertyOp4
 70
     1
102
RTVSPropertyOp5
 70
     1
102
RTVSPropertyOp6
 70
     1
102
RTVSPropertyOp7
 70
     1
102
RTVSPropertyOp8
 70
     1
102
RTVSPropertyOp9
 70
     1
102
RTVSPropertyOp10
 70
     1
102
RTVSPropertyOp11
 70
     1
102
RTVSPropertyOp12
 70
     1
102
RTVSPropertyOp13
 70
     1
102
RTVSPropertyOp14
 70
     1
102
RTVSPropertyOp15
 70
     1
102
RTVSPropertyOp16
 70
     1
102
RTVSPropertyOp17
 70
     1
102
RTVSPropertyOp18
 70
     1
102
RTVSPropertyOp19
 70
     1
102
RTVSPropertyOp20
 70
     1
102
RTVSPropertyOp21
 70
     1
102
RTVSPropertyOp22
 70
     1
102
RTVSPropertyOp23
 70
     1
102
RTVSPropertyOp24
 70
     1
102
RTVSPropertyOp25
 70
     1
102
RTVSPropertyOp26
 70
     1
102
RTVSPropertyOp27
 70
     1
102
RTVSPropertyOp28
 70
     1
102
RTVSPropertyOp29
 70
     1
102
RTVSPropertyOp30
 70
     1
102
RTVSPropertyOp31
 70
     1
102
RTVSPropertyOp32
 70
     1
  0
XRECORD
  5
507E
102
{ACAD_REACTORS
330
507D
102
}
330
507D
100
AcDbXrecord
280
     1
102
RTVSPropertyOp0
 70
     1
102
RTVSPropertyOp1
 70
     1
102
RTVSPropertyOp2
 70
     1
102
RTVSPropertyOp3
 70
     1
102
RTVSPropertyOp4
 70
     1
102
RTVSPropertyOp5
 70
     1
102
RTVSPropertyOp6
 70
     1
102
RTVSPropertyOp7
 70
     1
102
RTVSPropertyOp8
 70
     1
102
RTVSPropertyOp9
 70
     1
102
RTVSPropertyOp10
 70
     1
102
RTVSPropertyOp11
 70
     1
102
RTVSPropertyOp12
 70
     1
102
RTVSPropertyOp13
 70
     1
102
RTVSPropertyOp14
 70
     1
102
RTVSPropertyOp15
 70
     1
102
RTVSPropertyOp16
 70
     1
102
RTVSPropertyOp17
 70
     1
102
RTVSPropertyOp18
 70
     1
102
RTVSPropertyOp19
 70
     1
102
RTVSPropertyOp20
 70
     1
102
RTVSPropertyOp21
 70
     1
102
RTVSPropertyOp22
 70
     1
102
RTVSPropertyOp23
 70
     1
102
RTVSPropertyOp24
 70
     1
102
RTVSPropertyOp25
 70
     1
102
RTVSPropertyOp26
 70
     1
102
RTVSPropertyOp27
 70
     1
102
RTVSPropertyOp28
 70
     1
102
RTVSPropertyOp29
 70
     1
102
RTVSPropertyOp30
 70
     1
102
RTVSPropertyOp31
 70
     1
102
RTVSPropertyOp32
 70
     1
  0
XRECORD
  5
5070
102
{ACAD_REACTORS
330
506F
102
}
330
506F
100
AcDbXrecord
280
     1
102
RTVSPropertyOp0
 70
     1
102
RTVSPropertyOp1
 70
     1
102
RTVSPropertyOp2
 70
     1
102
RTVSPropertyOp3
 70
     1
102
RTVSPropertyOp4
 70
     1
102
RTVSPropertyOp5
 70
     1
102
RTVSPropertyOp6
 70
     1
102
RTVSPropertyOp7
 70
     1
102
RTVSPropertyOp8
 70
     1
102
RTVSPropertyOp9
 70
     1
102
RTVSPropertyOp10
 70
     1
102
RTVSPropertyOp11
 70
     1
102
RTVSPropertyOp12
 70
     1
102
RTVSPropertyOp13
 70
     1
102
RTVSPropertyOp14
 70
     1
102
RTVSPropertyOp15
 70
     1
102
RTVSPropertyOp16
 70
     1
102
RTVSPropertyOp17
 70
     1
102
RTVSPropertyOp18
 70
     1
102
RTVSPropertyOp19
 70
     1
102
RTVSPropertyOp20
 70
     1
102
RTVSPropertyOp21
 70
     1
102
RTVSPropertyOp22
 70
     1
102
RTVSPropertyOp23
 70
     1
102
RTVSPropertyOp24
 70
     1
102
RTVSPropertyOp25
 70
     1
102
RTVSPropertyOp26
 70
     1
102
RTVSPropertyOp27
 70
     1
102
RTVSPropertyOp28
 70
     1
102
RTVSPropertyOp29
 70
     1
102
RTVSPropertyOp30
 70
     1
102
RTVSPropertyOp31
 70
     1
102
RTVSPropertyOp32
 70
     1
  0
XRECORD
  5
5074
102
{ACAD_REACTORS
330
5073
102
}
330
5073
100
AcDbXrecord
280
     1
102
RTVSPropertyOp0
 70
     1
102
RTVSPropertyOp1
 70
     1
102
RTVSPropertyOp2
 70
     1
102
RTVSPropertyOp3
 70
     1
102
RTVSPropertyOp4
 70
     1
102
RTVSPropertyOp5
 70
     1
102
RTVSPropertyOp6
 70
     1
102
RTVSPropertyOp7
 70
     1
102
RTVSPropertyOp8
 70
     1
102
RTVSPropertyOp9
 70
     1
102
RTVSPropertyOp10
 70
     1
102
RTVSPropertyOp11
 70
     1
102
RTVSPropertyOp12
 70
     1
102
RTVSPropertyOp13
 70
     1
102
RTVSPropertyOp14
 70
     1
102
RTVSPropertyOp15
 70
     1
102
RTVSPropertyOp16
 70
     1
102
RTVSPropertyOp17
 70
     1
102
RTVSPropertyOp18
 70
     1
102
RTVSPropertyOp19
 70
     1
102
RTVSPropertyOp20
 70
     1
102
RTVSPropertyOp21
 70
     1
102
RTVSPropertyOp22
 70
     1
102
RTVSPropertyOp23
 70
     1
102
RTVSPropertyOp24
 70
     1
102
RTVSPropertyOp25
 70
     1
102
RTVSPropertyOp26
 70
     1
102
RTVSPropertyOp27
 70
     1
102
RTVSPropertyOp28
 70
     1
102
RTVSPropertyOp29
 70
     1
102
RTVSPropertyOp30
 70
     1
102
RTVSPropertyOp31
 70
     1
102
RTVSPropertyOp32
 70
     1
  0
XRECORD
  5
509A
102
{ACAD_REACTORS
330
5099
102
}
330
5099
100
AcDbXrecord
280
     1
102
RTVSPropertyOp0
 70
     0
102
RTVSPropertyOp1
 70
     0
102
RTVSPropertyOp2
 70
     0
102
RTVSPropertyOp3
 70
     0
102
RTVSPropertyOp4
 70
     0
102
RTVSPropertyOp5
 70
     0
102
RTVSPropertyOp6
 70
     0
102
RTVSPropertyOp7
 70
     0
102
RTVSPropertyOp8
 70
     0
102
RTVSPropertyOp9
 70
     0
102
RTVSPropertyOp10
 70
     0
102
RTVSPropertyOp11
 70
     0
102
RTVSPropertyOp12
 70
     0
102
RTVSPropertyOp13
 70
     0
102
RTVSPropertyOp14
 70
     2
102
RTVSPropertyOp15
 70
     0
102
RTVSPropertyOp16
 70
     0
102
RTVSPropertyOp17
 70
     0
102
RTVSPropertyOp18
 70
     0
102
RTVSPropertyOp19
 70
     0
102
RTVSPropertyOp20
 70
     0
102
RTVSPropertyOp21
 70
     0
102
RTVSPropertyOp22
 70
     0
102
RTVSPropertyOp23
 70
     0
102
RTVSPropertyOp24
 70
     0
102
RTVSPropertyOp25
 70
     0
102
RTVSPropertyOp26
 70
     0
102
RTVSPropertyOp27
 70
     0
102
RTVSPropertyOp28
 70
     0
102
RTVSPropertyOp29
 70
     0
102
RTVSPropertyOp30
 70
     0
102
RTVSPropertyOp31
 70
     0
102
RTVSPropertyOp32
 70
     0
  0
XRECORD
  5
507C
102
{ACAD_REACTORS
330
507B
102
}
330
507B
100
AcDbXrecord
280
     1
102
RTVSPropertyOp0
 70
     1
102
RTVSPropertyOp1
 70
     1
102
RTVSPropertyOp2
 70
     1
102
RTVSPropertyOp3
 70
     1
102
RTVSPropertyOp4
 70
     1
102
RTVSPropertyOp5
 70
     1
102
RTVSPropertyOp6
 70
     1
102
RTVSPropertyOp7
 70
     1
102
RTVSPropertyOp8
 70
     1
102
RTVSPropertyOp9
 70
     1
102
RTVSPropertyOp10
 70
     1
102
RTVSPropertyOp11
 70
     1
102
RTVSPropertyOp12
 70
     1
102
RTVSPropertyOp13
 70
     1
102
RTVSPropertyOp14
 70
     1
102
RTVSPropertyOp15
 70
     1
102
RTVSPropertyOp16
 70
     1
102
RTVSPropertyOp17
 70
     1
102
RTVSPropertyOp18
 70
     1
102
RTVSPropertyOp19
 70
     1
102
RTVSPropertyOp20
 70
     1
102
RTVSPropertyOp21
 70
     1
102
RTVSPropertyOp22
 70
     1
102
RTVSPropertyOp23
 70
     1
102
RTVSPropertyOp24
 70
     1
102
RTVSPropertyOp25
 70
     1
102
RTVSPropertyOp26
 70
     1
102
RTVSPropertyOp27
 70
     1
102
RTVSPropertyOp28
 70
     1
102
RTVSPropertyOp29
 70
     1
102
RTVSPropertyOp30
 70
     1
102
RTVSPropertyOp31
 70
     1
102
RTVSPropertyOp32
 70
     1
  0
XRECORD
  5
5060
102
{ACAD_REACTORS
330
505F
102
}
330
505F
100
AcDbXrecord
280
     1
102
RTVSPropertyOp0
 70
     1
102
RTVSPropertyOp1
 70
     1
102
RTVSPropertyOp2
 70
     1
102
RTVSPropertyOp3
 70
     1
102
RTVSPropertyOp4
 70
     1
102
RTVSPropertyOp5
 70
     1
102
RTVSPropertyOp6
 70
     1
102
RTVSPropertyOp7
 70
     1
102
RTVSPropertyOp8
 70
     1
102
RTVSPropertyOp9
 70
     1
102
RTVSPropertyOp10
 70
     1
102
RTVSPropertyOp11
 70
     1
102
RTVSPropertyOp12
 70
     1
102
RTVSPropertyOp13
 70
     1
102
RTVSPropertyOp14
 70
     1
102
RTVSPropertyOp15
 70
     1
102
RTVSPropertyOp16
 70
     1
102
RTVSPropertyOp17
 70
     1
102
RTVSPropertyOp18
 70
     1
102
RTVSPropertyOp19
 70
     1
102
RTVSPropertyOp20
 70
     1
102
RTVSPropertyOp21
 70
     1
102
RTVSPropertyOp22
 70
     1
102
RTVSPropertyOp23
 70
     1
102
RTVSPropertyOp24
 70
     1
102
RTVSPropertyOp25
 70
     1
102
RTVSPropertyOp26
 70
     1
102
RTVSPropertyOp27
 70
     1
102
RTVSPropertyOp28
 70
     1
102
RTVSPropertyOp29
 70
     1
102
RTVSPropertyOp30
 70
     1
102
RTVSPropertyOp31
 70
     1
102
RTVSPropertyOp32
 70
     1
  0
XRECORD
  5
5062
102
{ACAD_REACTORS
330
5061
102
}
330
5061
100
AcDbXrecord
280
     1
102
RTVSPropertyOp0
 70
     1
102
RTVSPropertyOp1
 70
     1
102
RTVSPropertyOp2
 70
     1
102
RTVSPropertyOp3
 70
     1
102
RTVSPropertyOp4
 70
     1
102
RTVSPropertyOp5
 70
     1
102
RTVSPropertyOp6
 70
     1
102
RTVSPropertyOp7
 70
     1
102
RTVSPropertyOp8
 70
     1
102
RTVSPropertyOp9
 70
     1
102
RTVSPropertyOp10
 70
     1
102
RTVSPropertyOp11
 70
     1
102
RTVSPropertyOp12
 70
     1
102
RTVSPropertyOp13
 70
     1
102
RTVSPropertyOp14
 70
     1
102
RTVSPropertyOp15
 70
     1
102
RTVSPropertyOp16
 70
     1
102
RTVSPropertyOp17
 70
     1
102
RTVSPropertyOp18
 70
     1
102
RTVSPropertyOp19
 70
     1
102
RTVSPropertyOp20
 70
     1
102
RTVSPropertyOp21
 70
     1
102
RTVSPropertyOp22
 70
     1
102
RTVSPropertyOp23
 70
     1
102
RTVSPropertyOp24
 70
     1
102
RTVSPropertyOp25
 70
     1
102
RTVSPropertyOp26
 70
     1
102
RTVSPropertyOp27
 70
     1
102
RTVSPropertyOp28
 70
     1
102
RTVSPropertyOp29
 70
     1
102
RTVSPropertyOp30
 70
     1
102
RTVSPropertyOp31
 70
     1
102
RTVSPropertyOp32
 70
     1
  0
XRECORD
  5
5064
102
{ACAD_REACTORS
330
5063
102
}
330
5063
100
AcDbXrecord
280
     1
102
RTVSPropertyOp0
 70
     1
102
RTVSPropertyOp1
 70
     1
102
RTVSPropertyOp2
 70
     1
102
RTVSPropertyOp3
 70
     1
102
RTVSPropertyOp4
 70
     1
102
RTVSPropertyOp5
 70
     1
102
RTVSPropertyOp6
 70
     1
102
RTVSPropertyOp7
 70
     1
102
RTVSPropertyOp8
 70
     1
102
RTVSPropertyOp9
 70
     1
102
RTVSPropertyOp10
 70
     1
102
RTVSPropertyOp11
 70
     1
102
RTVSPropertyOp12
 70
     1
102
RTVSPropertyOp13
 70
     1
102
RTVSPropertyOp14
 70
     1
102
RTVSPropertyOp15
 70
     1
102
RTVSPropertyOp16
 70
     1
102
RTVSPropertyOp17
 70
     1
102
RTVSPropertyOp18
 70
     1
102
RTVSPropertyOp19
 70
     1
102
RTVSPropertyOp20
 70
     1
102
RTVSPropertyOp21
 70
     1
102
RTVSPropertyOp22
 70
     1
102
RTVSPropertyOp23
 70
     1
102
RTVSPropertyOp24
 70
     1
102
RTVSPropertyOp25
 70
     1
102
RTVSPropertyOp26
 70
     1
102
RTVSPropertyOp27
 70
     1
102
RTVSPropertyOp28
 70
     1
102
RTVSPropertyOp29
 70
     1
102
RTVSPropertyOp30
 70
     1
102
RTVSPropertyOp31
 70
     1
102
RTVSPropertyOp32
 70
     1
  0
XRECORD
  5
5066
102
{ACAD_REACTORS
330
5065
102
}
330
5065
100
AcDbXrecord
280
     1
102
RTVSPropertyOp0
 70
     1
102
RTVSPropertyOp1
 70
     1
102
RTVSPropertyOp2
 70
     1
102
RTVSPropertyOp3
 70
     1
102
RTVSPropertyOp4
 70
     1
102
RTVSPropertyOp5
 70
     1
102
RTVSPropertyOp6
 70
     1
102
RTVSPropertyOp7
 70
     1
102
RTVSPropertyOp8
 70
     1
102
RTVSPropertyOp9
 70
     1
102
RTVSPropertyOp10
 70
     1
102
RTVSPropertyOp11
 70
     1
102
RTVSPropertyOp12
 70
     1
102
RTVSPropertyOp13
 70
     1
102
RTVSPropertyOp14
 70
     1
102
RTVSPropertyOp15
 70
     1
102
RTVSPropertyOp16
 70
     1
102
RTVSPropertyOp17
 70
     1
102
RTVSPropertyOp18
 70
     1
102
RTVSPropertyOp19
 70
     1
102
RTVSPropertyOp20
 70
     1
102
RTVSPropertyOp21
 70
     1
102
RTVSPropertyOp22
 70
     1
102
RTVSPropertyOp23
 70
     1
102
RTVSPropertyOp24
 70
     1
102
RTVSPropertyOp25
 70
     1
102
RTVSPropertyOp26
 70
     1
102
RTVSPropertyOp27
 70
     1
102
RTVSPropertyOp28
 70
     1
102
RTVSPropertyOp29
 70
     1
102
RTVSPropertyOp30
 70
     1
102
RTVSPropertyOp31
 70
     1
102
RTVSPropertyOp32
 70
     1
  0
XRECORD
  5
508A
102
{ACAD_REACTORS
330
5089
102
}
330
5089
100
AcDbXrecord
280
     1
102
RTVSPropertyOp0
 70
     1
102
RTVSPropertyOp1
 70
     1
102
RTVSPropertyOp2
 70
     1
102
RTVSPropertyOp3
 70
     1
102
RTVSPropertyOp4
 70
     1
102
RTVSPropertyOp5
 70
     1
102
RTVSPropertyOp6
 70
     1
102
RTVSPropertyOp7
 70
     1
102
RTVSPropertyOp8
 70
     1
102
RTVSPropertyOp9
 70
     1
102
RTVSPropertyOp10
 70
     1
102
RTVSPropertyOp11
 70
     1
102
RTVSPropertyOp12
 70
     1
102
RTVSPropertyOp13
 70
     1
102
RTVSPropertyOp14
 70
     1
102
RTVSPropertyOp15
 70
     1
102
RTVSPropertyOp16
 70
     1
102
RTVSPropertyOp17
 70
     1
102
RTVSPropertyOp18
 70
     1
102
RTVSPropertyOp19
 70
     1
102
RTVSPropertyOp20
 70
     1
102
RTVSPropertyOp21
 70
     1
102
RTVSPropertyOp22
 70
     1
102
RTVSPropertyOp23
 70
     1
102
RTVSPropertyOp24
 70
     1
102
RTVSPropertyOp25
 70
     1
102
RTVSPropertyOp26
 70
     1
102
RTVSPropertyOp27
 70
     1
102
RTVSPropertyOp28
 70
     1
102
RTVSPropertyOp29
 70
     1
102
RTVSPropertyOp30
 70
     1
102
RTVSPropertyOp31
 70
     1
102
RTVSPropertyOp32
 70
     1
  0
XRECORD
  5
5096
102
{ACAD_REACTORS
330
5095
102
}
330
5095
100
AcDbXrecord
280
     1
102
RTVSPropertyOp0
 70
     0
102
RTVSPropertyOp1
 70
     0
102
RTVSPropertyOp2
 70
     0
102
RTVSPropertyOp3
 70
     0
102
RTVSPropertyOp4
 70
     0
102
RTVSPropertyOp5
 70
     0
102
RTVSPropertyOp6
 70
     0
102
RTVSPropertyOp7
 70
     0
102
RTVSPropertyOp8
 70
     0
102
RTVSPropertyOp9
 70
     0
102
RTVSPropertyOp10
 70
     0
102
RTVSPropertyOp11
 70
     0
102
RTVSPropertyOp12
 70
     0
102
RTVSPropertyOp13
 70
     0
102
RTVSPropertyOp14
 70
     2
102
RTVSPropertyOp15
 70
     0
102
RTVSPropertyOp16
 70
     0
102
RTVSPropertyOp17
 70
     0
102
RTVSPropertyOp18
 70
     0
102
RTVSPropertyOp19
 70
     0
102
RTVSPropertyOp20
 70
     0
102
RTVSPropertyOp21
 70
     0
102
RTVSPropertyOp22
 70
     0
102
RTVSPropertyOp23
 70
     0
102
RTVSPropertyOp24
 70
     0
102
RTVSPropertyOp25
 70
     0
102
RTVSPropertyOp26
 70
     0
102
RTVSPropertyOp27
 70
     0
102
RTVSPropertyOp28
 70
     0
102
RTVSPropertyOp29
 70
     0
102
RTVSPropertyOp30
 70
     0
102
RTVSPropertyOp31
 70
     0
102
RTVSPropertyOp32
 70
     0
  0
XRECORD
  5
507A
102
{ACAD_REACTORS
330
5079
102
}
330
5079
100
AcDbXrecord
280
     1
102
RTVSPropertyOp0
 70
     1
102
RTVSPropertyOp1
 70
     1
102
RTVSPropertyOp2
 70
     1
102
RTVSPropertyOp3
 70
     1
102
RTVSPropertyOp4
 70
     1
102
RTVSPropertyOp5
 70
     1
102
RTVSPropertyOp6
 70
     1
102
RTVSPropertyOp7
 70
     1
102
RTVSPropertyOp8
 70
     1
102
RTVSPropertyOp9
 70
     1
102
RTVSPropertyOp10
 70
     1
102
RTVSPropertyOp11
 70
     1
102
RTVSPropertyOp12
 70
     1
102
RTVSPropertyOp13
 70
     1
102
RTVSPropertyOp14
 70
     1
102
RTVSPropertyOp15
 70
     1
102
RTVSPropertyOp16
 70
     1
102
RTVSPropertyOp17
 70
     1
102
RTVSPropertyOp18
 70
     1
102
RTVSPropertyOp19
 70
     1
102
RTVSPropertyOp20
 70
     1
102
RTVSPropertyOp21
 70
     1
102
RTVSPropertyOp22
 70
     1
102
RTVSPropertyOp23
 70
     1
102
RTVSPropertyOp24
 70
     1
102
RTVSPropertyOp25
 70
     1
102
RTVSPropertyOp26
 70
     1
102
RTVSPropertyOp27
 70
     1
102
RTVSPropertyOp28
 70
     1
102
RTVSPropertyOp29
 70
     1
102
RTVSPropertyOp30
 70
     1
102
RTVSPropertyOp31
 70
     1
102
RTVSPropertyOp32
 70
     1
  0
XRECORD
  5
5098
102
{ACAD_REACTORS
330
5097
102
}
330
5097
100
AcDbXrecord
280
     1
102
RTVSPropertyOp0
 70
     0
102
RTVSPropertyOp1
 70
     0
102
RTVSPropertyOp2
 70
     0
102
RTVSPropertyOp3
 70
     0
102
RTVSPropertyOp4
 70
     0
102
RTVSPropertyOp5
 70
     0
102
RTVSPropertyOp6
 70
     0
102
RTVSPropertyOp7
 70
     0
102
RTVSPropertyOp8
 70
     0
102
RTVSPropertyOp9
 70
     0
102
RTVSPropertyOp10
 70
     0
102
RTVSPropertyOp11
 70
     0
102
RTVSPropertyOp12
 70
     0
102
RTVSPropertyOp13
 70
     0
102
RTVSPropertyOp14
 70
     2
102
RTVSPropertyOp15
 70
     0
102
RTVSPropertyOp16
 70
     0
102
RTVSPropertyOp17
 70
     0
102
RTVSPropertyOp18
 70
     0
102
RTVSPropertyOp19
 70
     0
102
RTVSPropertyOp20
 70
     0
102
RTVSPropertyOp21
 70
     0
102
RTVSPropertyOp22
 70
     0
102
RTVSPropertyOp23
 70
     0
102
RTVSPropertyOp24
 70
     0
102
RTVSPropertyOp25
 70
     0
102
RTVSPropertyOp26
 70
     0
102
RTVSPropertyOp27
 70
     0
102
RTVSPropertyOp28
 70
     0
102
RTVSPropertyOp29
 70
     0
102
RTVSPropertyOp30
 70
     0
102
RTVSPropertyOp31
 70
     0
102
RTVSPropertyOp32
 70
     0
  0
XRECORD
  5
5072
102
{ACAD_REACTORS
330
5071
102
}
330
5071
100
AcDbXrecord
280
     1
102
RTVSPropertyOp0
 70
     1
102
RTVSPropertyOp1
 70
     1
102
RTVSPropertyOp2
 70
     1
102
RTVSPropertyOp3
 70
     1
102
RTVSPropertyOp4
 70
     1
102
RTVSPropertyOp5
 70
     1
102
RTVSPropertyOp6
 70
     1
102
RTVSPropertyOp7
 70
     1
102
RTVSPropertyOp8
 70
     1
102
RTVSPropertyOp9
 70
     1
102
RTVSPropertyOp10
 70
     1
102
RTVSPropertyOp11
 70
     1
102
RTVSPropertyOp12
 70
     1
102
RTVSPropertyOp13
 70
     1
102
RTVSPropertyOp14
 70
     1
102
RTVSPropertyOp15
 70
     1
102
RTVSPropertyOp16
 70
     1
102
RTVSPropertyOp17
 70
     1
102
RTVSPropertyOp18
 70
     1
102
RTVSPropertyOp19
 70
     1
102
RTVSPropertyOp20
 70
     1
102
RTVSPropertyOp21
 70
     1
102
RTVSPropertyOp22
 70
     1
102
RTVSPropertyOp23
 70
     1
102
RTVSPropertyOp24
 70
     1
102
RTVSPropertyOp25
 70
     1
102
RTVSPropertyOp26
 70
     1
102
RTVSPropertyOp27
 70
     1
102
RTVSPropertyOp28
 70
     1
102
RTVSPropertyOp29
 70
     1
102
RTVSPropertyOp30
 70
     1
102
RTVSPropertyOp31
 70
     1
102
RTVSPropertyOp32
 70
     1
  0
XRECORD
  5
5094
102
{ACAD_REACTORS
330
5093
102
}
330
5093
100
AcDbXrecord
280
     1
102
RTVSPropertyOp0
 70
     1
102
RTVSPropertyOp1
 70
     1
102
RTVSPropertyOp2
 70
     1
102
RTVSPropertyOp3
 70
     1
102
RTVSPropertyOp4
 70
     1
102
RTVSPropertyOp5
 70
     1
102
RTVSPropertyOp6
 70
     1
102
RTVSPropertyOp7
 70
     1
102
RTVSPropertyOp8
 70
     1
102
RTVSPropertyOp9
 70
     1
102
RTVSPropertyOp10
 70
     1
102
RTVSPropertyOp11
 70
     1
102
RTVSPropertyOp12
 70
     1
102
RTVSPropertyOp13
 70
     1
102
RTVSPropertyOp14
 70
     1
102
RTVSPropertyOp15
 70
     1
102
RTVSPropertyOp16
 70
     1
102
RTVSPropertyOp17
 70
     1
102
RTVSPropertyOp18
 70
     1
102
RTVSPropertyOp19
 70
     1
102
RTVSPropertyOp20
 70
     1
102
RTVSPropertyOp21
 70
     1
102
RTVSPropertyOp22
 70
     1
102
RTVSPropertyOp23
 70
     1
102
RTVSPropertyOp24
 70
     1
102
RTVSPropertyOp25
 70
     1
102
RTVSPropertyOp26
 70
     1
102
RTVSPropertyOp27
 70
     1
102
RTVSPropertyOp28
 70
     1
102
RTVSPropertyOp29
 70
     1
102
RTVSPropertyOp30
 70
     1
102
RTVSPropertyOp31
 70
     1
102
RTVSPropertyOp32
 70
     1
  0
XRECORD
  5
5092
102
{ACAD_REACTORS
330
5091
102
}
330
5091
100
AcDbXrecord
280
     1
102
RTVSPropertyOp0
 70
     1
102
RTVSPropertyOp1
 70
     1
102
RTVSPropertyOp2
 70
     1
102
RTVSPropertyOp3
 70
     1
102
RTVSPropertyOp4
 70
     1
102
RTVSPropertyOp5
 70
     1
102
RTVSPropertyOp6
 70
     1
102
RTVSPropertyOp7
 70
     1
102
RTVSPropertyOp8
 70
     1
102
RTVSPropertyOp9
 70
     1
102
RTVSPropertyOp10
 70
     1
102
RTVSPropertyOp11
 70
     1
102
RTVSPropertyOp12
 70
     1
102
RTVSPropertyOp13
 70
     1
102
RTVSPropertyOp14
 70
     1
102
RTVSPropertyOp15
 70
     1
102
RTVSPropertyOp16
 70
     1
102
RTVSPropertyOp17
 70
     1
102
RTVSPropertyOp18
 70
     1
102
RTVSPropertyOp19
 70
     1
102
RTVSPropertyOp20
 70
     1
102
RTVSPropertyOp21
 70
     1
102
RTVSPropertyOp22
 70
     1
102
RTVSPropertyOp23
 70
     1
102
RTVSPropertyOp24
 70
     1
102
RTVSPropertyOp25
 70
     1
102
RTVSPropertyOp26
 70
     1
102
RTVSPropertyOp27
 70
     1
102
RTVSPropertyOp28
 70
     1
102
RTVSPropertyOp29
 70
     1
102
RTVSPropertyOp30
 70
     1
102
RTVSPropertyOp31
 70
     1
102
RTVSPropertyOp32
 70
     1
  0
XRECORD
  5
508C
102
{ACAD_REACTORS
330
508B
102
}
330
508B
100
AcDbXrecord
280
     1
102
RTVSPropertyOp0
 70
     1
102
RTVSPropertyOp1
 70
     1
102
RTVSPropertyOp2
 70
     1
102
RTVSPropertyOp3
 70
     1
102
RTVSPropertyOp4
 70
     1
102
RTVSPropertyOp5
 70
     1
102
RTVSPropertyOp6
 70
     1
102
RTVSPropertyOp7
 70
     1
102
RTVSPropertyOp8
 70
     1
102
RTVSPropertyOp9
 70
     1
102
RTVSPropertyOp10
 70
     1
102
RTVSPropertyOp11
 70
     1
102
RTVSPropertyOp12
 70
     1
102
RTVSPropertyOp13
 70
     1
102
RTVSPropertyOp14
 70
     1
102
RTVSPropertyOp15
 70
     1
102
RTVSPropertyOp16
 70
     1
102
RTVSPropertyOp17
 70
     1
102
RTVSPropertyOp18
 70
     1
102
RTVSPropertyOp19
 70
     1
102
RTVSPropertyOp20
 70
     1
102
RTVSPropertyOp21
 70
     1
102
RTVSPropertyOp22
 70
     1
102
RTVSPropertyOp23
 70
     1
102
RTVSPropertyOp24
 70
     1
102
RTVSPropertyOp25
 70
     1
102
RTVSPropertyOp26
 70
     1
102
RTVSPropertyOp27
 70
     1
102
RTVSPropertyOp28
 70
     1
102
RTVSPropertyOp29
 70
     1
102
RTVSPropertyOp30
 70
     1
102
RTVSPropertyOp31
 70
     1
102
RTVSPropertyOp32
 70
     1
  0
XRECORD
  5
508E
102
{ACAD_REACTORS
330
508D
102
}
330
508D
100
AcDbXrecord
280
     1
102
RTVSPropertyOp0
 70
     1
102
RTVSPropertyOp1
 70
     1
102
RTVSPropertyOp2
 70
     1
102
RTVSPropertyOp3
 70
     1
102
RTVSPropertyOp4
 70
     1
102
RTVSPropertyOp5
 70
     1
102
RTVSPropertyOp6
 70
     1
102
RTVSPropertyOp7
 70
     1
102
RTVSPropertyOp8
 70
     1
102
RTVSPropertyOp9
 70
     1
102
RTVSPropertyOp10
 70
     1
102
RTVSPropertyOp11
 70
     1
102
RTVSPropertyOp12
 70
     1
102
RTVSPropertyOp13
 70
     1
102
RTVSPropertyOp14
 70
     1
102
RTVSPropertyOp15
 70
     1
102
RTVSPropertyOp16
 70
     1
102
RTVSPropertyOp17
 70
     1
102
RTVSPropertyOp18
 70
     1
102
RTVSPropertyOp19
 70
     1
102
RTVSPropertyOp20
 70
     1
102
RTVSPropertyOp21
 70
     1
102
RTVSPropertyOp22
 70
     1
102
RTVSPropertyOp23
 70
     1
102
RTVSPropertyOp24
 70
     1
102
RTVSPropertyOp25
 70
     1
102
RTVSPropertyOp26
 70
     1
102
RTVSPropertyOp27
 70
     1
102
RTVSPropertyOp28
 70
     1
102
RTVSPropertyOp29
 70
     1
102
RTVSPropertyOp30
 70
     1
102
RTVSPropertyOp31
 70
     1
102
RTVSPropertyOp32
 70
     1
  0
XRECORD
  5
5078
102
{ACAD_REACTORS
330
5077
102
}
330
5077
100
AcDbXrecord
280
     1
102
RTVSPropertyOp0
 70
     1
102
RTVSPropertyOp1
 70
     1
102
RTVSPropertyOp2
 70
     1
102
RTVSPropertyOp3
 70
     1
102
RTVSPropertyOp4
 70
     1
102
RTVSPropertyOp5
 70
     1
102
RTVSPropertyOp6
 70
     1
102
RTVSPropertyOp7
 70
     1
102
RTVSPropertyOp8
 70
     1
102
RTVSPropertyOp9
 70
     1
102
RTVSPropertyOp10
 70
     1
102
RTVSPropertyOp11
 70
     1
102
RTVSPropertyOp12
 70
     1
102
RTVSPropertyOp13
 70
     1
102
RTVSPropertyOp14
 70
     1
102
RTVSPropertyOp15
 70
     1
102
RTVSPropertyOp16
 70
     1
102
RTVSPropertyOp17
 70
     1
102
RTVSPropertyOp18
 70
     1
102
RTVSPropertyOp19
 70
     1
102
RTVSPropertyOp20
 70
     1
102
RTVSPropertyOp21
 70
     1
102
RTVSPropertyOp22
 70
     1
102
RTVSPropertyOp23
 70
     1
102
RTVSPropertyOp24
 70
     1
102
RTVSPropertyOp25
 70
     1
102
RTVSPropertyOp26
 70
     1
102
RTVSPropertyOp27
 70
     1
102
RTVSPropertyOp28
 70
     1
102
RTVSPropertyOp29
 70
     1
102
RTVSPropertyOp30
 70
     1
102
RTVSPropertyOp31
 70
     1
102
RTVSPropertyOp32
 70
     1
  0
XRECORD
  5
5088
102
{ACAD_REACTORS
330
5087
102
}
330
5087
100
AcDbXrecord
280
     1
102
RTVSPropertyOp0
 70
     1
102
RTVSPropertyOp1
 70
     1
102
RTVSPropertyOp2
 70
     1
102
RTVSPropertyOp3
 70
     1
102
RTVSPropertyOp4
 70
     1
102
RTVSPropertyOp5
 70
     1
102
RTVSPropertyOp6
 70
     1
102
RTVSPropertyOp7
 70
     1
102
RTVSPropertyOp8
 70
     1
102
RTVSPropertyOp9
 70
     1
102
RTVSPropertyOp10
 70
     1
102
RTVSPropertyOp11
 70
     1
102
RTVSPropertyOp12
 70
     1
102
RTVSPropertyOp13
 70
     1
102
RTVSPropertyOp14
 70
     1
102
RTVSPropertyOp15
 70
     1
102
RTVSPropertyOp16
 70
     1
102
RTVSPropertyOp17
 70
     1
102
RTVSPropertyOp18
 70
     1
102
RTVSPropertyOp19
 70
     1
102
RTVSPropertyOp20
 70
     1
102
RTVSPropertyOp21
 70
     1
102
RTVSPropertyOp22
 70
     1
102
RTVSPropertyOp23
 70
     1
102
RTVSPropertyOp24
 70
     1
102
RTVSPropertyOp25
 70
     1
102
RTVSPropertyOp26
 70
     1
102
RTVSPropertyOp27
 70
     1
102
RTVSPropertyOp28
 70
     1
102
RTVSPropertyOp29
 70
     1
102
RTVSPropertyOp30
 70
     1
102
RTVSPropertyOp31
 70
     1
102
RTVSPropertyOp32
 70
     1
  0
XRECORD
  5
5090
102
{ACAD_REACTORS
330
508F
102
}
330
508F
100
AcDbXrecord
280
     1
102
RTVSPropertyOp0
 70
     1
102
RTVSPropertyOp1
 70
     1
102
RTVSPropertyOp2
 70
     1
102
RTVSPropertyOp3
 70
     1
102
RTVSPropertyOp4
 70
     1
102
RTVSPropertyOp5
 70
     1
102
RTVSPropertyOp6
 70
     1
102
RTVSPropertyOp7
 70
     1
102
RTVSPropertyOp8
 70
     1
102
RTVSPropertyOp9
 70
     1
102
RTVSPropertyOp10
 70
     1
102
RTVSPropertyOp11
 70
     1
102
RTVSPropertyOp12
 70
     1
102
RTVSPropertyOp13
 70
     1
102
RTVSPropertyOp14
 70
     1
102
RTVSPropertyOp15
 70
     1
102
RTVSPropertyOp16
 70
     1
102
RTVSPropertyOp17
 70
     1
102
RTVSPropertyOp18
 70
     1
102
RTVSPropertyOp19
 70
     1
102
RTVSPropertyOp20
 70
     1
102
RTVSPropertyOp21
 70
     1
102
RTVSPropertyOp22
 70
     1
102
RTVSPropertyOp23
 70
     1
102
RTVSPropertyOp24
 70
     1
102
RTVSPropertyOp25
 70
     1
102
RTVSPropertyOp26
 70
     1
102
RTVSPropertyOp27
 70
     1
102
RTVSPropertyOp28
 70
     1
102
RTVSPropertyOp29
 70
     1
102
RTVSPropertyOp30
 70
     1
102
RTVSPropertyOp31
 70
     1
102
RTVSPropertyOp32
 70
     1
  0
ENDSEC
  0
EOF
