  0
SECTION
  2
HEADER
  9
$ACADVER
  1
AC1018
  9
$ACADMAINTVER
 70
   104
  9
$DWGCODEPAGE
  3
ANSI_1252
  9
$LASTSAVEDBY
  1
lengelbach
  9
$INSBASE
 10
0.0
 20
0.0
 30
0.0
  9
$EXTMIN
 10
-0.0083919856785997
 20
-0.0089863186240109
 30
-0.0000000000112498
  9
$EXTMAX
 10
297.0219433036722
 20
210.0133909785447
 30
0.0000000000002956
  9
$LIMMIN
 10
0.0
 20
0.0
  9
$LIMMAX
 10
420.0
 20
297.0
  9
$ORTHOMODE
 70
     0
  9
$REGENMODE
 70
     1
  9
$FILLMODE
 70
     1
  9
$QTEXTMODE
 70
     0
  9
$MIRRTEXT
 70
     0
  9
$LTSCALE
 40
10.0
  9
$ATTMODE
 70
     1
  9
$TEXTSIZE
 40
2.5
  9
$TRACEWID
 40
1.0
  9
$TEXTSTYLE
  7
RomanS
  9
$CLAYER
  8
Bemaßung
  9
$CELTYPE
  6
ByLayer
  9
$CECOLOR
 62
   256
  9
$CELTSCALE
 40
1.0
  9
$DISPSILH
 70
     0
  9
$DIMSCALE
 40
1.0
  9
$DIMASZ
 40
2.5
  9
$DIMEXO
 40
0.625
  9
$DIMDLI
 40
3.75
  9
$DIMRND
 40
0.0
  9
$DIMDLE
 40
0.0
  9
$DIMEXE
 40
1.25
  9
$DIMTP
 40
0.0
  9
$DIMTM
 40
0.0
  9
$DIMTXT
 40
2.5
  9
$DIMCEN
 40
2.5
  9
$DIMTSZ
 40
0.0
  9
$DIMTOL
 70
     0
  9
$DIMLIM
 70
     0
  9
$DIMTIH
 70
     0
  9
$DIMTOH
 70
     0
  9
$DIMSE1
 70
     0
  9
$DIMSE2
 70
     0
  9
$DIMTAD
 70
     1
  9
$DIMZIN
 70
     8
  9
$DIMBLK
  1
Oblique
  9
$DIMASO
 70
     1
  9
$DIMSHO
 70
     1
  9
$DIMPOST
  1

  9
$DIMAPOST
  1

  9
$DIMALT
 70
     0
  9
$DIMALTD
 70
     3
  9
$DIMALTF
 40
0.03937007874016
  9
$DIMLFAC
 40
1.0
  9
$DIMTOFL
 70
     1
  9
$DIMTVP
 40
0.0
  9
$DIMTIX
 70
     0
  9
$DIMSOXD
 70
     0
  9
$DIMSAH
 70
     0
  9
$DIMBLK1
  1

  9
$DIMBLK2
  1

  9
$DIMSTYLE
  2
IDEAL Holz
  9
$DIMCLRD
 70
     0
  9
$DIMCLRE
 70
     0
  9
$DIMCLRT
 70
     0
  9
$DIMTFAC
 40
1.0
  9
$DIMGAP
 40
0.625
  9
$DIMJUST
 70
     0
  9
$DIMSD1
 70
     0
  9
$DIMSD2
 70
     0
  9
$DIMTOLJ
 70
     0
  9
$DIMTZIN
 70
     8
  9
$DIMALTZ
 70
     0
  9
$DIMALTTZ
 70
     0
  9
$DIMUPT
 70
     0
  9
$DIMDEC
 70
     1
  9
$DIMTDEC
 70
     1
  9
$DIMALTU
 70
     2
  9
$DIMALTTD
 70
     3
  9
$DIMTXSTY
  7
RomanS
  9
$DIMAUNIT
 70
     0
  9
$DIMADEC
 70
     0
  9
$DIMALTRND
 40
0.0
  9
$DIMAZIN
 70
     0
  9
$DIMDSEP
 70
    44
  9
$DIMATFIT
 70
     3
  9
$DIMFRAC
 70
     0
  9
$DIMLDRBLK
  1
Oblique
  9
$DIMLUNIT
 70
     2
  9
$DIMLWD
 70
    -2
  9
$DIMLWE
 70
    -2
  9
$DIMTMOVE
 70
     0
  9
$LUNITS
 70
     2
  9
$LUPREC
 70
     4
  9
$SKETCHINC
 40
1.0
  9
$FILLETRAD
 40
3.0
  9
$AUNITS
 70
     0
  9
$AUPREC
 70
     0
  9
$MENU
  1
.
  9
$ELEVATION
 40
0.0
  9
$PELEVATION
 40
0.0
  9
$THICKNESS
 40
0.0
  9
$LIMCHECK
 70
     0
  9
$CHAMFERA
 40
0.0
  9
$CHAMFERB
 40
0.0
  9
$CHAMFERC
 40
0.0
  9
$CHAMFERD
 40
0.0
  9
$SKPOLY
 70
     0
  9
$TDCREATE
 40
2454531.618311575
  9
$TDUCREATE
 40
2454531.534978241
  9
$TDUPDATE
 40
2455063.611448576
  9
$TDUUPDATE
 40
2455063.528115243
  9
$TDINDWG
 40
0.0154832060
  9
$TDUSRTIMER
 40
0.0154741435
  9
$USRTIMER
 70
     1
  9
$ANGBASE
 50
0.0
  9
$ANGDIR
 70
     0
  9
$PDMODE
 70
     0
  9
$PDSIZE
 40
0.0
  9
$PLINEWID
 40
0.0
  9
$SPLFRAME
 70
     0
  9
$SPLINETYPE
 70
     6
  9
$SPLINESEGS
 70
     8
  9
$HANDSEED
  5
2308
  9
$SURFTAB1
 70
     6
  9
$SURFTAB2
 70
     6
  9
$SURFTYPE
 70
     6
  9
$SURFU
 70
     6
  9
$SURFV
 70
     6
  9
$UCSBASE
  2

  9
$UCSNAME
  2

  9
$UCSORG
 10
0.0
 20
0.0
 30
0.0
  9
$UCSXDIR
 10
1.0
 20
0.0
 30
0.0
  9
$UCSYDIR
 10
0.0
 20
1.0
 30
0.0
  9
$UCSORTHOREF
  2

  9
$UCSORTHOVIEW
 70
     0
  9
$UCSORGTOP
 10
0.0
 20
0.0
 30
0.0
  9
$UCSORGBOTTOM
 10
0.0
 20
0.0
 30
0.0
  9
$UCSORGLEFT
 10
0.0
 20
0.0
 30
0.0
  9
$UCSORGRIGHT
 10
0.0
 20
0.0
 30
0.0
  9
$UCSORGFRONT
 10
0.0
 20
0.0
 30
0.0
  9
$UCSORGBACK
 10
0.0
 20
0.0
 30
0.0
  9
$PUCSBASE
  2

  9
$PUCSNAME
  2

  9
$PUCSORG
 10
0.0
 20
0.0
 30
0.0
  9
$PUCSXDIR
 10
1.0
 20
0.0
 30
0.0
  9
$PUCSYDIR
 10
0.0
 20
1.0
 30
0.0
  9
$PUCSORTHOREF
  2

  9
$PUCSORTHOVIEW
 70
     0
  9
$PUCSORGTOP
 10
0.0
 20
0.0
 30
0.0
  9
$PUCSORGBOTTOM
 10
0.0
 20
0.0
 30
0.0
  9
$PUCSORGLEFT
 10
0.0
 20
0.0
 30
0.0
  9
$PUCSORGRIGHT
 10
0.0
 20
0.0
 30
0.0
  9
$PUCSORGFRONT
 10
0.0
 20
0.0
 30
0.0
  9
$PUCSORGBACK
 10
0.0
 20
0.0
 30
0.0
  9
$USERI1
 70
     0
  9
$USERI2
 70
     0
  9
$USERI3
 70
     0
  9
$USERI4
 70
     0
  9
$USERI5
 70
     0
  9
$USERR1
 40
0.0
  9
$USERR2
 40
0.0
  9
$USERR3
 40
0.0
  9
$USERR4
 40
0.0
  9
$USERR5
 40
0.0
  9
$WORLDVIEW
 70
     1
  9
$SHADEDGE
 70
     3
  9
$SHADEDIF
 70
    70
  9
$TILEMODE
 70
     1
  9
$MAXACTVP
 70
    64
  9
$PINSBASE
 10
0.0
 20
0.0
 30
0.0
  9
$PLIMCHECK
 70
     0
  9
$PEXTMIN
 10
-6.000000278478751
 20
-6.000000213669252
 30
0.0
  9
$PEXTMAX
 10
291.0318416794908
 20
203.9733271716299
 30
0.0
  9
$PLIMMIN
 10
-5.999987840652463
 20
-5.999999999999997
  9
$PLIMMAX
 10
291.0318419933318
 20
203.9733276367186
  9
$UNITMODE
 70
     0
  9
$VISRETAIN
 70
     1
  9
$PLINEGEN
 70
     0
  9
$PSLTSCALE
 70
     1
  9
$TREEDEPTH
 70
  3020
  9
$CMLSTYLE
  2
Standard
  9
$CMLJUST
 70
     0
  9
$CMLSCALE
 40
20.0
  9
$PROXYGRAPHICS
 70
     1
  9
$MEASUREMENT
 70
     1
  9
$CELWEIGHT
370
    -1
  9
$ENDCAPS
280
     0
  9
$JOINSTYLE
280
     0
  9
$LWDISPLAY
290
     0
  9
$INSUNITS
 70
     4
  9
$HYPERLINKBASE
  1

  9
$STYLESHEET
  1
Grayscale.ctb
  9
$XEDIT
290
     1
  9
$CEPSNTYPE
380
     0
  9
$PSTYLEMODE
290
     1
  9
$FINGERPRINTGUID
  2
{9A03CA01-DB2D-4F50-BDBF-3A55C281F4ED}
  9
$VERSIONGUID
  2
{9F1C6430-77C8-42B8-8097-410559855399}
  9
$EXTNAMES
290
     1
  9
$PSVPSCALE
 40
1.0
  9
$OLESTARTUP
290
     0
  9
$SORTENTS
280
   127
  9
$INDEXCTL
280
     0
  9
$HIDETEXT
280
     1
  9
$XCLIPFRAME
290
     0
  9
$HALOGAP
280
     0
  9
$OBSCOLOR
 70
   257
  9
$OBSLTYPE
280
     0
  9
$INTERSECTIONDISPLAY
280
     0
  9
$INTERSECTIONCOLOR
 70
   257
  9
$DIMASSOC
280
     2
  9
$PROJECTNAME
  1

  0
ENDSEC
  0
SECTION
  2
CLASSES
  0
CLASS
  1
ACDBDICTIONARYWDFLT
  2
AcDbDictionaryWithDefault
  3
ObjectDBX Classes
 90
        0
 91
        1
280
     0
281
     0
  0
CLASS
  1
DICTIONARYVAR
  2
AcDbDictionaryVar
  3
ObjectDBX Classes
 90
        0
 91
        9
280
     0
281
     0
  0
CLASS
  1
TABLESTYLE
  2
AcDbTableStyle
  3
ObjectDBX Classes
 90
     4095
 91
        1
280
     0
281
     0
  0
CLASS
  1
MATERIAL
  2
AcDbMaterial
  3
ObjectDBX Classes
 90
     1024
 91
        3
280
     0
281
     0
  0
CLASS
  1
VISUALSTYLE
  2
AcDbVisualStyle
  3
ObjectDBX Classes
 90
     4095
 91
       16
280
     0
281
     0
  0
CLASS
  1
SORTENTSTABLE
  2
AcDbSortentsTable
  3
ObjectDBX Classes
 90
        0
 91
        3
280
     0
281
     0
  0
CLASS
  1
DIMASSOC
  2
AcDbDimAssoc
  3
"AcDbDimAssoc|Product Desc:     AcDim ARX App For Dimension|Company:          Autodesk, Inc.|WEB Address:      www.autodesk.com"
 90
        0
 91
        1
280
     0
281
     0
  0
CLASS
  1
ACAD_EVALUATION_GRAPH
  2
AcDbEvalGraph
  3
ObjectDBX Classes
 90
     1153
 91
        0
280
     0
281
     0
  0
CLASS
  1
ACAECUSTOBJ
  2
AcAeEditorObj
  3
AcAeEditorObj
 90
     1024
 91
        0
280
     0
281
     0
  0
CLASS
  1
ACDB_DYNAMICBLOCKPURGEPREVENTER_VERSION
  2
AcDbDynamicBlockPurgePreventer
  3
ObjectDBX Classes
 90
     1153
 91
        0
280
     0
281
     0
  0
CLASS
  1
ACDB_BLOCKREPRESENTATION_DATA
  2
AcDbBlockRepresentationData
  3
ObjectDBX Classes
 90
     1153
 91
        0
280
     0
281
     0
  0
ENDSEC
  0
SECTION
  2
TABLES
  0
TABLE
  2
VPORT
  5
8
330
0
100
AcDbSymbolTable
 70
     1
  0
VPORT
  5
EA
330
8
100
AcDbSymbolTableRecord
100
AcDbViewportTableRecord
  2
*Active
 70
     0
 10
0.0
 20
0.0
 11
1.0
 21
1.0
 12
148.4990377965289
 22
105.2684308590401
 13
0.0
 23
0.0
 14
10.0
 24
10.0
 15
10.0
 25
10.0
 16
0.0
 26
0.0
 36
1.0
 17
0.0
 27
0.0
 37
0.0
 40
212.2224481544495
 41
2.057618437900127
 42
50.0
 43
0.0
 44
0.0
 50
0.0
 51
0.0
 71
     0
 72
  1000
 73
     1
 74
     3
 75
     0
 76
     0
 77
     0
 78
     0
281
     0
 65
     1
110
0.0
120
0.0
130
0.0
111
1.0
121
0.0
131
0.0
112
0.0
122
1.0
132
0.0
 79
     0
146
0.0
  0
ENDTAB
  0
TABLE
  2
LTYPE
  5
5
330
0
100
AcDbSymbolTable
 70
     3
  0
LTYPE
  5
14
330
5
100
AcDbSymbolTableRecord
100
AcDbLinetypeTableRecord
  2
ByBlock
 70
     0
  3

 72
    65
 73
     0
 40
0.0
  0
LTYPE
  5
15
330
5
100
AcDbSymbolTableRecord
100
AcDbLinetypeTableRecord
  2
ByLayer
 70
     0
  3

 72
    65
 73
     0
 40
0.0
  0
LTYPE
  5
16
330
5
100
AcDbSymbolTableRecord
100
AcDbLinetypeTableRecord
  2
Continuous
 70
     0
  3
Solid line
 72
    65
 73
     0
 40
0.0
  0
LTYPE
  5
1EB5
330
5
100
AcDbSymbolTableRecord
100
AcDbLinetypeTableRecord
  2
STRICHPUNKT
 70
     0
  3
Strichpunkt __ . __ . __ . __ . __ . __ . __ . 
 72
    65
 73
     4
 40
1.0
 49
0.5
 74
     0
 49
-0.25
 74
     0
 49
0.0
 74
     0
 49
-0.25
 74
     0
  0
LTYPE
  5
1EB7
330
5
100
AcDbSymbolTableRecord
100
AcDbLinetypeTableRecord
  2
DASHED
 70
     0
  3
__ __ __ __ __ __ __ __ __ __ __ __ __ __ __
 72
    65
 73
     2
 40
0.75
 49
0.5
 74
     0
 49
-0.25
 74
     0
  0
ENDTAB
  0
TABLE
  2
LAYER
  5
2
102
{ACAD_XDICTIONARY
360
120
102
}
330
0
100
AcDbSymbolTable
 70
    10
  0
LAYER
  5
10
330
2
100
AcDbSymbolTableRecord
100
AcDbLayerTableRecord
  2
0
 70
     0
 62
     7
  6
Continuous
370
    -3
390
F
  0
LAYER
  5
12AC
330
2
100
AcDbSymbolTableRecord
100
AcDbLayerTableRecord
  2
Defpoints
 70
     0
 62
     7
  6
Continuous
290
     0
370
    -3
390
F
  0
LAYER
  5
1EB8
330
2
100
AcDbSymbolTableRecord
100
AcDbLayerTableRecord
  2
Dichtungen
 70
     0
 62
     6
  6
Continuous
370
    -3
390
F
1001
AcAecLayerStandard
1000

1000

  0
LAYER
  5
1EB9
330
2
100
AcDbSymbolTableRecord
100
AcDbLayerTableRecord
  2
Sohlbank
 70
     0
 62
     5
  6
Continuous
370
    -3
390
F
1001
AcAecLayerStandard
1000

1000

  0
LAYER
  5
1EBA
330
2
100
AcDbSymbolTableRecord
100
AcDbLayerTableRecord
  2
Aluhalter
 70
     0
 62
     3
  6
Continuous
370
    -3
390
F
1001
AcAecLayerStandard
1000

1000

  0
LAYER
  5
1EBB
330
2
100
AcDbSymbolTableRecord
100
AcDbLayerTableRecord
  2
Aluprofile
 70
     0
 62
   253
  6
Continuous
370
    -3
390
F
1001
AcAecLayerStandard
1000

1000

  0
LAYER
  5
1EBC
330
2
100
AcDbSymbolTableRecord
100
AcDbLayerTableRecord
  2
Schlitz-Zapfen
 70
     0
 62
   253
  6
STRICHPUNKT
370
    -3
390
F
1001
AcAecLayerStandard
1000

1000

  0
LAYER
  5
1EBD
330
2
100
AcDbSymbolTableRecord
100
AcDbLayerTableRecord
  2
Bemaßung
 70
     0
 62
     1
  6
Continuous
370
    -3
390
F
  0
LAYER
  5
1EBE
330
2
100
AcDbSymbolTableRecord
100
AcDbLayerTableRecord
  2
Schraffur
 70
     0
 62
   251
  6
Continuous
370
    -3
390
F
1001
AcAecLayerStandard
1000

1000

  0
LAYER
  5
21AE
330
2
100
AcDbSymbolTableRecord
100
AcDbLayerTableRecord
  2
Text intern
 70
     0
 62
   250
  6
Continuous
370
    -3
390
F
1001
AcAecLayerStandard
1000

1000

  0
ENDTAB
  0
TABLE
  2
STYLE
  5
3
330
0
100
AcDbSymbolTable
 70
     3
  0
STYLE
  5
11
330
3
100
AcDbSymbolTableRecord
100
AcDbTextStyleTableRecord
  2
Standard
 70
     0
 40
0.0
 41
1.0
 50
0.0
 71
     0
 42
2.5
  3
txt
  4

  0
STYLE
  5
11D
330
3
100
AcDbSymbolTableRecord
100
AcDbTextStyleTableRecord
  2
RomanS
 70
     0
 40
0.0
 41
0.7
 50
0.0
 71
     0
 42
2.5
  3
romans.shx
  4

  0
ENDTAB
  0
TABLE
  2
VIEW
  5
6
330
0
100
AcDbSymbolTable
 70
     0
  0
ENDTAB
  0
TABLE
  2
UCS
  5
7
330
0
100
AcDbSymbolTable
 70
     0
  0
ENDTAB
  0
TABLE
  2
APPID
  5
9
330
0
100
AcDbSymbolTable
 70
     9
  0
APPID
  5
12
330
9
100
AcDbSymbolTableRecord
100
AcDbRegAppTableRecord
  2
ACAD
 70
     0
  0
APPID
  5
9E
330
9
100
AcDbSymbolTableRecord
100
AcDbRegAppTableRecord
  2
ACAD_PSEXT
 70
     0
  0
APPID
  5
1B4
330
9
100
AcDbSymbolTableRecord
100
AcDbRegAppTableRecord
  2
AcAecLayerStandard
 70
     0
  0
APPID
  5
3F2
330
9
100
AcDbSymbolTableRecord
100
AcDbRegAppTableRecord
  2
AcDbBlockRepETag
 70
     0
  0
APPID
  5
722
330
9
100
AcDbSymbolTableRecord
100
AcDbRegAppTableRecord
  2
ACAD_EXEMPT_FROM_CAD_STANDARDS
 70
     0
  0
APPID
  5
12AF
330
9
100
AcDbSymbolTableRecord
100
AcDbRegAppTableRecord
  2
AcDbDynamicBlockGUID
 70
     0
  0
APPID
  5
17A4
330
9
100
AcDbSymbolTableRecord
100
AcDbRegAppTableRecord
  2
ACAUTHENVIRON
 70
     0
  0
APPID
  5
17AA
330
9
100
AcDbSymbolTableRecord
100
AcDbRegAppTableRecord
  2
AcDbDynamicBlockTrueName
 70
     0
  0
APPID
  5
186B
330
9
100
AcDbSymbolTableRecord
100
AcDbRegAppTableRecord
  2
AcDbBlockRepBTag
 70
     0
  0
ENDTAB
  0
TABLE
  2
DIMSTYLE
  5
A
330
0
100
AcDbSymbolTable
 70
     3
100
AcDbDimStyleTable
 71
     1
340
142C
  0
DIMSTYLE
105
11E
330
A
100
AcDbSymbolTableRecord
100
AcDbDimStyleTableRecord
  2
Standard
 70
     0
 41
0.5
 42
1.0
 43
2.0
 44
0.2
140
1.5
147
1.0
172
     1
271
     1
272
     1
340
11
371
     5
372
     5
  0
DIMSTYLE
105
142C
102
{ACAD_REACTORS
330
1F3D
330
1F40
330
1F41
330
1F42
330
1F43
330
1F44
330
1F45
330
1F46
330
1F47
330
1F48
330
204F
330
2067
102
}
330
A
100
AcDbSymbolTableRecord
100
AcDbDimStyleTableRecord
  2
IDEAL Holz
 70
     0
 41
2.5
 42
0.625
 43
3.75
 44
1.25
 73
     0
 74
     0
 77
     1
 78
     8
140
2.5
141
2.5
143
0.03937007874016
147
0.625
171
     3
172
     1
271
     1
272
     1
274
     3
278
    44
283
     0
284
     8
340
11D
341
117
342
117
  0
ENDTAB
  0
TABLE
  2
BLOCK_RECORD
  5
1
330
0
100
AcDbSymbolTable
 70
    20
  0
BLOCK_RECORD
  5
1F
102
{ACAD_XDICTIONARY
360
732
102
}
330
1
100
AcDbSymbolTableRecord
100
AcDbBlockTableRecord
  2
*Model_Space
340
22
  0
BLOCK_RECORD
  5
1CC3
330
1
100
AcDbSymbolTableRecord
100
AcDbBlockTableRecord
  2
*Paper_Space
340
1CC8
  0
BLOCK_RECORD
  5
117
330
1
100
AcDbSymbolTableRecord
100
AcDbBlockTableRecord
  2
_Oblique
340
0
102
{BLKREFS
331
1FD0
331
1FD1
331
1FDB
331
1FDC
331
2094
331
2095
331
2212
331
2213
331
221B
331
221C
331
2224
331
2225
331
222D
331
222E
331
2236
331
2237
331
223F
331
2240
331
2248
331
2249
331
2251
331
2252
331
226C
331
226D
102
}
  0
BLOCK_RECORD
  5
1D5A
102
{ACAD_XDICTIONARY
360
2126
102
}
330
1
100
AcDbSymbolTableRecord
100
AcDbBlockTableRecord
  2
D-Blendrahmendichtung
340
0
310
2800000020000000200000000100080000000000000400000000000000000000000000000000000000000000000080000080000000808000800000008000800080800000C0C0C000C0DCC000F0CAA6000020400000206000002080000020A0000020C0000020E00000400000004020000040400000406000004080000040A0
310
000040C0000040E00000600000006020000060400000606000006080000060A0000060C0000060E00000800000008020000080400000806000008080000080A0000080C0000080E00000A0000000A0200000A0400000A0600000A0800000A0A00000A0C00000A0E00000C0000000C0200000C0400000C0600000C0800000C0
310
A00000C0C00000C0E00000E0000000E0200000E0400000E0600000E0800000E0A00000E0C00000E0E00040000000400020004000400040006000400080004000A0004000C0004000E00040200000402020004020400040206000402080004020A0004020C0004020E000404000004040200040404000404060004040800040
310
40A0004040C0004040E00040600000406020004060400040606000406080004060A0004060C0004060E00040800000408020004080400040806000408080004080A0004080C0004080E00040A0000040A0200040A0400040A0600040A0800040A0A00040A0C00040A0E00040C0000040C0200040C0400040C0600040C08000
310
40C0A00040C0C00040C0E00040E0000040E0200040E0400040E0600040E0800040E0A00040E0C00040E0E00080000000800020008000400080006000800080008000A0008000C0008000E00080200000802020008020400080206000802080008020A0008020C0008020E00080400000804020008040400080406000804080
310
008040A0008040C0008040E00080600000806020008060400080606000806080008060A0008060C0008060E00080800000808020008080400080806000808080008080A0008080C0008080E00080A0000080A0200080A0400080A0600080A0800080A0A00080A0C00080A0E00080C0000080C0200080C0400080C0600080C0
310
800080C0A00080C0C00080C0E00080E0000080E0200080E0400080E0600080E0800080E0A00080E0C00080E0E000C0000000C0002000C0004000C0006000C0008000C000A000C000C000C000E000C0200000C0202000C0204000C0206000C0208000C020A000C020C000C020E000C0400000C0402000C0404000C0406000C0
310
408000C040A000C040C000C040E000C0600000C0602000C0604000C0606000C0608000C060A000C060C000C060E000C0800000C0802000C0804000C0806000C0808000C080A000C080C000C080E000C0A00000C0A02000C0A04000C0A06000C0A08000C0A0A000C0A0C000C0A0E000C0C00000C0C02000C0C04000C0C06000
310
C0C08000C0C0A000F0FBFF00A4A0A000808080000000FF0000FF000000FFFF00FF000000FF00FF00FFFF0000FFFFFF0008080808080808080808080808080808080808080808080808080808080808080808080808080808080808080808080808080808080808080808080808080808080808080808080808080808080808
310
08080808080808080808080808080808080808080808080808080808080808080808080808080808080808080808080808080808080808080808080808080808080808080808080808080808080808080808080808080808080808080808080808080808080808080808080808080808080808080808080808080808080808
310
08080808080808080808080808080808080808080808080808080808080808080808080808080808FDFDFD080808080808080808080808080808FDFD0808080808080808080808FDFDFDFDFDFD08080808080808080808080808FD08FD08080808080808080808FD08FDFDFDFD080808080808080808080808FDFDFDFD0808
310
0808080808080808FDFDFDFDFDFDFD0808080808080808080808FDFDFDFD08080808080808080808FD08FDFDFD08080808080808080808080808FDFDFDFD08080808080808080808FDFDFDFDFDFD080808080808FDFD08080808FDFDFDFD08080808080808080808FDFDFD08FDFDFD0808080808FD08FDFDFDFDFDFDFDFD08
310
080808080808080808FDFD08FD08FD08080808080808FDFDFDFDFDFDFDFDFDFDFDFD08080808FDFDFDFD08FD08FDFDFDFDFDFD080808FDFDFDFDFDFDFDFDFDFDFDFDFDFDFDFDFDFDFD08FDFDFDFDFDFDFDFD080808080808080808FDFDFDFDFDFDFDFDFDFD08FDFD08FDFDFDFDFDFDFD080808080808080808080808080808
310
080808080808FDFDFDFDFDFDFDFDFDFDFD0808080808080808080808080808080808080808080808080808FDFD0808FDFD080808080808080808080808080808080808080808080808080808FDFD08FDFD080808080808080808080808080808080808080808080808080808FDFD08FDFDFD08080808080808080808080808
310
08080808080808080808080808FDFDFDFDFDFD0808080808080808080808080808080808080808080808080808FDFDFDFDFDFD08080808080808080808080808080808080808080808080808080808FDFDFDFD0808080808080808080808080808080808080808080808080808080808080808080808080808080808080808
310
08080808080808080808080808080808080808080808080808080808080808080808080808080808080808080808080808080808080808080808080808080808080808080808080808080808080808080808080808080808080808080808080808080808080808080808080808080808080808080808080808080808080808
310
0808080808080808080808080808080808080808080808080808080808080808080808080808080808080808080808080808080808080808
102
{BLKREFS
331
1F4E
331
1F51
331
1F54
331
1F57
102
}
1001
AcDbDynamicBlockGUID
1000
{AD60264E-D0BB-4E14-8D6C-56E2CD1287FF}
1001
AcDbBlockRepETag
1070
     1
1071
        4
1001
ACAD
1000
DesignCenter Data
1002
{
1070
     1
1070
     4
1002
}
  0
BLOCK_RECORD
  5
1DAA
102
{ACAD_XDICTIONARY
360
215F
102
}
330
1
100
AcDbSymbolTableRecord
100
AcDbBlockTableRecord
  2
C-MEH40
340
0
310
2800000020000000200000000100080000000000000400000000000000000000000000000000000000000000000080000080000000808000800000008000800080800000C0C0C000C0DCC000F0CAA6000020400000206000002080000020A0000020C0000020E00000400000004020000040400000406000004080000040A0
310
000040C0000040E00000600000006020000060400000606000006080000060A0000060C0000060E00000800000008020000080400000806000008080000080A0000080C0000080E00000A0000000A0200000A0400000A0600000A0800000A0A00000A0C00000A0E00000C0000000C0200000C0400000C0600000C0800000C0
310
A00000C0C00000C0E00000E0000000E0200000E0400000E0600000E0800000E0A00000E0C00000E0E00040000000400020004000400040006000400080004000A0004000C0004000E00040200000402020004020400040206000402080004020A0004020C0004020E000404000004040200040404000404060004040800040
310
40A0004040C0004040E00040600000406020004060400040606000406080004060A0004060C0004060E00040800000408020004080400040806000408080004080A0004080C0004080E00040A0000040A0200040A0400040A0600040A0800040A0A00040A0C00040A0E00040C0000040C0200040C0400040C0600040C08000
310
40C0A00040C0C00040C0E00040E0000040E0200040E0400040E0600040E0800040E0A00040E0C00040E0E00080000000800020008000400080006000800080008000A0008000C0008000E00080200000802020008020400080206000802080008020A0008020C0008020E00080400000804020008040400080406000804080
310
008040A0008040C0008040E00080600000806020008060400080606000806080008060A0008060C0008060E00080800000808020008080400080806000808080008080A0008080C0008080E00080A0000080A0200080A0400080A0600080A0800080A0A00080A0C00080A0E00080C0000080C0200080C0400080C0600080C0
310
800080C0A00080C0C00080C0E00080E0000080E0200080E0400080E0600080E0800080E0A00080E0C00080E0E000C0000000C0002000C0004000C0006000C0008000C000A000C000C000C000E000C0200000C0202000C0204000C0206000C0208000C020A000C020C000C020E000C0400000C0402000C0404000C0406000C0
310
408000C040A000C040C000C040E000C0600000C0602000C0604000C0606000C0608000C060A000C060C000C060E000C0800000C0802000C0804000C0806000C0808000C080A000C080C000C080E000C0A00000C0A02000C0A04000C0A06000C0A08000C0A0A000C0A0C000C0A0E000C0C00000C0C02000C0C04000C0C06000
310
C0C08000C0C0A000F0FBFF00A4A0A000808080000000FF0000FF000000FFFF00FF000000FF00FF00FFFF0000FFFFFF0008080808080808080808080808080808080808080808080808080808080808080808080808080808080808080808080808FAFAFAFAFAFAFA0808080808080808080808080808080808080808080808
310
0808FA0808080808FA08080808080808080808080808080808080808080808080808FA0808080808FA08080808080808080808080808080808FAFAFAFAFAFAFAFA08FA0808080808FA08080808080808080808080808080808FA080808080808FA08FA0808080808FA08080808080808080808080808080808FA0808080808
310
08FA08FA0808080808FA08080808080808080808080808080808FA080808080808FA08FA0808080808FA08080808080808080808080808080808FA080808080808FA08FA08FAFAFAFAFA08080808080808080808080808080808FA080808080808FA08FA080808FAFAFA08080808080808080808080808080808FAFA080808
310
0808FAFAFA08FAFAFAFAFA08080808080808080808080808080808FAFAFA08080808FA08FA0808080808FA08080808080808080808080808080808FAFA08FA080808FA08FA08FAFAFAFAFA08080808080808080808080808080808FAFA0808FAFAFAFAFAFAFAFAFAFAFAFA08080808080808080808080808080808FAFA0808
310
FA0808FA08FA08FAFAFAFAFA08080808080808080808080808080808FAFA0808FA0808FA08FA0808FA0808FA08080808080808080808080808080808FAFA0808FA0808FA08FA08FAFAFAFAFA08080808080808080808080808080808FAFA0808FA0808FA08FA080808FA08FA08080808080808080808080808080808FAFA08
310
08FAFAFAFAFAFAFAFAFAFAFAFA08080808080808080808080808080808FAFA08FA080808FA08FA080808FA08FA08080808080808080808080808080808FAFAFA08080808FA08FA08FAFAFAFAFA08080808080808080808080808080808FAFA0808080808FAFAFA08FA0808FAFA08080808080808080808080808080808FA08
310
0808080808FA08FA08FAFAFA08FA08080808080808080808080808080808FA080808080808FA08FA0808080808FA08080808080808080808080808080808FA080808080808FA08FA0808080808FA08080808080808080808080808080808FA080808080808FA08FA0808080808FA08080808080808080808080808080808FA
310
FAFAFAFAFAFAFA08FA0808080808FA08080808080808080808080808080808FAFAFAFAFAFAFAFA08FA0808080808FA08080808080808080808080808080808080808080808080808FA0808080808FA08080808080808080808080808080808080808080808080808FA0808080808FA08080808080808080808080808080808
310
080808080808080808FAFAFAFAFAFAFA08080808080808080808080808080808080808080808080808080808080808080808080808080808
102
{BLKREFS
331
1F50
331
1F53
331
1F56
331
1F59
102
}
1001
AcDbDynamicBlockGUID
1000
{92289760-B435-4D7D-819F-6756208A7165}
1001
AcDbBlockRepETag
1070
     1
1071
       38
1001
ACAD
1000
DesignCenter Data
1002
{
1070
     1
1070
     4
1002
}
  0
BLOCK_RECORD
  5
1DD4
102
{ACAD_XDICTIONARY
360
1DD5
102
}
330
1
100
AcDbSymbolTableRecord
100
AcDbBlockTableRecord
  2
A-SB36-17
340
0
310
2800000020000000200000000100080000000000000400000000000000000000000000000000000000000000000080000080000000808000800000008000800080800000C0C0C000C0DCC000F0CAA6000020400000206000002080000020A0000020C0000020E00000400000004020000040400000406000004080000040A0
310
000040C0000040E00000600000006020000060400000606000006080000060A0000060C0000060E00000800000008020000080400000806000008080000080A0000080C0000080E00000A0000000A0200000A0400000A0600000A0800000A0A00000A0C00000A0E00000C0000000C0200000C0400000C0600000C0800000C0
310
A00000C0C00000C0E00000E0000000E0200000E0400000E0600000E0800000E0A00000E0C00000E0E00040000000400020004000400040006000400080004000A0004000C0004000E00040200000402020004020400040206000402080004020A0004020C0004020E000404000004040200040404000404060004040800040
310
40A0004040C0004040E00040600000406020004060400040606000406080004060A0004060C0004060E00040800000408020004080400040806000408080004080A0004080C0004080E00040A0000040A0200040A0400040A0600040A0800040A0A00040A0C00040A0E00040C0000040C0200040C0400040C0600040C08000
310
40C0A00040C0C00040C0E00040E0000040E0200040E0400040E0600040E0800040E0A00040E0C00040E0E00080000000800020008000400080006000800080008000A0008000C0008000E00080200000802020008020400080206000802080008020A0008020C0008020E00080400000804020008040400080406000804080
310
008040A0008040C0008040E00080600000806020008060400080606000806080008060A0008060C0008060E00080800000808020008080400080806000808080008080A0008080C0008080E00080A0000080A0200080A0400080A0600080A0800080A0A00080A0C00080A0E00080C0000080C0200080C0400080C0600080C0
310
800080C0A00080C0C00080C0E00080E0000080E0200080E0400080E0600080E0800080E0A00080E0C00080E0E000C0000000C0002000C0004000C0006000C0008000C000A000C000C000C000E000C0200000C0202000C0204000C0206000C0208000C020A000C020C000C020E000C0400000C0402000C0404000C0406000C0
310
408000C040A000C040C000C040E000C0600000C0602000C0604000C0606000C0608000C060A000C060C000C060E000C0800000C0802000C0804000C0806000C0808000C080A000C080C000C080E000C0A00000C0A02000C0A04000C0A06000C0A08000C0A0A000C0A0C000C0A0E000C0C00000C0C02000C0C04000C0C06000
310
C0C08000C0C0A000F0FBFF00A4A0A000808080000000FF0000FF000000FFFF00FF000000FF00FF00FFFF0000FFFFFF000808080808080808080808080808080808080808080808080808080808080808080808080808080808F7F7F7F7F7F7F7F7F7F7F7080808080808080808080808080808080808080808F7F7F7F7F7F7
310
F7F7F7F7F7F7F708080808080808080808080808080808080808F7F708080808080808F7F7F708F7080808080808080808080808080808080808F7F7080808080808080808F708F7080808080808080808080808080808080808F7F7080808080808080808F708F7080808080808080808080808080808080808F7F7F7F7F7
310
F7080808080808F708080808080808080808080808080808080808F7F7F7F7F7F70808080808080808080808080808080808080808080808080808F7F7080808080808080808080808080808080808080808080808080808080808F7F7F7F7F7F7F7080808080808F7080808080808080808080808080808080808F7F7F7F7
310
F7F7F7F708F70808F7F7080808080808080808080808080808080808F7F7F7F708F7F7F7F7F7F70808F7080808080808080808080808080808080808F7F7F7F708F7F70808F7F7080808080808080808080808080808080808080808F7F708080808080808080808080808080808080808080808080808080808080808F7F7
310
F70808080808080808F70808080808080808080808080808080808080808F7F708F7F7F708080808F708F7080808080808080808080808080808080808080808F7F7F708F7F7F708F708F7080808080808080808080808080808080808080808080808F7F7F7F7F7F708F70808080808080808080808080808080808080808
310
0808080808080808F7F708F7080808080808080808080808080808080808080808080808080808080808F7F7080808080808080808080808080808080808080808080808080808080808F7F70808080808080808080808080808080808080808080808080808080808F7F7F708080808080808080808080808080808080808
310
08080808080808080808F7F7F7080808080808080808080808080808080808080808080808080808F7F708F70808080808080808080808080808080808080808080808080808F7F708F7F7F70808080808080808080808080808080808080808080808080808F7F7F708080808080808080808080808080808080808080808
310
08080808080808F7F7080808080808080808080808080808080808080808080808080808080808F7F7F708F708080808080808080808080808080808080808080808080808080808F708F7F7F708080808080808080808080808080808080808080808080808080808F7F708F7080808080808080808080808080808080808
310
080808080808080808080808F708080808080808080808080808080808080808080808080808080808080808080808080808080808080808
102
{BLKREFS
331
1F5A
331
1F5D
102
}
1001
AcDbDynamicBlockGUID
1000
{21F1417D-8C61-4FD6-8D85-D109EC53E04A}
1001
AcDbBlockRepETag
1070
     1
1071
        4
1001
ACAD
1000
DesignCenter Data
1002
{
1070
     1
1070
     4
1002
}
  0
BLOCK_RECORD
  5
1E55
102
{ACAD_XDICTIONARY
360
2132
102
}
330
1
100
AcDbSymbolTableRecord
100
AcDbBlockTableRecord
  2
C-DC340
340
0
310
2800000020000000200000000100080000000000000400000000000000000000000000000000000000000000000080000080000000808000800000008000800080800000C0C0C000C0DCC000F0CAA6000020400000206000002080000020A0000020C0000020E00000400000004020000040400000406000004080000040A0
310
000040C0000040E00000600000006020000060400000606000006080000060A0000060C0000060E00000800000008020000080400000806000008080000080A0000080C0000080E00000A0000000A0200000A0400000A0600000A0800000A0A00000A0C00000A0E00000C0000000C0200000C0400000C0600000C0800000C0
310
A00000C0C00000C0E00000E0000000E0200000E0400000E0600000E0800000E0A00000E0C00000E0E00040000000400020004000400040006000400080004000A0004000C0004000E00040200000402020004020400040206000402080004020A0004020C0004020E000404000004040200040404000404060004040800040
310
40A0004040C0004040E00040600000406020004060400040606000406080004060A0004060C0004060E00040800000408020004080400040806000408080004080A0004080C0004080E00040A0000040A0200040A0400040A0600040A0800040A0A00040A0C00040A0E00040C0000040C0200040C0400040C0600040C08000
310
40C0A00040C0C00040C0E00040E0000040E0200040E0400040E0600040E0800040E0A00040E0C00040E0E00080000000800020008000400080006000800080008000A0008000C0008000E00080200000802020008020400080206000802080008020A0008020C0008020E00080400000804020008040400080406000804080
310
008040A0008040C0008040E00080600000806020008060400080606000806080008060A0008060C0008060E00080800000808020008080400080806000808080008080A0008080C0008080E00080A0000080A0200080A0400080A0600080A0800080A0A00080A0C00080A0E00080C0000080C0200080C0400080C0600080C0
310
800080C0A00080C0C00080C0E00080E0000080E0200080E0400080E0600080E0800080E0A00080E0C00080E0E000C0000000C0002000C0004000C0006000C0008000C000A000C000C000C000E000C0200000C0202000C0204000C0206000C0208000C020A000C020C000C020E000C0400000C0402000C0404000C0406000C0
310
408000C040A000C040C000C040E000C0600000C0602000C0604000C0606000C0608000C060A000C060C000C060E000C0800000C0802000C0804000C0806000C0808000C080A000C080C000C080E000C0A00000C0A02000C0A04000C0A06000C0A08000C0A0A000C0A0C000C0A0E000C0C00000C0C02000C0C04000C0C06000
310
C0C08000C0C0A000F0FBFF00A4A0A000808080000000FF0000FF000000FFFF00FF000000FF00FF00FFFF0000FFFFFF0008080808080808080808080808080808080808080808080808080808080808080808080808080808080808080808080808080808080808080808080808080808080808080808080808080808080808
310
0808080808080808080808080808080808080808080808080808080808080808080808080808080808080808080808080808080808080808080808FAFAFAFAFA080808080808080808080808080808080808080808080808080808FA080808FA080808080808080808080808080808080808080808080808080808FA080808
310
FA080808080808080808080808080808080808080808080808080808FA080808FA0808080808080808080808080808080808080808080808FAFA0808FA080808FA0808080808080808080808080808080808080808FAFAFA08FAFAFAFA080808FA08080808080808080808080808080808080808FA080808FAFAFA08FAFA08
310
FAFA080808080808080808080808080808080808FA0808FAFA0808FA08FAFAFAFAFA080808080808080808080808080808080808FA0808FAFAFAFA0808FAFAFAFAFA080808080808080808080808080808080808FAFAFAFAFAFAFAFAFAFAFAFAFAFA080808080808080808080808080808080808FA0808080808080808FAFA
310
08FAFA080808080808080808080808080808080808FA0808080808080808FAFAFAFAFAFAFAFAFAFAFAFAFAFAFAFAFAFAFAFAFA0808FA0808080808080808FA080808FA080808080808080808080808080808080808FA0808080808080808FAFA08FAFA080808080808080808080808080808080808FAFAFAFAFAFAFAFAFAFA
310
FAFAFAFA080808080808080808080808080808080808FA0808FAFAFAFA0808FAFAFAFAFA080808080808080808080808080808080808FA0808FAFA0808FA08FA08FA08FA08080808080808080808080808080808080808FA080808FAFAFA08FAFAFAFAFA0808080808080808080808080808080808080808FAFA0808FAFAFA
310
FAFAFAFAFA08080808080808080808080808080808080808080808FAFAFA0808FAFAFAFAFA080808080808080808080808080808080808080808080808080808FA080808FA080808080808080808080808080808080808080808080808080808FA080808FA0808080808080808080808080808080808080808080808080808
310
08FA080808FA080808080808080808080808080808080808080808080808080808FAFAFAFAFA0808080808080808080808080808080808080808080808080808080808080808080808080808080808080808080808080808080808080808080808080808080808080808080808080808080808080808080808080808080808
310
0808080808080808080808080808080808080808080808080808080808080808080808080808080808080808080808080808080808080808
102
{BLKREFS
331
1F5B
331
1F5E
102
}
1001
AcDbDynamicBlockGUID
1000
{F300AF7F-FC78-4554-A9A4-895B772B9E35}
1001
AcDbBlockRepETag
1070
     1
1071
        5
1001
ACAD
1000
DesignCenter Data
1002
{
1070
     1
1070
     4
1002
}
  0
BLOCK_RECORD
  5
1F60
330
1
100
AcDbSymbolTableRecord
100
AcDbBlockTableRecord
  2
*D5
340
0
  0
BLOCK_RECORD
  5
1F6C
330
1
100
AcDbSymbolTableRecord
100
AcDbBlockTableRecord
  2
*D6
340
0
  0
BLOCK_RECORD
  5
1F78
330
1
100
AcDbSymbolTableRecord
100
AcDbBlockTableRecord
  2
*D7
340
0
  0
BLOCK_RECORD
  5
1F84
330
1
100
AcDbSymbolTableRecord
100
AcDbBlockTableRecord
  2
*D8
340
0
  0
BLOCK_RECORD
  5
1F90
330
1
100
AcDbSymbolTableRecord
100
AcDbBlockTableRecord
  2
*D9
340
0
  0
BLOCK_RECORD
  5
1F9C
330
1
100
AcDbSymbolTableRecord
100
AcDbBlockTableRecord
  2
*D10
340
0
  0
BLOCK_RECORD
  5
1FA8
330
1
100
AcDbSymbolTableRecord
100
AcDbBlockTableRecord
  2
*D11
340
0
  0
BLOCK_RECORD
  5
1FB4
330
1
100
AcDbSymbolTableRecord
100
AcDbBlockTableRecord
  2
*D12
340
0
  0
BLOCK_RECORD
  5
1FC0
330
1
100
AcDbSymbolTableRecord
100
AcDbBlockTableRecord
  2
*D13
340
0
  0
BLOCK_RECORD
  5
1FCC
330
1
100
AcDbSymbolTableRecord
100
AcDbBlockTableRecord
  2
*D14
340
0
  0
BLOCK_RECORD
  5
2050
330
1
100
AcDbSymbolTableRecord
100
AcDbBlockTableRecord
  2
*D15
340
0
  0
BLOCK_RECORD
  5
2068
330
1
100
AcDbSymbolTableRecord
100
AcDbBlockTableRecord
  2
*D16
340
0
  0
BLOCK_RECORD
  5
2163
102
{ACAD_XDICTIONARY
360
2164
102
}
330
1
100
AcDbSymbolTableRecord
100
AcDbBlockTableRecord
  2
A-FB68-17 waschli
340
0
310
2800000020000000200000000100080000000000000400000000000000000000000000000000000000000000000080000080000000808000800000008000800080800000C0C0C000C0DCC000F0CAA6000020400000206000002080000020A0000020C0000020E00000400000004020000040400000406000004080000040A0
310
000040C0000040E00000600000006020000060400000606000006080000060A0000060C0000060E00000800000008020000080400000806000008080000080A0000080C0000080E00000A0000000A0200000A0400000A0600000A0800000A0A00000A0C00000A0E00000C0000000C0200000C0400000C0600000C0800000C0
310
A00000C0C00000C0E00000E0000000E0200000E0400000E0600000E0800000E0A00000E0C00000E0E00040000000400020004000400040006000400080004000A0004000C0004000E00040200000402020004020400040206000402080004020A0004020C0004020E000404000004040200040404000404060004040800040
310
40A0004040C0004040E00040600000406020004060400040606000406080004060A0004060C0004060E00040800000408020004080400040806000408080004080A0004080C0004080E00040A0000040A0200040A0400040A0600040A0800040A0A00040A0C00040A0E00040C0000040C0200040C0400040C0600040C08000
310
40C0A00040C0C00040C0E00040E0000040E0200040E0400040E0600040E0800040E0A00040E0C00040E0E00080000000800020008000400080006000800080008000A0008000C0008000E00080200000802020008020400080206000802080008020A0008020C0008020E00080400000804020008040400080406000804080
310
008040A0008040C0008040E00080600000806020008060400080606000806080008060A0008060C0008060E00080800000808020008080400080806000808080008080A0008080C0008080E00080A0000080A0200080A0400080A0600080A0800080A0A00080A0C00080A0E00080C0000080C0200080C0400080C0600080C0
310
800080C0A00080C0C00080C0E00080E0000080E0200080E0400080E0600080E0800080E0A00080E0C00080E0E000C0000000C0002000C0004000C0006000C0008000C000A000C000C000C000E000C0200000C0202000C0204000C0206000C0208000C020A000C020C000C020E000C0400000C0402000C0404000C0406000C0
310
408000C040A000C040C000C040E000C0600000C0602000C0604000C0606000C0608000C060A000C060C000C060E000C0800000C0802000C0804000C0806000C0808000C080A000C080C000C080E000C0A00000C0A02000C0A04000C0A06000C0A08000C0A0A000C0A0C000C0A0E000C0C00000C0C02000C0C04000C0C06000
310
C0C08000C0C0A000F0FBFF00A4A0A000808080000000FF0000FF000000FFFF00FF000000FF00FF00FFFF0000FFFFFF000808080808080808080808080808080808080808080808080808080808080808080808080808080808080808A4A4080808080808080808080808080808080808080808080808080808080808A4A408
310
0808080808080808080808080808080808080808080808080808080808A4A4080808080808080808080808080808080808080808080808080808080808A4A4080808080808080808080808080808080808080808080808080808080808A4A4080808080808080808080808080808080808080808080808080808080808A4A4
310
080808080808080808080808080808080808080808080808080808080808A4A4080808080808080808080808080808080808080808080808080808080808A4A4080808080808080808080808080808080808080808080808080808080808A4A4A4A4A4A4A408080808080808080808080808080808080808080808080808A4
310
A4A4A4A4A4A408080808080808080808080808080808080808080808080808A4A4A4080808A408080808080808080808080808080808080808080808080808A4A4A40808080808080808080808080808080808080808080808080808080808A4A408080808A4A4080808080808080808080808080808080808080808080808
310
A4A4A4080808A408080808080808080808080808080808080808080808080808A4A4A40808080808080808080808080808080808080808080808080808080808A4A4A4080808A408080808080808080808080808080808080808080808080808A4A4A4A4A4A4A4080808080808080808080808080808080808080808080808
310
08A4A4A4A4A4A4A408080808080808080808080808080808080808080808080808A4A408080808A4A4080808080808080808080808080808080808080808080808A4A408080808A4A4080808080808080808080808080808080808080808080808A4A408080808080808080808080808080808080808080808080808080808
310
0808A4A4080808080808080808080808080808080808080808080808080808080808A4A4080808080808080808080808080808080808080808080808080808080808A4A4A4A408080808080808080808080808080808080808080808080808080808A4A4A4A408080808080808080808080808080808080808080808080808
310
080808A4A4A4A408080808080808080808080808080808080808080808080808080808A4A4A40808080808080808080808080808080808080808080808080808080808A4A4A40808080808080808080808080808080808080808080808080808080808A4A4A4A4080808080808080808080808080808080808080808080808
310
08080808A4A4A408080808080808080808080808080808080808080808080808080808080808080808080808080808080808080808080808
102
{BLKREFS
331
21BB
331
21BE
331
21C1
331
21C4
102
}
1001
AcDbDynamicBlockGUID
1000
{0DF694F0-C87B-4463-97F5-B5E3F00FE920}
1001
AcDbBlockRepETag
1070
     1
1071
       69
1001
ACAD
1000
DesignCenter Data
1002
{
1070
     1
1070
     4
1002
}
  0
BLOCK_RECORD
  5
22B3
330
1
100
AcDbSymbolTableRecord
100
AcDbBlockTableRecord
  2
D-429.311
340
0
310
2800000020000000200000000100080000000000000400000000000000000000000000000000000000000000000080000080000000808000800000008000800080800000C0C0C000C0DCC000F0CAA6000020400000206000002080000020A0000020C0000020E00000400000004020000040400000406000004080000040A0
310
000040C0000040E00000600000006020000060400000606000006080000060A0000060C0000060E00000800000008020000080400000806000008080000080A0000080C0000080E00000A0000000A0200000A0400000A0600000A0800000A0A00000A0C00000A0E00000C0000000C0200000C0400000C0600000C0800000C0
310
A00000C0C00000C0E00000E0000000E0200000E0400000E0600000E0800000E0A00000E0C00000E0E00040000000400020004000400040006000400080004000A0004000C0004000E00040200000402020004020400040206000402080004020A0004020C0004020E000404000004040200040404000404060004040800040
310
40A0004040C0004040E00040600000406020004060400040606000406080004060A0004060C0004060E00040800000408020004080400040806000408080004080A0004080C0004080E00040A0000040A0200040A0400040A0600040A0800040A0A00040A0C00040A0E00040C0000040C0200040C0400040C0600040C08000
310
40C0A00040C0C00040C0E00040E0000040E0200040E0400040E0600040E0800040E0A00040E0C00040E0E00080000000800020008000400080006000800080008000A0008000C0008000E00080200000802020008020400080206000802080008020A0008020C0008020E00080400000804020008040400080406000804080
310
008040A0008040C0008040E00080600000806020008060400080606000806080008060A0008060C0008060E00080800000808020008080400080806000808080008080A0008080C0008080E00080A0000080A0200080A0400080A0600080A0800080A0A00080A0C00080A0E00080C0000080C0200080C0400080C0600080C0
310
800080C0A00080C0C00080C0E00080E0000080E0200080E0400080E0600080E0800080E0A00080E0C00080E0E000C0000000C0002000C0004000C0006000C0008000C000A000C000C000C000E000C0200000C0202000C0204000C0206000C0208000C020A000C020C000C020E000C0400000C0402000C0404000C0406000C0
310
408000C040A000C040C000C040E000C0600000C0602000C0604000C0606000C0608000C060A000C060C000C060E000C0800000C0802000C0804000C0806000C0808000C080A000C080C000C080E000C0A00000C0A02000C0A04000C0A06000C0A08000C0A0A000C0A0C000C0A0E000C0C00000C0C02000C0C04000C0C06000
310
C0C08000C0C0A000F0FBFF00A4A0A000808080000000FF0000FF000000FFFF00FF000000FF00FF00FFFF0000FFFFFF000808080808080808080808080808080808080808080808080808080808080808080808080808080808080808080808FDFDFDFDFDFDFD08080808080808080808080808080808080808080808080808
310
FD08FDFD08FDFDFD080808080808080808080808080808080808080808080808FD08FDFD0808FDFD080808080808080808080808080808080808080808080808FD08FD08FDFD08FD080808080808080808080808080808080808080808080808FDFD0808FDFDFD0808080808080808080808080808080808080808FDFD0808
310
08FD08FDFDFD080808080808080808080808080808080808080808FDFDFDFDFDFDFD08FDFD080808080808080808080808080808080808080808FDFD0808FDFD08FDFD08FD080808080808080808080808080808080808080808FDFDFDFDFDFD08FDFD08FD0808080808080808080808080808080808080808FDFD080808FD
310
08FD0808FDFD0808080808080808080808080808080808080808FDFD080808FD0808FD08FDFD080808080808080808080808080808080808080808FDFDFDFDFD080808FD08FD080808080808080808080808080808080808080808FDFD08FD08FD08FD08FDFD08080808080808080808080808080808080808080808FDFDFD
310
FDFDFDFD0808FD0808080808080808080808080808080808080808080808FDFD080808FD08FDFD08080808080808080808080808080808080808080808080808080808FDFD08FD08080808080808080808080808080808080808080808080808080808FD08FDFDFD0808080808080808080808080808080808080808080808
310
08080808FD08FDFDFD080808080808080808080808080808080808080808080808080808FDFD0808FDFD0808080808080808080808080808080808080808080808080808FD08FDFD08FD0808080808080808080808080808080808080808080808080808FD08FDFD0808FD0808080808080808080808080808080808080808
310
080808080808FD0808FDFDFD080808080808080808080808080808080808080808080808080808FD08FDFD08FD080808080808080808080808080808080808080808080808080808FD0808FDFD08080808080808080808080808080808080808080808080808080808FDFDFDFDFD0808080808080808080808080808080808
310
08080808080808080808FDFD0808FD0808080808080808080808080808080808080808080808080808080808FDFD08FD08080808080808080808080808080808080808080808080808080808FDFD08FD080808080808080808080808080808080808080808080808080808080808FD08080808080808080808080808080808
310
0808080808080808080808080808080808080808080808080808080808080808080808080808080808080808080808080808080808080808
102
{BLKREFS
331
22E1
331
22E2
102
}
1001
ACAD
1000
DesignCenter Data
1002
{
1070
     1
1070
     4
1002
}
  0
ENDTAB
  0
ENDSEC
  0
SECTION
  2
BLOCKS
  0
BLOCK
  5
20
330
1F
100
AcDbEntity
  8
0
100
AcDbBlockBegin
  2
*Model_Space
 70
     0
 10
0.0
 20
0.0
 30
0.0
  3
*Model_Space
  1

  0
ENDBLK
  5
21
330
1F
100
AcDbEntity
  8
0
100
AcDbBlockEnd
  0
BLOCK
  5
1CC4
330
1CC3
100
AcDbEntity
 67
     1
  8
0
100
AcDbBlockBegin
  2
*Paper_Space
 70
     0
 10
0.0
 20
0.0
 30
0.0
  3
*Paper_Space
  1

  0
ENDBLK
  5
1CC7
330
1CC3
100
AcDbEntity
 67
     1
  8
0
100
AcDbBlockEnd
  0
BLOCK
  5
118
330
117
100
AcDbEntity
  8
0
 62
     1
 48
0.3
100
AcDbBlockBegin
  2
_Oblique
 70
     0
 10
0.0
 20
0.0
 30
0.0
  3
_Oblique
  1

  0
LINE
  5
119
330
117
100
AcDbEntity
  8
0
  6
ByBlock
 62
     0
370
    -2
100
AcDbLine
 10
-0.5
 20
-0.5
 30
0.0
 11
0.5
 21
0.5
 31
0.0
  0
ENDBLK
  5
11A
330
117
100
AcDbEntity
  8
0
 62
     1
 48
0.3
100
AcDbBlockEnd
  0
BLOCK
  5
1D5B
330
1D5A
100
AcDbEntity
  8
0
100
AcDbBlockBegin
  2
D-Blendrahmendichtung
 70
     0
 10
0.0
 20
0.0
 30
0.0
  3
D-Blendrahmendichtung
  1

  0
LWPOLYLINE
  5
2122
102
{ACAD_REACTORS
330
2125
102
}
330
1D5A
100
AcDbEntity
  8
Dichtungen
100
AcDbPolyline
 90
       69
 70
     1
 43
0.0
 10
-2.5
 20
0.0
 10
-2.5
 20
0.2815661975205334
 42
0.4400105308918322
 10
-3.587155742747651
 20
1.277760895612259
 10
-7.269724594198119
 20
0.9555778684567286
 42
0.4475114964228972
 10
-7.984116722640802
 20
0.0
 10
-10.49999999999999
 20
0.0
 42
0.4143000035343198
 10
-10.99999999999999
 20
-0.5
 10
-10.99999999999999
 20
-1.200073769008324
 42
0.4142567794639094
 10
-10.49999999999999
 20
-1.700000000000398
 10
-10.19999999999999
 20
-1.700000000003754
 42
-0.5643074936854307
 10
-10.02299999999996
 20
-1.993100000001176
 10
-10.97699999999997
 20
-3.806900000001076
 42
0.5643075145793393
 10
-10.80000000000001
 20
-4.100000000000048
 10
-10.19999999999999
 20
-4.100000000007411
 42
-0.5773418094738374
 10
-10.02679999999998
 20
-4.400000000001112
 10
-10.86810749755903
 20
-5.857146970205178
 42
-0.56836091692411
 10
-12.10326363603354
 20
-5.864663840983437
 10
-13.35965691389554
 20
-3.749809999999552
 42
-0.577312004457135
 10
-13.09975691389774
 20
-3.300000000000748
 10
-12.59975691389774
 20
-3.300000000000748
 42
0.4140999845020091
 10
-12.39975691389776
 20
-3.099999999999993
 10
-12.39975691389776
 20
-2.099999999999794
 42
0.4142135528361644
 10
-12.59975691389752
 20
-1.899999999999791
 10
-13.09975691389774
 20
-1.899999999994788
 42
-0.4140251152132775
 10
-13.39978223297373
 20
-1.600335198305925
 10
-13.40043321093145
 20
-0.2071396995019654
 10
-16.80000000000001
 20
-0.2071396995019654
 42
0.4282829180303449
 10
-17.10000000000002
 20
-0.5071396995019768
 10
-17.09999999999786
 20
-0.7226487407663599
 42
-0.2961518202965587
 10
-17.35000000000002
 20
-1.155658740765332
 10
-17.89999999999793
 20
-1.473198740768907
 42
-0.5773917935328236
 10
-18.19999999999993
 20
-1.299998740766054
 10
-18.20000000000021
 20
-0.4280118942413509
 42
-0.3842309611622337
 10
-16.37431148549528
 20
1.564377501942144
 10
0.0697245941981404
 20
3.003044241526588
 42
0.2446984503078079
 10
0.692820323027661
 20
3.39999999999999
 10
1.292685263913539
 20
5.753525616969808
 42
-0.1564480532895918
 10
2.08894335499127
 20
7.861643121785432
 42
-0.2167150886309493
 10
6.074783939038812
 20
8.980395244810935
 42
-0.3476235919692248
 10
6.49848858847474
 20
8.486250510680816
 10
6.49848858847474
 20
6.26075597375329
 42
-1.000000000008684
 10
5.598488588474768
 20
6.26075597375329
 10
5.598488588474768
 20
7.529669238547512
 42
-0.2679491856857235
 10
5.698488589149119
 20
7.702874318136422
 42
2.138612309306378
 10
5.410263020799
 20
7.80846922572941
 42
-0.2164663196749481
 10
5.390060242326743
 20
7.561160370723453
 42
0.1746166629011057
 10
4.995711479412651
 20
2.102356520505009
 42
0.3755531209354241
 10
5.70064333086146
 20
1.311174479674573
 10
6.678949633840037
 20
1.191051992337134
 42
-0.3264565885905406
 10
7.708462174014695
 20
0.2399827931377277
 42
-0.4907974309460493
 10
7.512503384180837
 20
0.0
 10
3.367010015829178
 20
0.0
 42
0.4508376905641569
 10
2.000000000000166
 20
-1.200000000000712
 10
2.0
 20
-2.298929776861541
 42
0.5962761649861177
 10
2.401031835637699
 20
-2.581405561935595
 42
0.2166820304421538
 10
4.338563972604678
 20
-0.9972797199113616
 42
-0.9323111488760126
 10
4.980682648233087
 20
-1.271659848163649
 42
-0.1897173411875548
 10
3.121215580476298
 20
-3.440416595796575
 10
2.159593658374889
 20
-3.949696432455055
 42
0.2777666713106829
 10
1.999999999998749
 20
-4.214811613520636
 10
2.0
 20
-5.198929776861488
 42
0.5962761600744662
 10
2.401031836056411
 20
-5.481405560075856
 42
0.2071651829911452
 10
4.338563972604902
 20
-3.897279719911493
 42
-0.9323111799440193
 10
4.980682627737738
 20
-4.171659841056579
 42
-0.1897173559927194
 10
3.121215575403708
 20
-6.340416573935981
 10
1.761629995109668
 20
-7.060459995480499
 42
-0.1223685211958222
 10
1.20000137581235
 20
-7.200000817233072
 42
-0.4142134338726727
 10
0.0
 20
-6.000000000001062
 10
0.0
 20
0.0
1001
ACAD
1000
ASC_BOUNDS
1002
{
1070
    19
1005
0
1002
}
1001
AcDbBlockRepETag
1070
     1
1071
        0
1005
2122
  0
LWPOLYLINE
  5
2123
102
{ACAD_REACTORS
330
2125
102
}
330
1D5A
100
AcDbEntity
  8
Dichtungen
100
AcDbPolyline
 90
       11
 70
     0
 43
0.0
 10
4.05191820329998
 20
3.821937130577461
 42
-0.103344934103788
 10
4.401837616028386
 20
7.420045119607691
 42
0.7327695739736769
 10
4.045798151375102
 20
7.867883686354915
 42
0.0448481752388963
 10
3.186540994065347
 20
7.54510601134512
 42
0.1867433841735613
 10
2.366183798844078
 20
5.792089510399872
 42
0.0587832126300672
 10
2.022457655978989
 20
3.789223892353986
 42
-0.2742964856017739
 10
1.784291416503609
 20
3.596899908260581
 42
0.9305264389495295
 10
1.82730820944357
 20
3.000000000003636
 10
3.97140249253016
 20
2.999999999999996
 42
0.7091516133377716
 10
4.159205863562931
 20
3.533944214798125
 42
-0.2755527391168689
 10
4.051918167622086
 20
3.821937089002388
1001
ACAD
1000
ASC_BOUNDS
1002
{
1070
    19
1005
0
1002
}
1001
AcDbBlockRepETag
1070
     1
1071
        1
1005
2123
  0
LWPOLYLINE
  5
2124
102
{ACAD_REACTORS
330
2125
102
}
330
1D5A
100
AcDbEntity
  8
Dichtungen
100
AcDbPolyline
 90
        8
 70
     1
 43
0.0
 10
1.60000000000002
 20
1.00000000000197
 42
-0.4142135395961943
 10
1.30000000000001
 20
1.299999999999992
 10
1.30000000000001
 20
1.900000000000045
 42
-0.4142135623730953
 10
1.60000000000002
 20
2.200000000000001
 10
3.798377714835508
 20
2.200000000000001
 42
-0.4142135623730951
 10
4.09837771483547
 20
1.900000000000045
 10
4.09837771483547
 20
1.299999999999992
 42
-0.4142135623730951
 10
3.798377714835508
 20
0.9999999999999847
1001
ACAD
1000
ASC_BOUNDS
1002
{
1070
    19
1005
0
1002
}
1001
AcDbBlockRepETag
1070
     1
1071
        2
1005
2124
  0
HATCH
  5
2125
330
1D5A
100
AcDbEntity
  8
Dichtungen
100
AcDbHatch
 10
0.0
 20
0.0
 30
0.0
210
0.0
220
0.0
230
1.0
  2
ANSI37
 70
     0
 71
     1
 91
        3
 92
       16
 93
        8
 72
     2
 10
1.600000011663805
 20
1.300000011665769
 40
0.3000000116637966
 50
90.00000222761913
 51
179.9999977720011
 73
     0
 72
     1
 10
1.30000000000001
 20
1.299999999999992
 11
1.30000000000001
 21
1.900000000000045
 72
     2
 10
1.599999999999993
 20
1.900000000000019
 40
0.299999999999982
 50
180.0000000000051
 51
270.0000000000052
 73
     0
 72
     1
 10
1.60000000000002
 20
2.200000000000001
 11
3.798377714835508
 21
2.200000000000001
 72
     2
 10
3.798377714835513
 20
1.900000000000043
 40
0.2999999999999581
 50
269.9999999999993
 51
359.9999999999994
 73
     0
 72
     1
 10
4.09837771483547
 20
1.900000000000045
 11
4.09837771483547
 21
1.299999999999992
 72
     2
 10
3.798377714835486
 20
1.299999999999968
 40
0.2999999999999852
 50
359.9999999999955
 51
449.9999999999955
 73
     0
 72
     1
 10
3.798377714835508
 20
0.9999999999999847
 11
1.60000000000002
 21
1.00000000000197
 97
        1
330
2124
 92
       16
 93
       10
 72
     2
 10
12.8380391519913
 20
4.783547531400754
 40
8.838586758526725
 50
173.7540360823825
 51
197.355166877031
 73
     0
 72
     2
 10
4.15306880494882
 20
7.587717652490692
 40
0.2999999994155695
 50
326.0196570584358
 51
470.9509653922085
 73
     1
 72
     2
 10
5.41183044169441
 20
2.926317738644632
 40
5.126901426179835
 50
105.452775114765
 51
115.7243368460294
 73
     1
 72
     2
 10
5.041346780690226
 20
5.608655520928086
 40
2.681444574838999
 50
133.766326074618
 51
176.0774098522467
 73
     1
 72
     2
 10
10.68290400877498
 20
3.333870003655857
 40
8.672409019044824
 50
163.5336067093684
 51
176.9902412774039
 73
     1
 72
     2
 10
1.741274570123136
 20
3.893799938942647
 40
0.3000001288191938
 50
20.40089402209949
 51
81.75597445656299
 73
     0
 72
     2
 10
1.827308213621883
 20
3.300000000302931
 40
0.3000000002992937
 50
98.24401959312591
 51
269.9999992020009
 73
     1
 72
     1
 10
1.82730820944357
 20
3.000000000003636
 11
3.97140249253016
 21
2.999999999999996
 72
     2
 10
3.971732579869268
 20
3.299883900585657
 40
0.2998840822519985
 50
269.9369335808736
 51
411.3066185856293
 73
     1
 72
     2
 10
4.347009237499942
 20
3.767888419536316
 40
0.2999999969878496
 50
128.7564492662858
 51
190.3792095796003
 73
     0
 97
        1
330
2123
 92
        1
 93
       69
 72
     1
 10
-2.5
 20
0.0
 11
-2.5
 21
0.2815661975205334
 72
     2
 10
-3.49999999999999
 20
0.2815661975205242
 40
0.9999999999999902
 50
0.0000000000005216
 51
95.0000000000003
 73
     1
 72
     1
 10
-3.587155742747651
 20
1.277760895612259
 11
-7.269724594198119
 21
0.9555778684567286
 72
     2
 10
-7.200000008507152
 20
0.158622111895456
 40
0.7999999973537048
 50
94.99999940497373
 51
191.4362581817403
 73
     1
 72
     1
 10
-7.984116722640802
 20
0.0
 11
-10.49999999999999
 21
0.0
 72
     2
 10
-10.50007376900648
 20
-0.499926230993516
 40
0.4999262364361851
 50
89.99154544723266
 51
180.0084545527674
 73
     1
 72
     1
 10
-10.99999999999999
 20
-0.5
 11
-10.99999999999999
 21
-1.200073769008324
 72
     2
 10
-10.50007376387169
 20
-1.200073769314004
 40
0.4999262361283068
 50
179.9999999649666
 51
270.0084539642821
 73
     1
 72
     1
 10
-10.49999999999999
 20
-1.700000000000398
 11
-10.19999999999999
 21
-1.700000000003754
 72
     2
 10
-10.19999978705845
 20
-1.899994088400585
 40
0.1999940883969468
 50
269.9999389949402
 51
387.745390358798
 73
     0
 72
     1
 10
-10.02299999999996
 20
-1.993100000001176
 11
-10.97699999999997
 21
-3.806900000001076
 72
     2
 10
-10.80000021927982
 20
-3.900005915430377
 40
0.199994084569792
 50
152.2546078250797
 51
270.0000628208974
 73
     1
 72
     1
 10
-10.80000000000001
 20
-4.100000000000048
 11
-10.19999999999999
 21
-4.100000000007411
 72
     2
 10
-10.20000507831923
 20
-4.299999998554961
 40
0.1999999986120256
 50
270.0014548313094
 51
390.0000007079514
 73
     0
 72
     1
 10
-10.02679999999998
 20
-4.400000000001112
 11
-10.86810749755903
 21
-5.857146970205178
 72
     2
 10
-11.48792387382989
 20
-5.493111578362617
 40
0.7188143757657473
 50
30.4269007075724
 51
148.8757305300265
 73
     0
 72
     1
 10
-12.10326363603354
 20
-5.864663840983437
 11
-13.35965691389554
 21
-3.749809999999552
 72
     2
 10
-13.09984073888996
 20
-3.599941612979054
 40
0.2999416246916351
 50
150.0225898422382
 51
270.0160125102316
 73
     0
 72
     1
 10
-13.09975691389774
 20
-3.300000000000748
 11
-12.59975691389774
 21
-3.300000000000748
 72
     2
 10
-12.59979570088719
 20
-3.099961213011311
 40
0.2000387907497822
 50
270.011109499318
 51
359.9888905009024
 73
     1
 72
     1
 10
-12.39975691389776
 20
-3.099999999999993
 11
-12.39975691389776
 21
-2.099999999999794
 72
     2
 10
-12.59975691715375
 20
-2.100000003255783
 40
0.2000000032559921
 50
0.0000009327721974
 51
89.99999906715755
 73
     1
 72
     1
 10
-12.59975691389752
 20
-1.899999999999791
 11
-13.09975691389774
 21
-1.899999999994788
 72
     2
 10
-13.09984073314469
 20
-1.60005838414245
 40
0.2999416275640596
 50
89.98398858740193
 51
179.947122092866
 73
     0
 72
     1
 10
-13.39978223297373
 20
-1.600335198305925
 11
-13.40043321093145
 21
-0.2071396995019654
 72
     1
 10
-13.40043321093145
 20
-0.2071396995019654
 11
-16.80000000000001
 21
-0.2071396995019654
 72
     2
 10
-16.80700333102028
 20
-0.5001363684817016
 40
0.2930803553270001
 50
88.63075262739945
 51
181.3692473726005
 73
     1
 72
     1
 10
-17.10000000000002
 20
-0.5071396995019768
 11
-17.09999999999786
 21
-0.7226487407663599
 72
     2
 10
-17.55847124758113
 20
-0.7466228248598235
 40
0.4590976383828238
 50
357.0066522237143
 51
422.9936573923228
 73
     0
 72
     1
 10
-17.35000000000002
 20
-1.155658740765332
 11
-17.89999999999793
 21
-1.473198740768907
 72
     2
 10
-18.0000086583146
 20
-1.300008657019499
 40
0.199991341931165
 50
59.99570353984004
 51
180.0028409203401
 73
     0
 72
     1
 10
-18.19999999999993
 20
-1.299998740766054
 11
-18.20000000000021
 21
-0.4280118942413509
 72
     2
 10
-16.18219135650164
 20
-0.4443305094460739
 40
2.017874629153096
 50
180.4633578106878
 51
264.5366421893194
 73
     0
 72
     1
 10
-16.37431148549528
 20
1.564377501942144
 11
0.0697245941981422
 21
3.003044241526588
 72
     2
 10
0.0000000124347014
 20
3.799999980481601
 40
0.7999999794721338
 50
274.9999992346551
 51
330.0000007653373
 73
     1
 72
     1
 10
0.692820323027661
 20
3.39999999999999
 11
1.292685263913539
 21
5.753525616969808
 72
     2
 10
4.977079608837097
 20
5.566327500116007
 40
3.689146896486816
 50
182.9086047506741
 51
218.4755487284707
 73
     0
 72
     2
 10
5.311830438485511
 20
4.038947897287325
 40
4.999999993235464
 50
229.866000918075
 51
278.7770914055631
 73
     0
 72
     2
 10
5.974206939119057
 20
8.465430197067686
 40
0.5246948954488368
 50
281.0512307874219
 51
357.7258605244236
 73
     0
 72
     1
 10
6.49848858847474
 20
8.486250510680816
 11
6.49848858847474
 21
6.26075597375329
 72
     2
 10
6.048488588474755
 20
6.260755973749382
 40
0.4499999999999871
 50
359.9999999995024
 51
540.0000000004975
 73
     0
 72
     1
 10
5.598488588474768
 20
6.26075597375329
 11
5.598488588474768
 21
7.529669238547512
 72
     2
 10
5.798488592160742
 20
7.529669234862097
 40
0.2000000036859735
 50
180.0000010557927
 51
239.999999613419
 73
     0
 72
     2
 10
5.59848858915873
 20
7.876079399374003
 40
0.2000000004114893
 50
299.9999999287617
 51
559.7581668021047
 73
     1
 72
     2
 10
5.127924662725196
 20
7.707053966222473
 40
0.3000000055011172
 50
340.2418337277447
 51
389.0984653206877
 73
     0
 72
     2
 10
12.76999718709113
 20
4.284381298542314
 40
8.074698161329781
 50
156.0582142860195
 51
195.677946967419
 73
     1
 72
     2
 10
5.800572533738717
 20
2.109843071538278
 40
0.8048958722823959
 50
180.5329310005114
 51
262.8682289618158
 73
     1
 72
     1
 10
5.70064333086146
 20
1.311174479674573
 11
6.678949633840037
 21
1.191051992337134
 72
     2
 10
6.54299913988836
 20
0.0111409140137469
 40
1.187717428328792
 50
276.5726912438479
 51
348.8911420318873
 73
     0
 72
     2
 10
7.517687249769902
 20
0.1957639108867762
 40
0.1958325337326028
 50
346.9501057048256
 51
451.5168486654864
 73
     0
 72
     1
 10
7.512503384180837
 20
0.0
 11
3.367010015829178
 21
0.0
 72
     2
 10
3.213681650269203
 20
-1.203963983547696
 40
1.213688123599028
 50
82.74228225039605
 51
179.812867962803
 73
     1
 72
     1
 10
2.000000000000166
 20
-1.200000000000712
 11
2.0
 21
-2.298929776861541
 72
     2
 10
2.276840810512519
 20
-2.331808958885494
 40
0.2787864325532954
 50
173.2269551687829
 51
296.4534207284981
 73
     1
 72
     2
 10
1.62790289735442
 20
0.3411557483460841
 40
3.023093278012836
 50
284.817498097853
 51
333.7213520229748
 73
     1
 72
     2
 10
4.649999966911431
 20
-1.156990834040224
 40
0.3500000264658833
 50
207.1497323626806
 51
379.1247301576649
 73
     0
 72
     2
 10
1.295932902341572
 20
0.0060809612642792
 40
3.900000290503209
 50
19.12473587644632
 51
62.09407746194836
 73
     0
 72
     1
 10
3.121215580476298
 20
-3.440416595796575
 11
2.159593658374889
 21
-3.949696432455055
 72
     2
 10
2.299999992345107
 20
-4.214811608914002
 40
0.2999999923463608
 50
117.9059199780118
 51
180.000000879802
 73
     1
 72
     1
 10
1.999999999998749
 20
-4.214811613520636
 11
2.0
 21
-5.198929776861488
 72
     2
 10
2.276840811541803
 20
-5.231808955965023
 40
0.2787864332309721
 50
173.2269557897421
 51
296.4534205190403
 73
     1
 72
     2
 10
1.540171859936956
 20
-2.451541091026404
 40
3.149787072056251
 50
285.8611689880282
 51
332.6776810790004
 73
     1
 72
     2
 10
4.649999961496046
 20
-4.056990819042756
 40
0.350000014803316
 50
207.1497305826019
 51
379.1247321868343
 73
     0
 72
     2
 10
1.295933139349684
 20
-2.893919241943668
 40
3.899999978307363
 50
19.12473419661575
 51
62.09407905732807
 73
     0
 72
     1
 10
3.121215575403708
 20
-6.340416573935981
 11
1.761629995109668
 21
-7.060459995480499
 72
     2
 10
1.200001370487417
 20
-5.999999453029097
 40
1.200001364203974
 50
62.09393760466092
 51
89.99999974575358
 73
     0
 72
     2
 10
1.200001359759159
 20
-5.999999457473789
 40
1.200001359759282
 50
89.99999923351747
 51
179.9999740962601
 73
     0
 72
     1
 10
0.0
 20
-6.000000000001062
 11
0.0
 21
0.0
 72
     1
 10
0.0
 20
0.0
 11
-2.5
 21
0.0
 97
        1
330
2122
 75
     0
 76
     1
 52
0.0
 41
0.4
 77
     0
 78
     2
 53
45.0
 43
0.0
 44
0.0
 45
-0.898025612106915
 46
0.8980256121069153
 79
     0
 53
135.0
 43
0.0
 44
0.0
 45
-0.8980256121069153
 46
-0.898025612106915
 79
     0
 98
        1
 10
-377.6343276544029
 20
-86.69900988506254
1001
AcDbBlockRepETag
1070
     1
1071
        3
1005
2125
  0
ENDBLK
  5
1D60
330
1D5A
100
AcDbEntity
  8
0
100
AcDbBlockEnd
  0
BLOCK
  5
1DAC
330
1DAA
100
AcDbEntity
  8
0
100
AcDbBlockBegin
  2
C-MEH40
 70
     0
 10
0.0
 20
0.0
 30
0.0
  3
C-MEH40
  1

  0
LINE
  5
2139
330
1DAA
100
AcDbEntity
  8
Aluhalter
100
AcDbLine
 10
-1.620000000000124
 20
7.340625000000499
 30
0.0
 11
-6.075000000000049
 21
7.340625000000499
 31
0.0
1001
AcDbBlockRepETag
1070
     1
1071
        0
1005
2139
  0
LINE
  5
213A
330
1DAA
100
AcDbEntity
  8
Aluhalter
100
AcDbLine
 10
-1.620000000000124
 20
7.846875000000409
 30
0.0
 11
-6.075000000000049
 21
7.846875000000409
 31
0.0
1001
AcDbBlockRepETag
1070
     1
1071
        1
1005
213A
  0
LINE
  5
213B
330
1DAA
100
AcDbEntity
  8
Aluhalter
100
AcDbLine
 10
-5.768210474999937
 20
4.088975174999855
 30
0.0
 11
-3.569565712499982
 21
1.890337499999755
 31
0.0
1001
AcDbBlockRepETag
1070
     1
1071
        2
1005
213B
  0
LINE
  5
213C
330
1DAA
100
AcDbEntity
  8
Aluhalter
100
AcDbLine
 10
-5.768210474999937
 20
-4.092011662500225
 30
0.0
 11
-3.569565712499982
 21
-1.893375000000331
 31
0.0
1001
AcDbBlockRepETag
1070
     1
1071
        3
1005
213C
  0
LINE
  5
213D
330
1DAA
100
AcDbEntity
  8
Aluhalter
100
AcDbLine
 10
-1.620000000000124
 20
-7.846875000000409
 30
0.0
 11
-6.075000000000049
 21
-7.846875000000409
 31
0.0
1001
AcDbBlockRepETag
1070
     1
1071
        4
1005
213D
  0
LINE
  5
213E
330
1DAA
100
AcDbEntity
  8
Aluhalter
100
AcDbLine
 10
-3.569565712499982
 20
1.890337499999755
 30
0.0
 11
-3.569565712499982
 21
-1.893375000000331
 31
0.0
1001
AcDbBlockRepETag
1070
     1
1071
        5
1005
213E
  0
LINE
  5
213F
330
1DAA
100
AcDbEntity
  8
Aluhalter
100
AcDbLine
 10
0.0
 20
-9.618750000000542
 30
0.0
 11
0.0
 21
9.618750000000542
 31
0.0
1001
AcDbBlockRepETag
1070
     1
1071
        6
1005
213F
  0
LINE
  5
2140
330
1DAA
100
AcDbEntity
  8
Aluhalter
100
AcDbLine
 10
-1.620000000000124
 20
-7.846875000000409
 30
0.0
 11
-1.620000000000124
 21
7.846875000000409
 31
0.0
1001
AcDbBlockRepETag
1070
     1
1071
        7
1005
2140
  0
LINE
  5
2141
330
1DAA
100
AcDbEntity
  8
Aluhalter
100
AcDbLine
 10
3.999999999999948
 20
-9.618750000000542
 30
0.0
 11
3.999999999999948
 21
9.618750000000542
 31
0.0
1001
AcDbBlockRepETag
1070
     1
1071
        8
1005
2141
  0
LINE
  5
2142
330
1DAA
100
AcDbEntity
  8
Aluhalter
100
AcDbLine
 10
0.0
 20
-9.618750000000542
 30
0.0
 11
3.999999999999948
 21
-9.618750000000542
 31
0.0
1001
AcDbBlockRepETag
1070
     1
1071
        9
1005
2142
  0
LINE
  5
2143
330
1DAA
100
AcDbEntity
  8
Aluhalter
100
AcDbLine
 10
3.999999999999948
 20
-1.893375000000331
 30
0.0
 11
-3.569565712499982
 21
-1.893375000000331
 31
0.0
1001
AcDbBlockRepETag
1070
     1
1071
       10
1005
2143
  0
LINE
  5
2144
330
1DAA
100
AcDbEntity
  8
Aluhalter
100
AcDbLine
 10
-1.620000000000124
 20
-3.543749999999588
 30
0.0
 11
0.0
 21
-3.543749999999588
 31
0.0
1001
AcDbBlockRepETag
1070
     1
1071
       11
1005
2144
  0
LINE
  5
2145
330
1DAA
100
AcDbEntity
  8
Aluhalter
100
AcDbLine
 10
3.999999999999948
 20
1.890337499999755
 30
0.0
 11
-3.569565712499982
 21
1.890337499999755
 31
0.0
1001
AcDbBlockRepETag
1070
     1
1071
       12
1005
2145
  0
LINE
  5
2146
330
1DAA
100
AcDbEntity
  8
Aluhalter
100
AcDbLine
 10
-1.620000000000124
 20
3.5437500000005
 30
0.0
 11
0.0
 21
3.5437500000005
 31
0.0
1001
AcDbBlockRepETag
1070
     1
1071
       13
1005
2146
  0
LINE
  5
2147
330
1DAA
100
AcDbEntity
  8
Aluhalter
100
AcDbLine
 10
0.0
 20
9.618750000000542
 30
0.0
 11
3.999999999999948
 21
9.618750000000542
 31
0.0
1001
AcDbBlockRepETag
1070
     1
1071
       14
1005
2147
  0
LINE
  5
2148
330
1DAA
100
AcDbEntity
  8
Aluhalter
100
AcDbLine
 10
-5.768210474999937
 20
4.088975174999855
 30
0.0
 11
-5.768210474999937
 21
-4.092011662500225
 31
0.0
1001
AcDbBlockRepETag
1070
     1
1071
       15
1005
2148
  0
LINE
  5
2149
330
1DAA
100
AcDbEntity
  8
Aluhalter
100
AcDbLine
 10
-6.075000000000049
 20
-7.846875000000409
 30
0.0
 11
-6.075000000000049
 21
7.846875000000409
 31
0.0
1001
AcDbBlockRepETag
1070
     1
1071
       16
1005
2149
  0
LINE
  5
214A
330
1DAA
100
AcDbEntity
  8
Aluhalter
100
AcDbLine
 10
-5.768210474999937
 20
-4.092011662500225
 30
0.0
 11
-6.075000000000049
 21
-4.092011662500225
 31
0.0
1001
AcDbBlockRepETag
1070
     1
1071
       17
1005
214A
  0
LINE
  5
214B
330
1DAA
100
AcDbEntity
  8
Aluhalter
100
AcDbLine
 10
-5.768210474999937
 20
4.088975174999855
 30
0.0
 11
-6.075000000000049
 21
4.088975174999855
 31
0.0
1001
AcDbBlockRepETag
1070
     1
1071
       18
1005
214B
  0
LINE
  5
214C
330
1DAA
100
AcDbEntity
  8
Aluhalter
100
AcDbLine
 10
-1.620000000000124
 20
7.340625000000499
 30
0.0
 11
-6.075000000000049
 21
7.340625000000499
 31
0.0
1001
AcDbBlockRepETag
1070
     1
1071
       19
1005
214C
  0
LINE
  5
214D
330
1DAA
100
AcDbEntity
  8
Aluhalter
100
AcDbLine
 10
-1.620000000000124
 20
7.846875000000409
 30
0.0
 11
-6.075000000000049
 21
7.846875000000409
 31
0.0
1001
AcDbBlockRepETag
1070
     1
1071
       20
1005
214D
  0
LINE
  5
214E
330
1DAA
100
AcDbEntity
  8
Aluhalter
100
AcDbLine
 10
-5.768210474999937
 20
4.088975174999855
 30
0.0
 11
-3.569565712499982
 21
1.890337499999755
 31
0.0
1001
AcDbBlockRepETag
1070
     1
1071
       21
1005
214E
  0
LINE
  5
214F
330
1DAA
100
AcDbEntity
  8
Aluhalter
100
AcDbLine
 10
-5.768210474999937
 20
-4.092011662500225
 30
0.0
 11
-3.569565712499982
 21
-1.893375000000331
 31
0.0
1001
AcDbBlockRepETag
1070
     1
1071
       22
1005
214F
  0
LINE
  5
2150
330
1DAA
100
AcDbEntity
  8
Aluhalter
100
AcDbLine
 10
-1.620000000000124
 20
-7.846875000000409
 30
0.0
 11
-6.075000000000049
 21
-7.846875000000409
 31
0.0
1001
AcDbBlockRepETag
1070
     1
1071
       23
1005
2150
  0
LINE
  5
2151
330
1DAA
100
AcDbEntity
  8
Aluhalter
100
AcDbLine
 10
-3.569565712499982
 20
1.890337499999755
 30
0.0
 11
-3.569565712499982
 21
-1.893375000000331
 31
0.0
1001
AcDbBlockRepETag
1070
     1
1071
       24
1005
2151
  0
LINE
  5
2152
330
1DAA
100
AcDbEntity
  8
Aluhalter
100
AcDbLine
 10
0.0
 20
-9.618750000000542
 30
0.0
 11
0.0
 21
9.618750000000542
 31
0.0
1001
AcDbBlockRepETag
1070
     1
1071
       25
1005
2152
  0
LINE
  5
2153
330
1DAA
100
AcDbEntity
  8
Aluhalter
100
AcDbLine
 10
-1.620000000000124
 20
-7.846875000000409
 30
0.0
 11
-1.620000000000124
 21
7.846875000000409
 31
0.0
1001
AcDbBlockRepETag
1070
     1
1071
       26
1005
2153
  0
LINE
  5
2154
330
1DAA
100
AcDbEntity
  8
Aluhalter
100
AcDbLine
 10
3.999999999999948
 20
-9.618750000000542
 30
0.0
 11
3.999999999999948
 21
9.618750000000542
 31
0.0
1001
AcDbBlockRepETag
1070
     1
1071
       27
1005
2154
  0
LINE
  5
2155
330
1DAA
100
AcDbEntity
  8
Aluhalter
100
AcDbLine
 10
0.0
 20
-9.618750000000542
 30
0.0
 11
3.999999999999948
 21
-9.618750000000542
 31
0.0
1001
AcDbBlockRepETag
1070
     1
1071
       28
1005
2155
  0
LINE
  5
2156
330
1DAA
100
AcDbEntity
  8
Aluhalter
100
AcDbLine
 10
3.999999999999948
 20
-1.893375000000331
 30
0.0
 11
-3.569565712499982
 21
-1.893375000000331
 31
0.0
1001
AcDbBlockRepETag
1070
     1
1071
       29
1005
2156
  0
LINE
  5
2157
330
1DAA
100
AcDbEntity
  8
Aluhalter
100
AcDbLine
 10
-1.620000000000124
 20
-3.543749999999588
 30
0.0
 11
0.0
 21
-3.543749999999588
 31
0.0
1001
AcDbBlockRepETag
1070
     1
1071
       30
1005
2157
  0
LINE
  5
2158
330
1DAA
100
AcDbEntity
  8
Aluhalter
100
AcDbLine
 10
3.999999999999948
 20
1.890337499999755
 30
0.0
 11
-3.569565712499982
 21
1.890337499999755
 31
0.0
1001
AcDbBlockRepETag
1070
     1
1071
       31
1005
2158
  0
LINE
  5
2159
330
1DAA
100
AcDbEntity
  8
Aluhalter
100
AcDbLine
 10
-1.620000000000124
 20
3.5437500000005
 30
0.0
 11
0.0
 21
3.5437500000005
 31
0.0
1001
AcDbBlockRepETag
1070
     1
1071
       32
1005
2159
  0
LINE
  5
215A
330
1DAA
100
AcDbEntity
  8
Aluhalter
100
AcDbLine
 10
0.0
 20
9.618750000000542
 30
0.0
 11
3.999999999999948
 21
9.618750000000542
 31
0.0
1001
AcDbBlockRepETag
1070
     1
1071
       33
1005
215A
  0
LINE
  5
215B
330
1DAA
100
AcDbEntity
  8
Aluhalter
100
AcDbLine
 10
-5.768210474999937
 20
4.088975174999855
 30
0.0
 11
-5.768210474999937
 21
-4.092011662500225
 31
0.0
1001
AcDbBlockRepETag
1070
     1
1071
       34
1005
215B
  0
LINE
  5
215C
330
1DAA
100
AcDbEntity
  8
Aluhalter
100
AcDbLine
 10
-6.075000000000049
 20
-7.846875000000409
 30
0.0
 11
-6.075000000000049
 21
7.846875000000409
 31
0.0
1001
AcDbBlockRepETag
1070
     1
1071
       35
1005
215C
  0
LINE
  5
215D
330
1DAA
100
AcDbEntity
  8
Aluhalter
100
AcDbLine
 10
-5.768210474999937
 20
-4.092011662500225
 30
0.0
 11
-6.075000000000049
 21
-4.092011662500225
 31
0.0
1001
AcDbBlockRepETag
1070
     1
1071
       36
1005
215D
  0
LINE
  5
215E
330
1DAA
100
AcDbEntity
  8
Aluhalter
100
AcDbLine
 10
-5.768210474999937
 20
4.088975174999855
 30
0.0
 11
-6.075000000000049
 21
4.088975174999855
 31
0.0
1001
AcDbBlockRepETag
1070
     1
1071
       37
1005
215E
  0
ENDBLK
  5
1DD3
330
1DAA
100
AcDbEntity
  8
0
100
AcDbBlockEnd
  0
BLOCK
  5
1DD7
330
1DD4
100
AcDbEntity
  8
0
100
AcDbBlockBegin
  2
A-SB36-17
 70
     0
 10
0.0
 20
0.0
 30
0.0
  3
A-SB36-17
  1

  0
LWPOLYLINE
  5
1DD8
102
{ACAD_REACTORS
330
1DDB
102
}
330
1DD4
100
AcDbEntity
  8
Aluprofile
 48
2.0
100
AcDbPolyline
 90
       91
 70
     1
 43
0.0
 10
-8.799999999999926
 20
-1.90192798140583
 10
-14.79672548095507
 20
-1.90192798140583
 42
0.4142135623730951
 10
-15.29672548095507
 20
-2.401927981405833
 10
-15.29672548095502
 20
-3.901927981405776
 42
0.4142135623730896
 10
-14.79672548095502
 20
-4.401927981405775
 10
-10.19672544810075
 20
-4.40192798140583
 42
-0.4142135623730951
 10
-9.996725448100818
 20
-4.601927981405761
 10
-9.996725448100818
 20
-5.401927981405831
 42
-0.4142135623730951
 10
-10.19672544810075
 20
-5.60192798140576
 10
-14.79672548095502
 20
-5.60192798140576
 42
0.4142135623730951
 10
-15.29672548095502
 20
-6.101927981405762
 10
-15.29672548095502
 20
-8.468296578971202
 42
0.4142135623730951
 10
-15.09672548095508
 20
-8.668296578971192
 10
-14.89672545220023
 20
-8.668296578971192
 42
-0.4142135623730951
 10
-14.69672545220024
 20
-8.868296578971127
 10
-14.69672545220024
 20
-9.668296578971192
 42
0.4142135623730951
 10
-14.49672545220025
 20
-9.868296578971127
 10
-4.896725454205721
 20
-9.868296578971127
 42
0.4142135623730534
 10
-4.696725454205733
 20
-9.668296578971192
 10
-4.696725454205672
 20
-9.199999999999988
 42
-0.4142135623730951
 10
-4.496725454205686
 20
-9.0
 10
-2.099999999999937
 20
-9.0
 42
0.4142135623730951
 10
-1.599999999999934
 20
-8.5
 10
-1.599999999999994
 20
-6.300000000000013
 42
-0.4142135623731159
 10
-0.799999999999983
 20
-5.5
 10
-0.799999999999983
 20
-5.5
 42
-0.4142135623730951
 10
0.0000000000000284
 20
-6.300000000000013
 10
0.0000000000000284
 20
-9.199999999999931
 42
-0.4142135623730951
 10
-0.9999999999999715
 20
-10.19999999999993
 10
-3.296725454205868
 20
-10.20000000000004
 42
0.4142135623730534
 10
-3.496725454205857
 20
-10.39999999999998
 10
-3.496725454206028
 20
-10.86829657897118
 42
-0.4142135623730534
 10
-3.696725454206017
 20
-11.06829657897117
 10
-15.49672548095506
 20
-11.06829657897117
 42
-0.4142135623730951
 10
-16.49672548095506
 20
-10.06829657897117
 10
-16.49672548095506
 20
3.199573045745977
 42
-0.3152987888789791
 10
-14.52278591093207
 20
6.018650908103722
 10
-2.384363742013845
 20
10.43667526854699
 42
0.3152987888789836
 10
-1.200000000000017
 20
12.12812198596157
 10
-1.199999999999959
 20
13.68966564611298
 42
0.4142135623932738
 10
-1.700000000034407
 20
14.18966564611298
 42
-0.4142135623841334
 10
-2.200000000068794
 20
14.68966564609741
 10
-2.200000000084201
 20
15.18479957179329
 42
0.2679491924228303
 10
-2.450000000084314
 20
15.61781227366998
 10
-6.246725456299401
 20
17.80985273785302
 42
-0.2679491924311995
 10
-6.496725456299571
 20
18.24286543974529
 10
-6.496725456299742
 20
21.85198883813519
 42
-0.2679491924311465
 10
-6.246725455368419
 20
22.28500154056508
 10
-1.75000000016999
 20
24.88118719259569
 42
-0.5773502691896291
 10
-1.00000000016999
 20
24.44817449070354
 10
-1.000000000170047
 20
22.83073849816412
 42
-0.1989123673824263
 10
-1.058578643934225
 20
22.68931714192536
 10
-1.941421356375002
 20
21.80647442950328
 42
-0.1989123673767636
 10
-2.082842712610755
 20
21.74789578574212
 10
-2.200000000139334
 20
21.74789578574212
 42
-0.4142135623731785
 10
-2.400000000139439
 20
21.94789578574216
 10
-2.400000000139498
 20
22.60065363325634
 42
0.5773502691896978
 10
-2.849999996725586
 20
22.86046125242069
 10
-5.046725455368432
 20
21.59218121753759
 42
0.2679491924311519
 10
-5.296725456299752
 20
21.15916851403222
 10
-5.29672545629964
 20
18.93568576277299
 42
0.26794919243112
 10
-5.04672545629964
 20
18.50267306088074
 10
-2.849999998225456
 20
17.23439302632573
 42
0.5773502691896156
 10
-2.400000000139556
 20
17.49420064635603
 10
-2.400000000139439
 20
18.1478957857422
 42
-0.4142135623731785
 10
-2.200000000139397
 20
18.34789578574214
 10
-2.082842712635367
 20
18.34789578574202
 42
-0.1989123673796905
 10
-1.941421356398024
 20
18.28931714197938
 10
-1.058578643911715
 20
17.40647442949296
 42
-0.1989123673715652
 10
-1.000000000149069
 20
17.26505307326192
 10
-1.000000000096832
 20
15.58966564610659
 42
0.414213562363938
 10
-0.8000000000968441
 20
15.38966564611292
 10
-0.5000000000000285
 20
15.38966564611292
 42
-0.4142135623730951
 10
-0.0000000000000284
 20
14.88966564611291
 10
-0.0000000000000284
 20
6.300000000000068
 42
-0.4142135623730951
 10
-0.799999999999983
 20
5.5
 10
-0.799999999999983
 20
5.5
 42
-0.4142135623731054
 10
-1.599999999999994
 20
6.299999999999952
 10
-1.599999999999994
 20
9.159517395158216
 42
0.5205670505517838
 10
-1.868404028665139
 20
9.347455919315393
 10
-13.96446097603083
 20
4.944851238485398
 42
0.3152987888789911
 10
-14.29345090436803
 20
4.475004928092403
 10
-14.29345090436808
 20
2.675004927074374
 42
-0.4142135623730118
 10
-14.49345090436807
 20
2.475004927074451
 10
-15.09672548095503
 20
2.475004927074451
 42
0.4142135623730118
 10
-15.29672548095502
 20
2.275004927074404
 10
-15.29672548095507
 20
-0.2019279814057882
 42
0.4142135623730992
 10
-14.79672548095507
 20
-0.7019279814057882
 10
-8.799999999999926
 20
-0.7019279814057314
 42
-0.4142135623730951
 10
-8.599999999999937
 20
-0.9019279814057199
 10
-8.599999999999994
 20
-1.701927981405788
 42
-0.4142135623730946
1001
AcDbBlockRepETag
1070
     1
1071
        0
1005
1DD8
  0
LINE
  5
1DD9
330
1DD4
100
AcDbEntity
  8
Aluprofile
100
AcDbLine
 10
-0.0000000000000142
 20
1.0
 30
0.0
 11
0.0
 21
-1.0
 31
0.0
1001
AcDbBlockRepETag
1070
     1
1071
        1
1005
1DD9
  0
LINE
  5
1DDA
330
1DD4
100
AcDbEntity
  8
Aluprofile
100
AcDbLine
 10
-1.0
 20
0.0
 30
0.0
 11
1.0
 21
0.0
 31
0.0
1001
AcDbBlockRepETag
1070
     1
1071
        2
1005
1DDA
  0
HATCH
  5
1DDB
330
1DD4
100
AcDbEntity
  8
Aluprofile
100
AcDbHatch
 10
0.0
 20
0.0
 30
0.0
210
0.0
220
0.0
230
1.0
  2
DOLMIT
 70
     0
 71
     1
 91
        1
 92
        7
 72
     1
 73
     1
 93
       87
 10
-1.868404028665139
 20
9.347455919315393
 42
-0.5205670505517838
 10
-1.599999999999994
 20
9.159517395158216
 42
0.0
 10
-1.599999999999994
 20
6.299999999999952
 42
0.4142135623731054
 10
-0.799999999999983
 20
5.5
 42
0.4142135623730951
 10
-0.0000000000000284
 20
6.300000000000068
 42
0.0
 10
-0.0000000000000284
 20
14.88966564611291
 42
0.4142135623730951
 10
-0.5000000000000285
 20
15.38966564611292
 42
0.0
 10
-0.8000000000968441
 20
15.38966564611292
 42
-0.414213562363938
 10
-1.000000000096832
 20
15.58966564610659
 42
0.0
 10
-1.000000000149069
 20
17.26505307326192
 42
0.1989123673715652
 10
-1.058578643911715
 20
17.40647442949296
 42
0.0
 10
-1.941421356398024
 20
18.28931714197938
 42
0.2774713830258007
 10
-2.141421356387188
 20
18.33912481726231
 42
0.5042124932343551
 10
-2.400000000139439
 20
18.1478957857422
 42
0.0
 10
-2.400000000139556
 20
17.49420064635603
 42
-0.5773502691896156
 10
-2.849999998225456
 20
17.23439302632573
 42
0.0
 10
-5.04672545629964
 20
18.50267306088074
 42
-0.26794919243112
 10
-5.29672545629964
 20
18.93568576277299
 42
0.0
 10
-5.296725456299752
 20
21.15916851403222
 42
-0.2679491924311519
 10
-5.046725455368432
 20
21.59218121753759
 42
0.0
 10
-2.849999996725586
 20
22.86046125242069
 42
-0.5773502691896982
 10
-2.400000000139498
 20
22.60065363325634
 42
0.0
 10
-2.400000000139439
 20
21.94789578574216
 42
0.5042124932540335
 10
-2.141421356375099
 20
21.75666675422563
 42
0.2774713830403685
 10
-1.941421356375002
 20
21.80647442950328
 42
0.0
 10
-1.058578643934225
 20
22.68931714192536
 42
0.1989123673824263
 10
-1.000000000170047
 20
22.83073849816412
 42
0.0
 10
-1.00000000016999
 20
24.44817449070354
 42
0.5773502691896291
 10
-1.75000000016999
 20
24.88118719259569
 42
0.0
 10
-6.246725455368419
 20
22.28500154056508
 42
0.2679491924311466
 10
-6.496725456299742
 20
21.85198883813519
 42
0.0
 10
-6.496725456299571
 20
18.24286543974529
 42
0.2679491924311995
 10
-6.246725456299401
 20
17.80985273785302
 42
0.0
 10
-2.450000000084314
 20
15.61781227366998
 42
-0.2679491924228304
 10
-2.200000000084201
 20
15.18479957179329
 42
0.0
 10
-2.200000000068794
 20
14.68966564609741
 42
0.4142135623841475
 10
-1.700000000034379
 20
14.18966564611298
 42
-0.4142135623932603
 10
-1.199999999999959
 20
13.68966564611298
 42
0.0
 10
-1.200000000000017
 20
12.12812198596157
 42
-0.3152987888789836
 10
-2.384363742013845
 20
10.43667526854699
 42
0.0
 10
-14.52278591093207
 20
6.018650908103722
 42
0.3152987888789791
 10
-16.49672548095506
 20
3.199573045745977
 42
0.0
 10
-16.49672548095506
 20
-10.06829657897117
 42
0.4142135623730951
 10
-15.49672548095506
 20
-11.06829657897117
 42
0.0
 10
-3.696725454206017
 20
-11.06829657897117
 42
0.4142135623730533
 10
-3.496725454206028
 20
-10.86829657897118
 42
0.0
 10
-3.496725454205857
 20
-10.39999999999998
 42
-0.4142135623730533
 10
-3.296725454205868
 20
-10.20000000000004
 42
0.0
 10
-0.9999999999999715
 20
-10.19999999999993
 42
0.4142135623730951
 10
0.0000000000000284
 20
-9.199999999999931
 42
0.0
 10
0.0000000000000284
 20
-6.300000000000013
 42
0.4142135623730951
 10
-0.799999999999983
 20
-5.5
 42
0.4142135623731159
 10
-1.599999999999994
 20
-6.300000000000013
 42
0.0
 10
-1.599999999999934
 20
-8.5
 42
-0.4142135623730951
 10
-2.099999999999937
 20
-9.0
 42
0.0
 10
-4.496725454205686
 20
-9.0
 42
0.4142135623730951
 10
-4.696725454205672
 20
-9.199999999999988
 42
0.0
 10
-4.696725454205733
 20
-9.668296578971192
 42
-0.4142135623730533
 10
-4.896725454205721
 20
-9.868296578971127
 42
0.0
 10
-14.49672545220025
 20
-9.868296578971127
 42
-0.4142135623730951
 10
-14.69672545220024
 20
-9.668296578971192
 42
0.0
 10
-14.69672545220024
 20
-8.868296578971127
 42
0.4142135623730951
 10
-14.89672545220023
 20
-8.668296578971192
 42
0.0
 10
-15.09672548095508
 20
-8.668296578971192
 42
-0.4142135623730951
 10
-15.29672548095502
 20
-8.468296578971202
 42
0.0
 10
-15.29672548095502
 20
-6.101927981405762
 42
-0.4142135623730951
 10
-14.79672548095502
 20
-5.60192798140576
 42
0.0
 10
-10.19672544810075
 20
-5.60192798140576
 42
0.4142135623730951
 10
-9.996725448100818
 20
-5.401927981405831
 42
0.0
 10
-9.996725448100818
 20
-4.601927981405761
 42
0.4142135623730951
 10
-10.19672544810075
 20
-4.40192798140583
 42
0.0
 10
-14.79672548095502
 20
-4.401927981405775
 42
-0.4142135623730896
 10
-15.29672548095502
 20
-3.901927981405776
 42
0.0
 10
-15.29672548095507
 20
-2.401927981405833
 42
-0.4142135623730951
 10
-14.79672548095507
 20
-1.90192798140583
 42
0.0
 10
-8.799999999999926
 20
-1.90192798140583
 42
0.4142135623730946
 10
-8.599999999999994
 20
-1.701927981405788
 42
0.0
 10
-8.599999999999937
 20
-0.9019279814057199
 42
0.4142135623730951
 10
-8.799999999999926
 20
-0.7019279814057314
 42
0.0
 10
-14.79672548095507
 20
-0.7019279814057882
 42
-0.4142135623730991
 10
-15.29672548095507
 20
-0.2019279814057882
 42
0.0
 10
-15.29672548095502
 20
2.275004927074404
 42
-0.4142135623730118
 10
-15.09672548095503
 20
2.475004927074451
 42
0.0
 10
-14.49345090436807
 20
2.475004927074451
 42
0.4142135623730118
 10
-14.29345090436808
 20
2.675004927074374
 42
0.0
 10
-14.29345090436803
 20
4.475004928092403
 42
-0.315298788878991
 10
-13.96446097603083
 20
4.944851238485398
 42
0.0
 97
        1
330
1DD8
 75
     0
 76
     1
 52
120.0
 41
0.2
 77
     0
 78
     2
 53
120.0
 43
0.0
 44
0.0
 45
-1.099852262806237
 46
-0.6349999999999997
 79
     0
 53
165.0
 43
0.0
 44
0.0
 45
-0.9297038919127659
 46
-3.469702160612961
 79
     2
 49
1.796051999999999
 49
-3.592099999999998
 47
0.1046121566339098
 98
        1
 10
-8.53370186025495
 20
7.306082846348997
1001
ACAD
1010
0.0
1020
0.0
1030
0.0
1001
AcDbBlockRepETag
1070
     1
1071
        3
1005
1DDB
  0
ENDBLK
  5
1DDC
330
1DD4
100
AcDbEntity
  8
0
100
AcDbBlockEnd
  0
BLOCK
  5
1E57
330
1E55
100
AcDbEntity
  8
0
100
AcDbBlockBegin
  2
C-DC340
 70
     0
 10
0.0
 20
0.0
 30
0.0
  3
C-DC340
  1

  0
LWPOLYLINE
  5
212D
330
1E55
100
AcDbEntity
  8
Aluhalter
 48
2.0
100
AcDbPolyline
 90
        5
 70
     0
 43
0.0
 10
3.999999999999948
 20
-9.499999500000058
 10
3.999999999999948
 20
9.500000499999938
 10
0.0
 20
9.500000499999938
 10
0.0
 20
-9.499999500000058
 10
3.999999999999948
 20
-9.499999500000058
1001
AcDbBlockRepETag
1070
     1
1071
        0
1005
212D
  0
LINE
  5
212E
330
1E55
100
AcDbEntity
  8
Aluhalter
  6
DASHED
100
AcDbLine
 10
3.95
 20
1.900001499999915
 30
0.0
 11
-6.800003999999942
 21
1.900001499999915
 31
0.0
1001
AcDbBlockRepETag
1070
     1
1071
        1
1005
212E
  0
LINE
  5
212F
330
1E55
100
AcDbEntity
  8
Aluhalter
  6
DASHED
100
AcDbLine
 10
3.95
 20
-1.900001499999915
 30
0.0
 11
-6.800003999999942
 21
-1.900001499999915
 31
0.0
1001
AcDbBlockRepETag
1070
     1
1071
        2
1005
212F
  0
LWPOLYLINE
  5
2130
330
1E55
100
AcDbEntity
  8
Aluhalter
 48
2.0
100
AcDbPolyline
 90
       24
 70
     1
 43
0.0
 10
-2.303523090341514
 20
6.672257433148615
 42
-0.4931450015474532
 10
-1.799995999999964
 20
6.285886961236656
 10
-1.799995999999964
 20
4.736618921459919
 10
-4.392604918805091
 20
4.04194213667688
 42
0.8769781630551204
 10
-4.25543279276439
 20
3.000000921460468
 10
-2.000000999999883
 20
3.000000921460013
 42
0.4142135623730617
 10
-1.5
 20
3.500000921460013
 10
-1.5
 20
5.223808921459976
 10
-0.5
 20
5.223808921459976
 42
0.4142136083805532
 10
0.0
 20
5.723808999999846
 10
0.0
 20
-5.72380800000019
 42
0.4142135163655386
 10
-0.5
 20
-5.223808078540058
 10
-1.5
 20
-5.223808078540058
 10
-1.5
 20
-3.499999078539985
 42
0.4142135623730617
 10
-2.000000999999883
 20
-2.999999078539985
 10
-4.255380868979273
 20
-2.999999078539985
 42
0.8769759486295425
 10
-4.392555558272078
 20
-4.04193960693874
 10
-1.799995999999964
 20
-4.736617078539893
 10
-1.799995999999964
 20
-6.285886118320378
 42
-0.4931457712028546
 10
-2.303525000000036
 20
-6.672256078539928
 10
-5.317644235713487
 20
-5.864621675628312
 42
-0.3394539492208239
 10
-6.800003999999942
 20
-3.93277059793877
 10
-6.800003999999942
 20
3.932779440866622
 42
-0.3394546396546345
 10
-5.317639451707917
 20
5.864631800426195
1001
AcDbBlockRepETag
1070
     1
1071
        3
1005
2130
  0
ENDBLK
  5
1E5D
330
1E55
100
AcDbEntity
  8
0
100
AcDbBlockEnd
  0
BLOCK
  5
1F6A
330
1F60
100
AcDbEntity
  8
0
100
AcDbBlockBegin
  2
*D5
 70
     1
 10
0.0
 20
0.0
 30
0.0
  3
*D5
  1

  0
LINE
  5
1FD8
330
1F60
100
AcDbEntity
  8
Bemaßung
 62
     0
370
    -2
100
AcDbLine
 10
256.2484758237888
 20
134.9808310568925
 30
0.0
 11
263.0335738475661
 21
134.9808310568925
 31
0.0
  0
LINE
  5
1FD9
330
1F60
100
AcDbEntity
  8
Bemaßung
 62
     0
370
    -2
100
AcDbLine
 10
254.7072076559516
 20
104.9808310568925
 30
0.0
 11
263.033573847566
 21
104.9808310568925
 31
0.0
  0
LINE
  5
1FDA
330
1F60
100
AcDbEntity
  8
Bemaßung
 62
     0
370
    -2
100
AcDbLine
 10
261.783573847566
 20
134.9808310568925
 30
0.0
 11
261.783573847566
 21
104.9808310568925
 31
0.0
  0
INSERT
  5
1FDB
330
1F60
100
AcDbEntity
  8
Bemaßung
 62
     0
370
    -2
100
AcDbBlockReference
  2
_Oblique
 10
261.783573847566
 20
134.9808310568925
 30
0.0
 41
2.5
 42
2.5
 43
2.5
 50
90.0
  0
INSERT
  5
1FDC
330
1F60
100
AcDbEntity
  8
Bemaßung
 62
     0
370
    -2
100
AcDbBlockReference
  2
_Oblique
 10
261.783573847566
 20
104.9808310568925
 30
0.0
 41
2.5
 42
2.5
 43
2.5
 50
270.0
  0
MTEXT
  5
1FDD
330
1F60
100
AcDbEntity
  8
Bemaßung
 62
     0
100
AcDbMText
 10
259.908573847566
 20
119.9808310568926
 30
0.0
 40
2.5
 41
0.0
 71
     5
 72
     1
  1
30
  7
RomanS
 11
0.0000000000000001
 21
1.0
 31
0.0
 73
     1
 44
1.0
  0
POINT
  5
1FDE
330
1F60
100
AcDbEntity
  8
Defpoints
 62
     0
100
AcDbPoint
 10
255.6234758237888
 20
134.9808310568925
 30
0.0
  0
POINT
  5
1FDF
330
1F60
100
AcDbEntity
  8
Defpoints
 62
     0
100
AcDbPoint
 10
254.0822076559516
 20
104.9808310568925
 30
0.0
  0
POINT
  5
1FE0
330
1F60
100
AcDbEntity
  8
Defpoints
 62
     0
100
AcDbPoint
 10
261.783573847566
 20
104.9808310568925
 30
0.0
  0
ENDBLK
  5
1F6B
330
1F60
100
AcDbEntity
  8
0
100
AcDbBlockEnd
  0
BLOCK
  5
1F76
330
1F6C
100
AcDbEntity
  8
0
100
AcDbBlockBegin
  2
*D6
 70
     1
 10
0.0
 20
0.0
 30
0.0
  3
*D6
  1

  0
LINE
  5
220F
330
1F6C
100
AcDbEntity
  8
Bemaßung
 62
     0
370
    -2
100
AcDbLine
 10
196.2118588190933
 20
35.03022733746901
 30
0.0
 11
196.2118588190933
 21
35.65522733746901
 31
0.0
  0
LINE
  5
2210
330
1F6C
100
AcDbEntity
  8
Bemaßung
 62
     0
370
    -2
100
AcDbLine
 10
184.2118588190933
 20
35.03022733746901
 30
0.0
 11
184.2118588190933
 21
35.65522733746901
 31
0.0
  0
LINE
  5
2211
330
1F6C
100
AcDbEntity
  8
Bemaßung
 62
     0
370
    -2
100
AcDbLine
 10
196.2118588190933
 20
34.40522733746901
 30
0.0
 11
184.2118588190933
 21
34.40522733746901
 31
0.0
  0
INSERT
  5
2212
330
1F6C
100
AcDbEntity
  8
Bemaßung
 62
     0
370
    -2
100
AcDbBlockReference
  2
_Oblique
 10
196.2118588190933
 20
34.40522733746901
 30
0.0
 41
2.5
 42
2.5
 43
2.5
  0
INSERT
  5
2213
330
1F6C
100
AcDbEntity
  8
Bemaßung
 62
     0
370
    -2
100
AcDbBlockReference
  2
_Oblique
 10
184.2118588190933
 20
34.40522733746901
 30
0.0
 41
2.5
 42
2.5
 43
2.5
 50
180.0
  0
MTEXT
  5
2214
330
1F6C
100
AcDbEntity
  8
Bemaßung
 62
     0
100
AcDbMText
 10
190.2118588190933
 20
36.28022733746901
 30
0.0
 40
2.5
 41
0.0
 71
     5
 72
     1
  1
12
  7
RomanS
 73
     1
 44
1.0
  0
POINT
  5
2215
330
1F6C
100
AcDbEntity
  8
Defpoints
 62
     0
100
AcDbPoint
 10
196.2118588190933
 20
34.40522733746901
 30
0.0
  0
POINT
  5
2216
330
1F6C
100
AcDbEntity
  8
Defpoints
 62
     0
100
AcDbPoint
 10
184.2118588190933
 20
34.40522733746901
 30
0.0
  0
POINT
  5
2217
330
1F6C
100
AcDbEntity
  8
Defpoints
 62
     0
100
AcDbPoint
 10
184.2118588190933
 20
34.40522733746901
 30
0.0
  0
ENDBLK
  5
1F77
330
1F6C
100
AcDbEntity
  8
0
100
AcDbBlockEnd
  0
BLOCK
  5
1F82
330
1F78
100
AcDbEntity
  8
0
100
AcDbBlockBegin
  2
*D7
 70
     1
 10
0.0
 20
0.0
 30
0.0
  3
*D7
  1

  0
LINE
  5
2218
330
1F78
100
AcDbEntity
  8
Bemaßung
 62
     0
370
    -2
100
AcDbLine
 10
181.3049137127768
 20
37.97934878505156
 30
0.0
 11
177.27296860646
 21
37.97934878505156
 31
0.0
  0
LINE
  5
2219
330
1F78
100
AcDbEntity
  8
Bemaßung
 62
     0
370
    -2
100
AcDbLine
 10
181.7242408363336
 20
7.979348785051602
 30
0.0
 11
177.27296860646
 21
7.979348785051602
 31
0.0
  0
LINE
  5
221A
330
1F78
100
AcDbEntity
  8
Bemaßung
 62
     0
370
    -2
100
AcDbLine
 10
178.52296860646
 20
37.97934878505156
 30
0.0
 11
178.52296860646
 21
7.979348785051602
 31
0.0
  0
INSERT
  5
221B
330
1F78
100
AcDbEntity
  8
Bemaßung
 62
     0
370
    -2
100
AcDbBlockReference
  2
_Oblique
 10
178.52296860646
 20
37.97934878505156
 30
0.0
 41
2.5
 42
2.5
 43
2.5
 50
90.0
  0
INSERT
  5
221C
330
1F78
100
AcDbEntity
  8
Bemaßung
 62
     0
370
    -2
100
AcDbBlockReference
  2
_Oblique
 10
178.52296860646
 20
7.979348785051602
 30
0.0
 41
2.5
 42
2.5
 43
2.5
 50
270.0
  0
MTEXT
  5
221D
330
1F78
100
AcDbEntity
  8
Bemaßung
 62
     0
100
AcDbMText
 10
176.6479686064601
 20
22.97934878505161
 30
0.0
 40
2.5
 41
0.0
 71
     5
 72
     1
  1
30
  7
RomanS
 11
0.0000000000000001
 21
1.0
 31
0.0
 73
     1
 44
1.0
  0
POINT
  5
221E
330
1F78
100
AcDbEntity
  8
Defpoints
 62
     0
100
AcDbPoint
 10
181.9299137127768
 20
37.97934878505156
 30
0.0
  0
POINT
  5
221F
330
1F78
100
AcDbEntity
  8
Defpoints
 62
     0
100
AcDbPoint
 10
182.3492408363336
 20
7.979348785051602
 30
0.0
  0
POINT
  5
2220
330
1F78
100
AcDbEntity
  8
Defpoints
 62
     0
100
AcDbPoint
 10
178.52296860646
 20
7.979348785051602
 30
0.0
  0
ENDBLK
  5
1F83
330
1F78
100
AcDbEntity
  8
0
100
AcDbBlockEnd
  0
BLOCK
  5
1F8E
330
1F84
100
AcDbEntity
  8
0
100
AcDbBlockBegin
  2
*D8
 70
     1
 10
0.0
 20
0.0
 30
0.0
  3
*D8
  1

  0
LINE
  5
2221
330
1F84
100
AcDbEntity
  8
Bemaßung
 62
     0
370
    -2
100
AcDbLine
 10
177.8979686064601
 20
7.979348785051602
 30
0.0
 11
171.6807249429756
 21
7.979348785051602
 31
0.0
  0
LINE
  5
2222
330
1F84
100
AcDbEntity
  8
Bemaßung
 62
     0
370
    -2
100
AcDbLine
 10
180.6450363348077
 20
42.97934878505155
 30
0.0
 11
171.6807249429756
 21
42.97934878505156
 31
0.0
  0
LINE
  5
2223
330
1F84
100
AcDbEntity
  8
Bemaßung
 62
     0
370
    -2
100
AcDbLine
 10
172.9307249429756
 20
7.979348785051602
 30
0.0
 11
172.9307249429756
 21
42.97934878505156
 31
0.0
  0
INSERT
  5
2224
330
1F84
100
AcDbEntity
  8
Bemaßung
 62
     0
370
    -2
100
AcDbBlockReference
  2
_Oblique
 10
172.9307249429756
 20
7.979348785051602
 30
0.0
 41
2.5
 42
2.5
 43
2.5
 50
270.0
  0
INSERT
  5
2225
330
1F84
100
AcDbEntity
  8
Bemaßung
 62
     0
370
    -2
100
AcDbBlockReference
  2
_Oblique
 10
172.9307249429756
 20
42.97934878505156
 30
0.0
 41
2.5
 42
2.5
 43
2.5
 50
90.0
  0
MTEXT
  5
2226
330
1F84
100
AcDbEntity
  8
Bemaßung
 62
     0
100
AcDbMText
 10
171.0557249429756
 20
25.47934878505161
 30
0.0
 40
2.5
 41
0.0
 71
     5
 72
     1
  1
35
  7
RomanS
 11
0.0000000000000001
 21
1.0
 31
0.0
 73
     1
 44
1.0
  0
POINT
  5
2227
330
1F84
100
AcDbEntity
  8
Defpoints
 62
     0
100
AcDbPoint
 10
178.52296860646
 20
7.979348785051602
 30
0.0
  0
POINT
  5
2228
330
1F84
100
AcDbEntity
  8
Defpoints
 62
     0
100
AcDbPoint
 10
181.2700363348077
 20
42.97934878505155
 30
0.0
  0
POINT
  5
2229
330
1F84
100
AcDbEntity
  8
Defpoints
 62
     0
100
AcDbPoint
 10
172.9307249429756
 20
42.97934878505156
 30
0.0
  0
ENDBLK
  5
1F8F
330
1F84
100
AcDbEntity
  8
0
100
AcDbBlockEnd
  0
BLOCK
  5
1F9A
330
1F90
100
AcDbEntity
  8
0
100
AcDbBlockBegin
  2
*D9
 70
     1
 10
0.0
 20
0.0
 30
0.0
  3
*D9
  1

  0
LINE
  5
222A
330
1F90
100
AcDbEntity
  8
Bemaßung
 62
     0
370
    -2
100
AcDbLine
 10
46.21185881909338
 20
35.03022733746901
 30
0.0
 11
46.21185881909338
 21
35.65522733746901
 31
0.0
  0
LINE
  5
222B
330
1F90
100
AcDbEntity
  8
Bemaßung
 62
     0
370
    -2
100
AcDbLine
 10
34.21185881909333
 20
35.03022733746901
 30
0.0
 11
34.21185881909333
 21
35.65522733746901
 31
0.0
  0
LINE
  5
222C
330
1F90
100
AcDbEntity
  8
Bemaßung
 62
     0
370
    -2
100
AcDbLine
 10
46.21185881909338
 20
34.40522733746901
 30
0.0
 11
34.21185881909333
 21
34.40522733746901
 31
0.0
  0
INSERT
  5
222D
330
1F90
100
AcDbEntity
  8
Bemaßung
 62
     0
370
    -2
100
AcDbBlockReference
  2
_Oblique
 10
46.21185881909338
 20
34.40522733746901
 30
0.0
 41
2.5
 42
2.5
 43
2.5
  0
INSERT
  5
222E
330
1F90
100
AcDbEntity
  8
Bemaßung
 62
     0
370
    -2
100
AcDbBlockReference
  2
_Oblique
 10
34.21185881909333
 20
34.40522733746901
 30
0.0
 41
2.5
 42
2.5
 43
2.5
 50
180.0
  0
MTEXT
  5
222F
330
1F90
100
AcDbEntity
  8
Bemaßung
 62
     0
100
AcDbMText
 10
40.21185881909334
 20
36.28022733746901
 30
0.0
 40
2.5
 41
0.0
 71
     5
 72
     1
  1
12
  7
RomanS
 73
     1
 44
1.0
  0
POINT
  5
2230
330
1F90
100
AcDbEntity
  8
Defpoints
 62
     0
100
AcDbPoint
 10
46.21185881909338
 20
34.40522733746901
 30
0.0
  0
POINT
  5
2231
330
1F90
100
AcDbEntity
  8
Defpoints
 62
     0
100
AcDbPoint
 10
34.21185881909333
 20
34.40522733746901
 30
0.0
  0
POINT
  5
2232
330
1F90
100
AcDbEntity
  8
Defpoints
 62
     0
100
AcDbPoint
 10
34.21185881909333
 20
34.40522733746901
 30
0.0
  0
ENDBLK
  5
1F9B
330
1F90
100
AcDbEntity
  8
0
100
AcDbBlockEnd
  0
BLOCK
  5
1FA6
330
1F9C
100
AcDbEntity
  8
0
100
AcDbBlockBegin
  2
*D10
 70
     1
 10
0.0
 20
0.0
 30
0.0
  3
*D10
  1

  0
LINE
  5
2233
330
1F9C
100
AcDbEntity
  8
Bemaßung
 62
     0
370
    -2
100
AcDbLine
 10
31.30491371277691
 20
37.97934878505156
 30
0.0
 11
27.27296860646039
 21
37.97934878505156
 31
0.0
  0
LINE
  5
2234
330
1F9C
100
AcDbEntity
  8
Bemaßung
 62
     0
370
    -2
100
AcDbLine
 10
31.72424083633359
 20
7.979348785051602
 30
0.0
 11
27.27296860646038
 21
7.979348785051602
 31
0.0
  0
LINE
  5
2235
330
1F9C
100
AcDbEntity
  8
Bemaßung
 62
     0
370
    -2
100
AcDbLine
 10
28.52296860646039
 20
37.97934878505156
 30
0.0
 11
28.52296860646038
 21
7.979348785051602
 31
0.0
  0
INSERT
  5
2236
330
1F9C
100
AcDbEntity
  8
Bemaßung
 62
     0
370
    -2
100
AcDbBlockReference
  2
_Oblique
 10
28.52296860646039
 20
37.97934878505156
 30
0.0
 41
2.5
 42
2.5
 43
2.5
 50
90.0
  0
INSERT
  5
2237
330
1F9C
100
AcDbEntity
  8
Bemaßung
 62
     0
370
    -2
100
AcDbBlockReference
  2
_Oblique
 10
28.52296860646038
 20
7.979348785051602
 30
0.0
 41
2.5
 42
2.5
 43
2.5
 50
270.0
  0
MTEXT
  5
2238
330
1F9C
100
AcDbEntity
  8
Bemaßung
 62
     0
100
AcDbMText
 10
26.64796860646038
 20
22.97934878505159
 30
0.0
 40
2.5
 41
0.0
 71
     5
 72
     1
  1
30
  7
RomanS
 11
0.0000000000000001
 21
1.0
 31
0.0
 73
     1
 44
1.0
  0
POINT
  5
2239
330
1F9C
100
AcDbEntity
  8
Defpoints
 62
     0
100
AcDbPoint
 10
31.92991371277691
 20
37.97934878505156
 30
0.0
  0
POINT
  5
223A
330
1F9C
100
AcDbEntity
  8
Defpoints
 62
     0
100
AcDbPoint
 10
32.34924083633359
 20
7.979348785051602
 30
0.0
  0
POINT
  5
223B
330
1F9C
100
AcDbEntity
  8
Defpoints
 62
     0
100
AcDbPoint
 10
28.52296860646038
 20
7.979348785051602
 30
0.0
  0
ENDBLK
  5
1FA7
330
1F9C
100
AcDbEntity
  8
0
100
AcDbBlockEnd
  0
BLOCK
  5
1FB2
330
1FA8
100
AcDbEntity
  8
0
100
AcDbBlockBegin
  2
*D11
 70
     1
 10
0.0
 20
0.0
 30
0.0
  3
*D11
  1

  0
LINE
  5
223C
330
1FA8
100
AcDbEntity
  8
Bemaßung
 62
     0
370
    -2
100
AcDbLine
 10
27.89796860646038
 20
7.979348785051602
 30
0.0
 11
21.68072494297535
 21
7.979348785051602
 31
0.0
  0
LINE
  5
223D
330
1FA8
100
AcDbEntity
  8
Bemaßung
 62
     0
370
    -2
100
AcDbLine
 10
30.64503633480774
 20
42.97934878505155
 30
0.0
 11
21.68072494297536
 21
42.97934878505155
 31
0.0
  0
LINE
  5
223E
330
1FA8
100
AcDbEntity
  8
Bemaßung
 62
     0
370
    -2
100
AcDbLine
 10
22.93072494297535
 20
7.979348785051602
 30
0.0
 11
22.93072494297536
 21
42.97934878505155
 31
0.0
  0
INSERT
  5
223F
330
1FA8
100
AcDbEntity
  8
Bemaßung
 62
     0
370
    -2
100
AcDbBlockReference
  2
_Oblique
 10
22.93072494297535
 20
7.979348785051602
 30
0.0
 41
2.5
 42
2.5
 43
2.5
 50
270.0
  0
INSERT
  5
2240
330
1FA8
100
AcDbEntity
  8
Bemaßung
 62
     0
370
    -2
100
AcDbBlockReference
  2
_Oblique
 10
22.93072494297536
 20
42.97934878505155
 30
0.0
 41
2.5
 42
2.5
 43
2.5
 50
90.0
  0
MTEXT
  5
2241
330
1FA8
100
AcDbEntity
  8
Bemaßung
 62
     0
100
AcDbMText
 10
21.05572494297535
 20
25.47934878505158
 30
0.0
 40
2.5
 41
0.0
 71
     5
 72
     1
  1
35
  7
RomanS
 11
0.0000000000000001
 21
1.0
 31
0.0
 73
     1
 44
1.0
  0
POINT
  5
2242
330
1FA8
100
AcDbEntity
  8
Defpoints
 62
     0
100
AcDbPoint
 10
28.52296860646038
 20
7.979348785051602
 30
0.0
  0
POINT
  5
2243
330
1FA8
100
AcDbEntity
  8
Defpoints
 62
     0
100
AcDbPoint
 10
31.27003633480774
 20
42.97934878505155
 30
0.0
  0
POINT
  5
2244
330
1FA8
100
AcDbEntity
  8
Defpoints
 62
     0
100
AcDbPoint
 10
22.93072494297536
 20
42.97934878505155
 30
0.0
  0
ENDBLK
  5
1FB3
330
1FA8
100
AcDbEntity
  8
0
100
AcDbBlockEnd
  0
BLOCK
  5
1FBE
330
1FB4
100
AcDbEntity
  8
0
100
AcDbBlockBegin
  2
*D12
 70
     1
 10
0.0
 20
0.0
 30
0.0
  3
*D12
  1

  0
LINE
  5
2245
330
1FB4
100
AcDbEntity
  8
Bemaßung
 62
     0
370
    -2
100
AcDbLine
 10
102.2118588190926
 20
38.85434878505173
 30
0.0
 11
102.2118588190926
 21
32.88815161820811
 31
0.0
  0
LINE
  5
2246
330
1FB4
100
AcDbEntity
  8
Bemaßung
 62
     0
370
    -2
100
AcDbLine
 10
94.21185881909357
 20
35.30767010321623
 30
0.0
 11
94.21185881909357
 21
32.88815161820811
 31
0.0
  0
LINE
  5
2247
330
1FB4
100
AcDbEntity
  8
Bemaßung
 62
     0
370
    -2
100
AcDbLine
 10
102.2118588190926
 20
34.13815161820811
 30
0.0
 11
94.21185881909357
 21
34.13815161820811
 31
0.0
  0
INSERT
  5
2248
330
1FB4
100
AcDbEntity
  8
Bemaßung
 62
     0
370
    -2
100
AcDbBlockReference
  2
_Oblique
 10
102.2118588190926
 20
34.13815161820811
 30
0.0
 41
2.5
 42
2.5
 43
2.5
  0
INSERT
  5
2249
330
1FB4
100
AcDbEntity
  8
Bemaßung
 62
     0
370
    -2
100
AcDbBlockReference
  2
_Oblique
 10
94.21185881909357
 20
34.13815161820811
 30
0.0
 41
2.5
 42
2.5
 43
2.5
 50
180.0
  0
MTEXT
  5
224A
330
1FB4
100
AcDbEntity
  8
Bemaßung
 62
     0
100
AcDbMText
 10
98.21185881909308
 20
36.01315161820811
 30
0.0
 40
2.5
 41
0.0
 71
     5
 72
     1
  1
8
  7
RomanS
 73
     1
 44
1.0
  0
POINT
  5
224B
330
1FB4
100
AcDbEntity
  8
Defpoints
 62
     0
100
AcDbPoint
 10
102.2118588190926
 20
39.47934878505173
 30
0.0
  0
POINT
  5
224C
330
1FB4
100
AcDbEntity
  8
Defpoints
 62
     0
100
AcDbPoint
 10
94.21185881909357
 20
35.93267010321623
 30
0.0
  0
POINT
  5
224D
330
1FB4
100
AcDbEntity
  8
Defpoints
 62
     0
100
AcDbPoint
 10
94.21185881909357
 20
34.13815161820811
 30
0.0
  0
ENDBLK
  5
1FBF
330
1FB4
100
AcDbEntity
  8
0
100
AcDbBlockEnd
  0
BLOCK
  5
1FCA
330
1FC0
100
AcDbEntity
  8
0
100
AcDbBlockBegin
  2
*D13
 70
     1
 10
0.0
 20
0.0
 30
0.0
  3
*D13
  1

  0
LINE
  5
224E
330
1FC0
100
AcDbEntity
  8
Bemaßung
 62
     0
370
    -2
100
AcDbLine
 10
106.2484758237887
 20
37.97934878505156
 30
0.0
 11
113.033573847566
 21
37.97934878505156
 31
0.0
  0
LINE
  5
224F
330
1FC0
100
AcDbEntity
  8
Bemaßung
 62
     0
370
    -2
100
AcDbLine
 10
104.7072076559516
 20
7.979348785051602
 30
0.0
 11
113.033573847566
 21
7.979348785051596
 31
0.0
  0
LINE
  5
2250
330
1FC0
100
AcDbEntity
  8
Bemaßung
 62
     0
370
    -2
100
AcDbLine
 10
111.783573847566
 20
37.97934878505156
 30
0.0
 11
111.783573847566
 21
7.979348785051596
 31
0.0
  0
INSERT
  5
2251
330
1FC0
100
AcDbEntity
  8
Bemaßung
 62
     0
370
    -2
100
AcDbBlockReference
  2
_Oblique
 10
111.783573847566
 20
37.97934878505156
 30
0.0
 41
2.5
 42
2.5
 43
2.5
 50
90.0
  0
INSERT
  5
2252
330
1FC0
100
AcDbEntity
  8
Bemaßung
 62
     0
370
    -2
100
AcDbBlockReference
  2
_Oblique
 10
111.783573847566
 20
7.979348785051596
 30
0.0
 41
2.5
 42
2.5
 43
2.5
 50
270.0
  0
MTEXT
  5
2253
330
1FC0
100
AcDbEntity
  8
Bemaßung
 62
     0
100
AcDbMText
 10
109.908573847566
 20
22.9793487850516
 30
0.0
 40
2.5
 41
0.0
 71
     5
 72
     1
  1
30
  7
RomanS
 11
0.0000000000000001
 21
1.0
 31
0.0
 73
     1
 44
1.0
  0
POINT
  5
2254
330
1FC0
100
AcDbEntity
  8
Defpoints
 62
     0
100
AcDbPoint
 10
105.6234758237887
 20
37.97934878505156
 30
0.0
  0
POINT
  5
2255
330
1FC0
100
AcDbEntity
  8
Defpoints
 62
     0
100
AcDbPoint
 10
104.0822076559516
 20
7.979348785051602
 30
0.0
  0
POINT
  5
2256
330
1FC0
100
AcDbEntity
  8
Defpoints
 62
     0
100
AcDbPoint
 10
111.783573847566
 20
7.979348785051596
 30
0.0
  0
ENDBLK
  5
1FCB
330
1FC0
100
AcDbEntity
  8
0
100
AcDbBlockEnd
  0
BLOCK
  5
1FD6
330
1FCC
100
AcDbEntity
  8
0
100
AcDbBlockBegin
  2
*D14
 70
     1
 10
0.0
 20
0.0
 30
0.0
  3
*D14
  1

  0
LINE
  5
1FCD
330
1FCC
100
AcDbEntity
  8
Bemaßung
 62
     0
370
    -2
100
AcDbLine
 10
252.2118588190929
 20
135.8558310568926
 30
0.0
 11
252.2118588190929
 21
129.889633890049
 31
0.0
  0
LINE
  5
1FCE
330
1FCC
100
AcDbEntity
  8
Bemaßung
 62
     0
370
    -2
100
AcDbLine
 10
244.2118588190936
 20
132.3091523750572
 30
0.0
 11
244.2118588190936
 21
129.889633890049
 31
0.0
  0
LINE
  5
1FCF
330
1FCC
100
AcDbEntity
  8
Bemaßung
 62
     0
370
    -2
100
AcDbLine
 10
252.2118588190929
 20
131.139633890049
 30
0.0
 11
244.2118588190936
 21
131.139633890049
 31
0.0
  0
INSERT
  5
1FD0
330
1FCC
100
AcDbEntity
  8
Bemaßung
 62
     0
370
    -2
100
AcDbBlockReference
  2
_Oblique
 10
252.2118588190929
 20
131.139633890049
 30
0.0
 41
2.5
 42
2.5
 43
2.5
  0
INSERT
  5
1FD1
330
1FCC
100
AcDbEntity
  8
Bemaßung
 62
     0
370
    -2
100
AcDbBlockReference
  2
_Oblique
 10
244.2118588190936
 20
131.139633890049
 30
0.0
 41
2.5
 42
2.5
 43
2.5
 50
180.0
  0
MTEXT
  5
1FD2
330
1FCC
100
AcDbEntity
  8
Bemaßung
 62
     0
100
AcDbMText
 10
248.2118588190932
 20
133.014633890049
 30
0.0
 40
2.5
 41
0.0
 71
     5
 72
     1
  1
8
  7
RomanS
 73
     1
 44
1.0
  0
POINT
  5
1FD3
330
1FCC
100
AcDbEntity
  8
Defpoints
 62
     0
100
AcDbPoint
 10
252.2118588190929
 20
136.4808310568926
 30
0.0
  0
POINT
  5
1FD4
330
1FCC
100
AcDbEntity
  8
Defpoints
 62
     0
100
AcDbPoint
 10
244.2118588190936
 20
132.9341523750573
 30
0.0
  0
POINT
  5
1FD5
330
1FCC
100
AcDbEntity
  8
Defpoints
 62
     0
100
AcDbPoint
 10
244.2118588190936
 20
131.139633890049
 30
0.0
  0
ENDBLK
  5
1FD7
330
1FCC
100
AcDbEntity
  8
0
100
AcDbBlockEnd
  0
BLOCK
  5
205A
330
2050
100
AcDbEntity
  8
0
100
AcDbBlockBegin
  2
*D15
 70
     1
 10
0.0
 20
0.0
 30
0.0
  3
*D15
  1

  0
LINE
  5
2269
330
2050
100
AcDbEntity
  8
Bemaßung
 62
     0
370
    -2
100
AcDbLine
 10
10.48560948375417
 20
196.9806664591841
 30
0.0
 11
9.860609483754167
 21
196.9806664591841
 31
0.0
  0
LINE
  5
226A
330
2050
100
AcDbEntity
  8
Bemaßung
 62
     0
370
    -2
100
AcDbLine
 10
10.48560948375415
 20
128.9806386031013
 30
0.0
 11
9.860609483754151
 21
128.9806386031013
 31
0.0
  0
LINE
  5
226B
330
2050
100
AcDbEntity
  8
Bemaßung
 62
     0
370
    -2
100
AcDbLine
 10
11.11060948375417
 20
196.9806664591841
 30
0.0
 11
11.11060948375415
 21
128.9806386031013
 31
0.0
  0
INSERT
  5
226C
330
2050
100
AcDbEntity
  8
Bemaßung
 62
     0
370
    -2
100
AcDbBlockReference
  2
_Oblique
 10
11.11060948375417
 20
196.9806664591841
 30
0.0
 41
2.5
 42
2.5
 43
2.5
 50
90.0
  0
INSERT
  5
226D
330
2050
100
AcDbEntity
  8
Bemaßung
 62
     0
370
    -2
100
AcDbBlockReference
  2
_Oblique
 10
11.11060948375415
 20
128.9806386031013
 30
0.0
 41
2.5
 42
2.5
 43
2.5
 50
270.0
  0
MTEXT
  5
226E
330
2050
100
AcDbEntity
  8
Bemaßung
 62
     0
100
AcDbMText
 10
9.235609483754133
 20
162.9806525311427
 30
0.0
 40
2.5
 41
0.0
 71
     5
 72
     1
  1
68
  7
RomanS
 11
0.0000000000000001
 21
1.0
 31
0.0
 73
     1
 44
1.0
  0
POINT
  5
226F
330
2050
100
AcDbEntity
  8
Defpoints
 62
     0
100
AcDbPoint
 10
11.11060948375417
 20
196.9806664591841
 30
0.0
  0
POINT
  5
2270
330
2050
100
AcDbEntity
  8
Defpoints
 62
     0
100
AcDbPoint
 10
11.11060948375415
 20
128.9806386031013
 30
0.0
  0
POINT
  5
2271
330
2050
100
AcDbEntity
  8
Defpoints
 62
     0
100
AcDbPoint
 10
11.11060948375415
 20
128.9806386031013
 30
0.0
  0
ENDBLK
  5
205B
330
2050
100
AcDbEntity
  8
0
100
AcDbBlockEnd
  0
BLOCK
  5
2072
330
2068
100
AcDbEntity
  8
0
100
AcDbBlockBegin
  2
*D16
 70
     1
 10
0.0
 20
0.0
 30
0.0
  3
*D16
  1

  0
LINE
  5
2091
330
2068
100
AcDbEntity
  8
Bemaßung
 62
     0
370
    -2
100
AcDbLine
 10
165.1917424325195
 20
194.9808315562947
 30
0.0
 11
158.3513109040114
 21
194.9808315562947
 31
0.0
  0
LINE
  5
2092
330
2068
100
AcDbEntity
  8
Bemaßung
 62
     0
370
    -2
100
AcDbLine
 10
158.9763109040113
 20
128.9806386031013
 30
0.0
 11
158.3513109040113
 21
128.9806386031013
 31
0.0
  0
LINE
  5
2093
330
2068
100
AcDbEntity
  8
Bemaßung
 62
     0
370
    -2
100
AcDbLine
 10
159.6013109040114
 20
194.9808315562947
 30
0.0
 11
159.6013109040113
 21
128.9806386031013
 31
0.0
  0
INSERT
  5
2094
330
2068
100
AcDbEntity
  8
Bemaßung
 62
     0
370
    -2
100
AcDbBlockReference
  2
_Oblique
 10
159.6013109040114
 20
194.9808315562947
 30
0.0
 41
2.5
 42
2.5
 43
2.5
 50
90.0
  0
INSERT
  5
2095
330
2068
100
AcDbEntity
  8
Bemaßung
 62
     0
370
    -2
100
AcDbBlockReference
  2
_Oblique
 10
159.6013109040113
 20
128.9806386031013
 30
0.0
 41
2.5
 42
2.5
 43
2.5
 50
270.0
  0
MTEXT
  5
2096
330
2068
100
AcDbEntity
  8
Bemaßung
 62
     0
100
AcDbMText
 10
157.7263109040113
 20
161.980735079698
 30
0.0
 40
2.5
 41
0.0
 71
     5
 72
     1
  1
66
  7
RomanS
 11
0.0000000000000001
 21
1.0
 31
0.0
 73
     1
 44
1.0
  0
POINT
  5
2097
330
2068
100
AcDbEntity
  8
Defpoints
 62
     0
100
AcDbPoint
 10
165.8167424325195
 20
194.9808315562947
 30
0.0
  0
POINT
  5
2098
330
2068
100
AcDbEntity
  8
Defpoints
 62
     0
100
AcDbPoint
 10
159.6013109040113
 20
128.9806386031013
 30
0.0
  0
POINT
  5
2099
330
2068
100
AcDbEntity
  8
Defpoints
 62
     0
100
AcDbPoint
 10
159.6013109040113
 20
128.9806386031013
 30
0.0
  0
ENDBLK
  5
2073
330
2068
100
AcDbEntity
  8
0
100
AcDbBlockEnd
  0
BLOCK
  5
2166
330
2163
100
AcDbEntity
  8
0
100
AcDbBlockBegin
  2
A-FB68-17 waschli
 70
     0
 10
0.0
 20
0.0
 30
0.0
  3
A-FB68-17 waschli
  1

  0
LINE
  5
2167
330
2163
100
AcDbEntity
  8
Aluprofile
100
AcDbLine
 10
0.0000000003174137
 20
-1.0
 30
0.0
 11
-0.0000000003174137
 21
1.0
 31
0.0
1001
AcDbBlockRepETag
1070
     1
1071
        0
1005
2167
  0
LINE
  5
2168
330
2163
100
AcDbEntity
  8
Aluprofile
100
AcDbLine
 10
-0.9999999999997726
 20
0.0
 30
0.0
 11
1.000000000000227
 21
0.0
 31
0.0
1001
AcDbBlockRepETag
1070
     1
1071
        1
1005
2168
  0
LINE
  5
2169
102
{ACAD_REACTORS
330
21AB
102
}
330
2163
100
AcDbEntity
  8
Aluprofile
100
AcDbLine
 10
-1.399999996322947
 20
9.000000003230976
 30
0.0
 11
-6.799999994387523
 21
9.00000000666523
 31
0.0
1001
AcDbBlockRepETag
1070
     1
1071
        2
1005
2169
  0
LINE
  5
216A
102
{ACAD_REACTORS
330
21AB
102
}
330
2163
100
AcDbEntity
  8
Aluprofile
100
AcDbLine
 10
-1.599999995783778
 20
10.60000000414947
 30
0.0
 11
-14.39999999061064
 21
10.60000001007915
 31
0.0
1001
AcDbBlockRepETag
1070
     1
1071
        3
1005
216A
  0
LINE
  5
216B
102
{ACAD_REACTORS
330
21AB
102
}
330
2163
100
AcDbEntity
  8
Aluprofile
100
AcDbLine
 10
-0.9999999968758324
 20
-10.60000000274931
 30
0.0
 11
-14.39999998004459
 21
-10.60000000274931
 31
0.0
1001
AcDbBlockRepETag
1070
     1
1071
        4
1005
216B
  0
LINE
  5
216C
102
{ACAD_REACTORS
330
21AB
102
}
330
2163
100
AcDbEntity
  8
Aluprofile
100
AcDbLine
 10
-6.799999996986064
 20
-9.000000007406015
 30
0.0
 11
-1.399999996953344
 21
-8.999999996788574
 31
0.0
1001
AcDbBlockRepETag
1070
     1
1071
        5
1005
216C
  0
LINE
  5
216D
102
{ACAD_REACTORS
330
21AB
102
}
330
2163
100
AcDbEntity
  8
Aluprofile
100
AcDbLine
 10
-1.399999996322947
 20
9.000000003230976
 30
0.0
 11
-1.399999996951864
 21
7.600000003247262
 31
0.0
1001
AcDbBlockRepETag
1070
     1
1071
        6
1005
216D
  0
LINE
  5
216E
102
{ACAD_REACTORS
330
21AB
102
}
330
2163
100
AcDbEntity
  8
Aluprofile
100
AcDbLine
 10
0.0000000059231393
 20
14.00000000432919
 30
0.0
 11
0.0000000024641018
 21
6.300000005059017
 31
0.0
1001
AcDbBlockRepETag
1070
     1
1071
        7
1005
216E
  0
ARC
  5
216F
102
{ACAD_REACTORS
330
21AB
102
}
330
2163
100
AcDbEntity
  8
Aluprofile
100
AcDbCircle
 10
-0.7999999975866709
 20
-6.300000002243912
 30
0.0
 40
0.7999999838156102
100
AcDbArc
 50
0.0000000222119761
 51
180.0000000185121
1001
AcDbBlockRepETag
1070
     1
1071
        8
1005
216F
  0
ARC
  5
2170
102
{ACAD_REACTORS
330
21AB
102
}
330
2163
100
AcDbEntity
  8
Aluprofile
100
AcDbCircle
 10
-1.499999997496218
 20
-7.599999996978087
 30
0.0
 40
0.0999999999999659
100
AcDbArc
 50
0.0000000222119761
 51
90.00000001553534
1001
AcDbBlockRepETag
1070
     1
1071
        9
1005
2170
  0
ARC
  5
2171
102
{ACAD_REACTORS
330
21AB
102
}
330
2163
100
AcDbEntity
  8
Aluprofile
100
AcDbCircle
 10
-1.499999997550449
 20
-7.399999997357093
 30
0.0
 40
0.1000000006743562
100
AcDbArc
 50
180.0000000184991
 51
270.0000000155352
1001
AcDbBlockRepETag
1070
     1
1071
       10
1005
2171
  0
LINE
  5
2172
102
{ACAD_REACTORS
330
21AB
102
}
330
2163
100
AcDbEntity
  8
Aluprofile
100
AcDbLine
 10
-1.599999997550469
 20
-7.399999997389612
 30
0.0
 11
-1.599999997905968
 21
-6.300000002502633
 31
0.0
1001
AcDbBlockRepETag
1070
     1
1071
       11
1005
2172
  0
ARC
  5
2173
102
{ACAD_REACTORS
330
21AB
102
}
330
2163
100
AcDbEntity
  8
Aluprofile
100
AcDbCircle
 10
-0.9999999968758324
 20
-9.600000002749311
 30
0.0
 40
1.0
100
AcDbArc
 50
270.0
 51
0.0000000222119761
1001
AcDbBlockRepETag
1070
     1
1071
       12
1005
2173
  0
LINE
  5
2174
102
{ACAD_REACTORS
330
21AB
102
}
330
2163
100
AcDbEntity
  8
Aluprofile
100
AcDbLine
 10
0.0000000032017002
 20
-9.600000002361632
 30
0.0
 11
0.0000000019998048
 21
-6.300000001933767
 31
0.0
1001
AcDbBlockRepETag
1070
     1
1071
       13
1005
2174
  0
LINE
  5
2175
102
{ACAD_REACTORS
330
21AB
102
}
330
2163
100
AcDbEntity
  8
Aluprofile
100
AcDbLine
 10
-1.399999996953344
 20
-8.999999996788574
 30
0.0
 11
-1.399999997496198
 21
-7.599999996939237
 31
0.0
1001
AcDbBlockRepETag
1070
     1
1071
       14
1005
2175
  0
ARC
  5
2176
102
{ACAD_REACTORS
330
21AB
102
}
330
2163
100
AcDbEntity
  8
Aluprofile
100
AcDbCircle
 10
-1.499999996951773
 20
7.600000003292286
 30
0.0
 40
0.0999999986512989
100
AcDbArc
 50
270.0000002235853
 51
359.9999999742445
1001
AcDbBlockRepETag
1070
     1
1071
       15
1005
2176
  0
ARC
  5
2177
102
{ACAD_REACTORS
330
21AB
102
}
330
2163
100
AcDbEntity
  8
Aluprofile
100
AcDbCircle
 10
-1.499999996171313
 20
7.400000003414784
 30
0.0
 40
0.0999999986512989
100
AcDbArc
 50
90.00000022358538
 51
179.9999999334422
1001
AcDbBlockRepETag
1070
     1
1071
       16
1005
2177
  0
ARC
  5
2178
102
{ACAD_REACTORS
330
21AB
102
}
330
2163
100
AcDbEntity
  8
Aluprofile
100
AcDbCircle
 10
-0.7999999969983396
 20
6.300000005418271
 30
0.0
 40
0.7999999838156102
100
AcDbArc
 50
179.9999999334552
 51
359.9999999742575
1001
AcDbBlockRepETag
1070
     1
1071
       17
1005
2178
  0
LINE
  5
2179
102
{ACAD_REACTORS
330
21AB
102
}
330
2163
100
AcDbEntity
  8
Aluprofile
100
AcDbLine
 10
-1.599999996171334
 20
7.400000003530973
 30
0.0
 11
-1.599999997448835
 21
6.300000006347545
 31
0.0
1001
AcDbBlockRepETag
1070
     1
1071
       18
1005
2179
  0
ARC
  5
217A
102
{ACAD_REACTORS
330
21AB
102
}
330
2163
100
AcDbEntity
  8
Aluprofile
100
AcDbCircle
 10
-0.5999999940767751
 20
14.000000004419
 30
0.0
 40
0.9999999947316664
100
AcDbArc
 50
89.99999997425744
 51
179.9999999742575
1001
AcDbBlockRepETag
1070
     1
1071
       19
1005
217A
  0
LINE
  5
217B
102
{ACAD_REACTORS
330
21AB
102
}
330
2163
100
AcDbEntity
  8
Aluprofile
100
AcDbLine
 10
1.600000005923158
 20
14.00000000361046
 30
0.0
 11
1.133692347670427
 21
15.00000000381988
 31
0.0
1001
AcDbBlockRepETag
1070
     1
1071
       20
1005
217B
  0
LINE
  5
217C
102
{ACAD_REACTORS
330
21AB
102
}
330
2163
100
AcDbEntity
  8
Aluprofile
100
AcDbLine
 10
1.600000005923158
 20
14.00000000361046
 30
0.0
 11
0.0000000059231393
 21
14.00000000432919
 31
0.0
1001
AcDbBlockRepETag
1070
     1
1071
       21
1005
217C
  0
LINE
  5
217D
102
{ACAD_REACTORS
330
21AB
102
}
330
2163
100
AcDbEntity
  8
Aluprofile
100
AcDbLine
 10
1.133692347670427
 20
15.00000000381988
 30
0.0
 11
-0.5999999936275932
 21
15.00000000441923
 31
0.0
1001
AcDbBlockRepETag
1070
     1
1071
       22
1005
217D
  0
LINE
  5
217E
102
{ACAD_REACTORS
330
21AB
102
}
330
2163
100
AcDbEntity
  8
Aluprofile
100
AcDbLine
 10
-1.599999994076769
 20
14.00000000486829
 30
0.0
 11
-1.599999995783778
 21
10.60000000414947
 31
0.0
1001
AcDbBlockRepETag
1070
     1
1071
       23
1005
217E
  0
LINE
  5
217F
102
{ACAD_REACTORS
330
21AB
102
}
330
2163
100
AcDbEntity
  8
Aluprofile
100
AcDbLine
 10
-6.799999994387523
 20
9.00000000666523
 30
0.0
 11
-6.799999996052465
 21
7.500000005051106
 31
0.0
1001
AcDbBlockRepETag
1070
     1
1071
       24
1005
217F
  0
LINE
  5
2180
102
{ACAD_REACTORS
330
21AB
102
}
330
2163
100
AcDbEntity
  8
Aluprofile
100
AcDbLine
 10
-7.799999994387523
 20
9.000000007114293
 30
0.0
 11
-7.799999996052465
 21
7.500000006160912
 31
0.0
1001
AcDbBlockRepETag
1070
     1
1071
       25
1005
2180
  0
LINE
  5
2181
102
{ACAD_REACTORS
330
21AB
102
}
330
2163
100
AcDbEntity
  8
Aluprofile
100
AcDbLine
 10
-14.39999998999514
 20
9.000000010079251
 30
0.0
 11
-14.39999998076263
 21
-9.000000002749381
 31
0.0
1001
AcDbBlockRepETag
1070
     1
1071
       26
1005
2181
  0
LINE
  5
2182
102
{ACAD_REACTORS
330
21AB
102
}
330
2163
100
AcDbEntity
  8
Aluprofile
100
AcDbLine
 10
-16.00000000563869
 20
38.49983490184673
 30
0.0
 11
-15.99999997101719
 21
-28.00019295292964
 31
0.0
1001
AcDbBlockRepETag
1070
     1
1071
       27
1005
2182
  0
LINE
  5
2183
102
{ACAD_REACTORS
330
21AB
102
}
330
2163
100
AcDbEntity
  8
Aluprofile
100
AcDbLine
 10
-14.39999998004459
 20
-10.60000000274931
 30
0.0
 11
-14.39999997050432
 21
-29.00019295241668
 31
0.0
1001
AcDbBlockRepETag
1070
     1
1071
       28
1005
2183
  0
LINE
  5
2184
102
{ACAD_REACTORS
330
21AB
102
}
330
2163
100
AcDbEntity
  8
Aluprofile
100
AcDbLine
 10
-14.39999997050432
 20
-29.00019295241668
 30
0.0
 11
-14.99999997101719
 21
-29.00019295241668
 31
0.0
1001
AcDbBlockRepETag
1070
     1
1071
       29
1005
2184
  0
ARC
  5
2185
102
{ACAD_REACTORS
330
21AB
102
}
330
2163
100
AcDbEntity
  8
Aluprofile
100
AcDbCircle
 10
-14.99999997101719
 20
-28.00019295241668
 30
0.0
 40
1.0
100
AcDbArc
 50
180.0000000293901
 51
270.0
1001
AcDbBlockRepETag
1070
     1
1071
       30
1005
2185
  0
ARC
  5
2186
102
{ACAD_REACTORS
330
21AB
102
}
330
2163
100
AcDbEntity
  8
Aluprofile
100
AcDbCircle
 10
-7.299999997444447
 20
-7.500000003647521
 30
0.0
 40
0.5
100
AcDbArc
 50
0.0000000175090299
 51
180.000000017509
1001
AcDbBlockRepETag
1070
     1
1071
       31
1005
2186
  0
LINE
  5
2187
102
{ACAD_REACTORS
330
21AB
102
}
330
2163
100
AcDbEntity
  8
Aluprofile
100
AcDbLine
 10
-7.799999996986064
 20
-9.000000002749381
 30
0.0
 11
-14.39999998076263
 21
-9.000000002749381
 31
0.0
1001
AcDbBlockRepETag
1070
     1
1071
       32
1005
2187
  0
LINE
  5
2188
102
{ACAD_REACTORS
330
21AB
102
}
330
2163
100
AcDbEntity
  8
Aluprofile
100
AcDbLine
 10
-7.799999997444447
 20
-7.500000003800536
 30
0.0
 11
-7.799999996986064
 21
-9.000000002749381
 31
0.0
1001
AcDbBlockRepETag
1070
     1
1071
       33
1005
2188
  0
LINE
  5
2189
102
{ACAD_REACTORS
330
21AB
102
}
330
2163
100
AcDbEntity
  8
Aluprofile
100
AcDbLine
 10
-6.799999997444447
 20
-7.500000003494704
 30
0.0
 11
-6.799999996986064
 21
-9.000000007406015
 31
0.0
1001
AcDbBlockRepETag
1070
     1
1071
       34
1005
2189
  0
ARC
  5
218A
102
{ACAD_REACTORS
330
21AB
102
}
330
2163
100
AcDbEntity
  8
Aluprofile
100
AcDbCircle
 10
-7.299999996052465
 20
7.500000005605901
 30
0.0
 40
0.5
100
AcDbArc
 50
179.9999999363995
 51
359.9999999363995
1001
AcDbBlockRepETag
1070
     1
1071
       35
1005
218A
  0
LINE
  5
218B
102
{ACAD_REACTORS
330
21AB
102
}
330
2163
100
AcDbEntity
  8
Aluprofile
100
AcDbLine
 10
-14.39999999060973
 20
36.8998349020751
 30
0.0
 11
-14.39999999032801
 21
31.90000000748182
 31
0.0
1001
AcDbBlockRepETag
1070
     1
1071
       36
1005
218B
  0
LINE
  5
218C
102
{ACAD_REACTORS
330
21AB
102
}
330
2163
100
AcDbEntity
  8
Aluprofile
100
AcDbLine
 10
-14.40000000116804
 20
29.70000000627556
 30
0.0
 11
-14.39999999061064
 21
10.60000001007915
 31
0.0
1001
AcDbBlockRepETag
1070
     1
1071
       37
1005
218C
  0
LINE
  5
218D
102
{ACAD_REACTORS
330
21AB
102
}
330
2163
100
AcDbEntity
  8
Aluprofile
100
AcDbLine
 10
-6.800007893321044
 20
9.00000000666523
 30
0.0
 11
-5.392820295548465
 21
9.000000000669841
 31
0.0
1001
AcDbBlockRepETag
1070
     1
1071
       38
1005
218D
  0
LINE
  5
218E
102
{ACAD_REACTORS
330
21AB
102
}
330
2163
100
AcDbEntity
  8
Aluprofile
100
AcDbLine
 10
-7.799999994387523
 20
9.000000007114293
 30
0.0
 11
-14.39999998999514
 21
9.000000010079251
 31
0.0
1001
AcDbBlockRepETag
1070
     1
1071
       39
1005
218E
  0
ARC
  5
218F
102
{ACAD_REACTORS
330
21AB
102
}
330
2163
100
AcDbEntity
  8
Aluprofile
100
AcDbCircle
 10
-14.09999999032794
 20
31.90000000749888
 30
0.0
 40
0.3000000000000114
100
AcDbArc
 50
180.0000000032308
 51
270.0000000017652
1001
AcDbBlockRepETag
1070
     1
1071
       40
1005
218F
  0
LINE
  5
2190
102
{ACAD_REACTORS
330
21AB
102
}
330
2163
100
AcDbEntity
  8
Aluprofile
100
AcDbLine
 10
-12.58173553920602
 20
31.60000000755145
 30
0.0
 11
-11.88891521624276
 21
31.20000000758841
 31
0.0
1001
AcDbBlockRepETag
1070
     1
1071
       41
1005
2190
  0
LINE
  5
2191
102
{ACAD_REACTORS
330
21AB
102
}
330
2163
100
AcDbEntity
  8
Aluprofile
100
AcDbLine
 10
-10.40327457017673
 20
32.40000000758846
 30
0.0
 11
-10.80327457015545
 21
32.40000000758846
 31
0.0
1001
AcDbBlockRepETag
1070
     1
1071
       42
1005
2191
  0
LINE
  5
2192
102
{ACAD_REACTORS
330
21AB
102
}
330
2163
100
AcDbEntity
  8
Aluprofile
100
AcDbLine
 10
-14.09999999031873
 20
31.6000000074987
 30
0.0
 11
-12.58173553920602
 21
31.60000000755145
 31
0.0
1001
AcDbBlockRepETag
1070
     1
1071
       43
1005
2192
  0
ARC
  5
2193
102
{ACAD_REACTORS
330
21AB
102
}
330
2163
100
AcDbEntity
  8
Aluprofile
100
AcDbCircle
 10
-11.10327457014608
 20
31.50000000758837
 30
0.0
 40
0.2999999977240577
100
AcDbArc
 50
270.0
 51
0.0000000018238573
1001
AcDbBlockRepETag
1070
     1
1071
       44
1005
2193
  0
LINE
  5
2194
102
{ACAD_REACTORS
330
21AB
102
}
330
2163
100
AcDbEntity
  8
Aluprofile
100
AcDbLine
 10
-11.10327457014608
 20
31.20000000758841
 30
0.0
 11
-11.88891521624276
 21
31.20000000758841
 31
0.0
1001
AcDbBlockRepETag
1070
     1
1071
       45
1005
2194
  0
LINE
  5
2195
102
{ACAD_REACTORS
330
21AB
102
}
330
2163
100
AcDbEntity
  8
Aluprofile
100
AcDbLine
 10
-10.80327457017455
 20
32.40000000758846
 30
0.0
 11
-10.80327457014601
 21
31.50000000759815
 31
0.0
1001
AcDbBlockRepETag
1070
     1
1071
       46
1005
2195
  0
ARC
  5
2196
102
{ACAD_REACTORS
330
21AB
102
}
330
2163
100
AcDbEntity
  8
Aluprofile
100
AcDbCircle
 10
-14.10000000075825
 20
29.70000000643313
 30
0.0
 40
0.2999999977240577
100
AcDbArc
 50
90.00000003466631
 51
180.0000000300936
1001
AcDbBlockRepETag
1070
     1
1071
       47
1005
2196
  0
ARC
  5
2197
102
{ACAD_REACTORS
330
21AB
102
}
330
2163
100
AcDbEntity
  8
Aluprofile
100
AcDbCircle
 10
-10.90327457006373
 20
29.70000000848859
 30
0.0
 40
0.3000000000000114
100
AcDbArc
 50
0.0
 51
90.00000003466631
1001
AcDbBlockRepETag
1070
     1
1071
       48
1005
2197
  0
LINE
  5
2198
102
{ACAD_REACTORS
330
21AB
102
}
330
2163
100
AcDbEntity
  8
Aluprofile
100
AcDbLine
 10
-14.10000000093981
 20
30.00000000643308
 30
0.0
 11
-10.90327457024528
 21
30.00000000848855
 31
0.0
1001
AcDbBlockRepETag
1070
     1
1071
       49
1005
2198
  0
LINE
  5
2199
102
{ACAD_REACTORS
330
21AB
102
}
330
2163
100
AcDbEntity
  8
Aluprofile
100
AcDbLine
 10
-10.40327457017468
 20
32.4000000075862
 30
0.0
 11
-9.403274570136488
 21
31.40000000754822
 31
0.0
1001
AcDbBlockRepETag
1070
     1
1071
       50
1005
2199
  0
ARC
  5
219A
102
{ACAD_REACTORS
330
21AB
102
}
330
2163
100
AcDbEntity
  8
Aluprofile
100
AcDbCircle
 10
-9.903274570046225
 20
25.00000000878664
 30
0.0
 40
0.5
100
AcDbArc
 50
270.0000000392585
 51
0.0000000017847746
1001
AcDbBlockRepETag
1070
     1
1071
       51
1005
219A
  0
LINE
  5
219B
102
{ACAD_REACTORS
330
21AB
102
}
330
2163
100
AcDbEntity
  8
Aluprofile
100
AcDbLine
 10
-10.10327456970361
 20
24.50000000864975
 30
0.0
 11
-9.903274569703683
 21
24.50000000878663
 31
0.0
1001
AcDbBlockRepETag
1070
     1
1071
       52
1005
219B
  0
ARC
  5
219C
102
{ACAD_REACTORS
330
21AB
102
}
330
2163
100
AcDbEntity
  8
Aluprofile
100
AcDbCircle
 10
-10.10327457004627
 20
25.00000000864976
 30
0.0
 40
0.5
100
AcDbArc
 50
180.0
 51
270.0000000392585
1001
AcDbBlockRepETag
1070
     1
1071
       53
1005
219C
  0
LINE
  5
219D
102
{ACAD_REACTORS
330
21AB
102
}
330
2163
100
AcDbEntity
  8
Aluprofile
100
AcDbLine
 10
-9.403274570046221
 20
25.00000000880209
 30
0.0
 11
-9.403274570136488
 21
31.40000000754822
 31
0.0
1001
AcDbBlockRepETag
1070
     1
1071
       54
1005
219D
  0
LINE
  5
219E
102
{ACAD_REACTORS
330
21AB
102
}
330
2163
100
AcDbEntity
  8
Aluprofile
100
AcDbLine
 10
-10.60327457006377
 20
25.00000000864976
 30
0.0
 11
-10.60327457006377
 21
29.70000000848859
 31
0.0
1001
AcDbBlockRepETag
1070
     1
1071
       55
1005
219E
  0
ARC
  5
219F
102
{ACAD_REACTORS
330
21AB
102
}
330
2163
100
AcDbEntity
  8
Aluprofile
100
AcDbCircle
 10
-13.89999999060973
 20
36.89983490210329
 30
0.0
 40
0.5
100
AcDbArc
 50
90.0
 51
180.0000000032308
1001
AcDbBlockRepETag
1070
     1
1071
       56
1005
219F
  0
ARC
  5
21A0
102
{ACAD_REACTORS
330
21AB
102
}
330
2163
100
AcDbEntity
  8
Aluprofile
100
AcDbCircle
 10
-11.30327457015545
 20
36.89983490210329
 30
0.0
 40
0.5
100
AcDbArc
 50
0.0
 51
90.0
1001
AcDbBlockRepETag
1070
     1
1071
       57
1005
21A0
  0
LINE
  5
21A1
102
{ACAD_REACTORS
330
21AB
102
}
330
2163
100
AcDbEntity
  8
Aluprofile
100
AcDbLine
 10
-11.30327457015545
 20
37.3998349021033
 30
0.0
 11
-13.89999999060973
 21
37.3998349021033
 31
0.0
1001
AcDbBlockRepETag
1070
     1
1071
       58
1005
21A1
  0
LINE
  5
21A2
102
{ACAD_REACTORS
330
21AB
102
}
330
2163
100
AcDbEntity
  8
Aluprofile
100
AcDbLine
 10
-9.403274570185944
 20
36.80000000753466
 30
0.0
 11
-9.403274570186056
 21
38.4998349021032
 31
0.0
1001
AcDbBlockRepETag
1070
     1
1071
       59
1005
21A2
  0
ARC
  5
21A3
102
{ACAD_REACTORS
330
21AB
102
}
330
2163
100
AcDbEntity
  8
Aluprofile
100
AcDbCircle
 10
-9.903274570186056
 20
38.4998349021032
 30
0.0
 40
0.5
100
AcDbArc
 50
0.0
 51
89.99999999999348
1001
AcDbBlockRepETag
1070
     1
1071
       60
1005
21A3
  0
LINE
  5
21A4
102
{ACAD_REACTORS
330
21AB
102
}
330
2163
100
AcDbEntity
  8
Aluprofile
100
AcDbLine
 10
-9.903274570186056
 20
38.9998349021032
 30
0.0
 11
-15.49999999690038
 21
38.9998349021032
 31
0.0
1001
AcDbBlockRepETag
1070
     1
1071
       61
1005
21A4
  0
ARC
  5
21A5
102
{ACAD_REACTORS
330
21AB
102
}
330
2163
100
AcDbEntity
  8
Aluprofile
100
AcDbCircle
 10
-15.49999999690038
 20
38.4998349021032
 30
0.0
 40
0.5
100
AcDbArc
 50
90.0
 51
180.0000000293901
1001
AcDbBlockRepETag
1070
     1
1071
       62
1005
21A5
  0
LINE
  5
21A6
102
{ACAD_REACTORS
330
21AB
102
}
330
2163
100
AcDbEntity
  8
Aluprofile
100
AcDbLine
 10
-10.40327457015343
 20
35.80000000758855
 30
0.0
 11
-10.80327457015545
 21
35.80000000758855
 31
0.0
1001
AcDbBlockRepETag
1070
     1
1071
       63
1005
21A6
  0
LINE
  5
21A7
102
{ACAD_REACTORS
330
21AB
102
}
330
2163
100
AcDbEntity
  8
Aluprofile
100
AcDbLine
 10
-10.40327457015547
 20
35.80000000758628
 30
0.0
 11
-9.403274570106816
 21
36.80000000761379
 31
0.0
1001
AcDbBlockRepETag
1070
     1
1071
       64
1005
21A7
  0
LINE
  5
21A8
102
{ACAD_REACTORS
330
21AB
102
}
330
2163
100
AcDbEntity
  8
Aluprofile
100
AcDbLine
 10
-10.80327457015545
 20
35.80000000758855
 30
0.0
 11
-10.80327457015545
 21
36.89983490210329
 31
0.0
1001
AcDbBlockRepETag
1070
     1
1071
       65
1005
21A8
  0
LWPOLYLINE
  5
21A9
102
{ACAD_REACTORS
330
21AB
102
}
330
2163
100
AcDbEntity
  8
Aluprofile
100
AcDbPolyline
 90
        4
 70
     1
 43
0.0
 10
-6.199999994387495
 20
9.000000006283647
 10
-2.199999994387495
 20
9.000000006283647
 10
-2.199999994387495
 20
10.60000000442742
 10
-6.199999994387495
 20
10.60000000442742
1001
AcDbBlockRepETag
1070
     1
1071
       66
1005
21A9
  0
LWPOLYLINE
  5
21AA
102
{ACAD_REACTORS
330
21AB
102
}
330
2163
100
AcDbEntity
  8
Aluprofile
100
AcDbPolyline
 90
        4
 70
     1
 43
0.0
 10
-6.199999955850119
 20
-10.60000000437007
 10
-2.199999955850119
 20
-10.60000000437007
 10
-2.199999955850119
 20
-9.000000006226295
 10
-6.199999955850119
 20
-9.000000006226295
1001
AcDbBlockRepETag
1070
     1
1071
       67
1005
21AA
  0
HATCH
  5
21AB
330
2163
100
AcDbEntity
  8
Aluprofile
100
AcDbHatch
 10
0.0
 20
0.0
 30
0.0
210
0.0
220
0.0
230
1.0
  2
DOLMIT
 70
     0
 71
     1
 91
        4
 92
       17
 93
        4
 72
     1
 10
-6.199999955850119
 20
-10.60000000437007
 11
-2.199999955850119
 21
-10.60000000437007
 72
     1
 10
-2.199999955850119
 20
-10.60000000437007
 11
-2.199999955850119
 21
-9.000000006226295
 72
     1
 10
-2.199999955850119
 20
-9.000000006226295
 11
-6.199999955850119
 21
-9.000000006226295
 72
     1
 10
-6.199999955850119
 20
-9.000000006226295
 11
-6.199999955850119
 21
-10.60000000437007
 97
        1
330
21AA
 92
       16
 93
        4
 72
     1
 10
-6.199999994387495
 20
9.000000006283647
 11
-2.199999994387495
 21
9.000000006283647
 72
     1
 10
-2.199999994387495
 20
9.000000006283647
 11
-2.199999994387495
 21
10.60000000442742
 72
     1
 10
-2.199999994387495
 20
10.60000000442742
 11
-6.199999994387495
 21
10.60000000442742
 72
     1
 10
-6.199999994387495
 20
10.60000000442742
 11
-6.199999994387495
 21
9.000000006283647
 97
        1
330
21A9
 92
        1
 93
       63
 72
     1
 10
-10.80327457015545
 20
35.80000000758855
 11
-10.80327457015545
 21
36.89983490210329
 72
     2
 10
-11.30327457015545
 20
36.89983490210329
 40
0.5
 50
0.0
 51
90.0
 73
     1
 72
     1
 10
-11.30327457015545
 20
37.3998349021033
 11
-13.89999999060973
 21
37.3998349021033
 72
     2
 10
-13.89999999060973
 20
36.89983490210329
 40
0.5
 50
90.0
 51
180.0000000032308
 73
     1
 72
     1
 10
-14.39999999060973
 20
36.8998349020751
 11
-14.39999999032801
 21
31.90000000748182
 72
     2
 10
-14.09999999032794
 20
31.90000000749888
 40
0.3000000000000114
 50
180.0000000032308
 51
270.0000000017652
 73
     1
 72
     1
 10
-14.09999999031873
 20
31.6000000074987
 11
-12.58173553920602
 21
31.60000000755145
 72
     1
 10
-12.58173553920602
 20
31.60000000755145
 11
-11.88891521624276
 21
31.20000000758841
 72
     1
 10
-11.88891521624276
 20
31.20000000758841
 11
-11.10327457014608
 21
31.20000000758841
 72
     2
 10
-11.10327457014608
 20
31.50000000758837
 40
0.2999999977240577
 50
270.0
 51
360.0000000018239
 73
     1
 72
     1
 10
-10.80327457014601
 20
31.50000000759815
 11
-10.80327457017455
 21
32.40000000758846
 72
     1
 10
-10.80327457015545
 20
32.40000000758846
 11
-10.40327457017673
 21
32.40000000758846
 72
     1
 10
-10.40327457017468
 20
32.4000000075862
 11
-9.403274570136488
 21
31.40000000754822
 72
     1
 10
-9.403274570136488
 20
31.40000000754822
 11
-9.403274570046221
 21
25.00000000880209
 72
     2
 10
-9.903274570046225
 20
25.00000000878664
 40
0.5
 50
359.9999999982153
 51
449.9999999607415
 73
     0
 72
     1
 10
-9.903274569703683
 20
24.50000000878663
 11
-10.10327456970361
 21
24.50000000864975
 72
     2
 10
-10.10327457004627
 20
25.00000000864976
 40
0.5
 50
89.99999996074148
 51
180.0
 73
     0
 72
     1
 10
-10.60327457006377
 20
25.00000000864976
 11
-10.60327457006377
 21
29.70000000848859
 72
     2
 10
-10.90327457006373
 20
29.70000000848859
 40
0.3000000000000114
 50
0.0
 51
90.00000003466631
 73
     1
 72
     1
 10
-10.90327457024528
 20
30.00000000848855
 11
-14.10000000093981
 21
30.00000000643308
 72
     2
 10
-14.10000000075825
 20
29.70000000643313
 40
0.2999999977240577
 50
90.00000003466631
 51
180.0000000300936
 73
     1
 72
     1
 10
-14.40000000116804
 20
29.70000000627556
 11
-14.39999999061064
 21
10.60000001007915
 72
     1
 10
-14.39999999061064
 20
10.60000001007915
 11
-1.599999995783779
 21
10.60000000414947
 72
     1
 10
-1.599999995783778
 20
10.60000000414947
 11
-1.599999994076769
 21
14.00000000486829
 72
     2
 10
-0.5999999940767751
 20
14.000000004419
 40
0.9999999947316664
 50
180.0000000257424
 51
270.0000000257426
 73
     0
 72
     1
 10
-0.5999999936275932
 20
15.00000000441923
 11
1.133692347670427
 21
15.00000000381988
 72
     1
 10
1.133692347670427
 20
15.00000000381988
 11
1.600000005923158
 21
14.00000000361046
 72
     1
 10
1.600000005923158
 20
14.00000000361046
 11
0.0000000059231393
 21
14.00000000432919
 72
     1
 10
0.0000000059231393
 20
14.00000000432919
 11
0.0000000024641018
 21
6.300000005059017
 72
     2
 10
-0.7999999969983396
 20
6.300000005418271
 40
0.7999999838156102
 50
0.0000000257424427
 51
180.0000000665447
 73
     0
 72
     1
 10
-1.599999997448835
 20
6.300000006347545
 11
-1.599999996171334
 21
7.400000003530973
 72
     2
 10
-1.499999996171313
 20
7.400000003414784
 40
0.0999999986512989
 50
180.0000000665577
 51
269.9999997764146
 73
     0
 72
     2
 10
-1.499999996951773
 20
7.600000003292286
 40
0.0999999986512989
 50
270.0000002235853
 51
359.9999999742445
 73
     1
 72
     1
 10
-1.399999996951864
 20
7.600000003247262
 11
-1.399999996322947
 21
9.000000003230976
 72
     1
 10
-1.399999996322947
 20
9.000000003230976
 11
-6.799999994387523
 21
9.00000000666523
 72
     1
 10
-6.799999994387523
 20
9.00000000666523
 11
-6.799999996052465
 21
7.500000005051106
 72
     2
 10
-7.299999996052465
 20
7.500000005605901
 40
0.5
 50
0.0000000636005087
 51
180.0000000636005
 73
     0
 72
     1
 10
-7.799999996052465
 20
7.500000006160912
 11
-7.799999994387523
 21
9.000000007114293
 72
     1
 10
-7.799999994387523
 20
9.000000007114293
 11
-14.39999998999514
 21
9.000000010079251
 72
     1
 10
-14.39999998999514
 20
9.000000010079251
 11
-14.39999998076263
 21
-9.000000002749381
 72
     1
 10
-14.39999998076263
 20
-9.000000002749381
 11
-7.799999996986064
 21
-9.000000002749381
 72
     1
 10
-7.799999996986064
 20
-9.000000002749381
 11
-7.799999997444447
 21
-7.500000003800536
 72
     2
 10
-7.299999997444447
 20
-7.500000003647521
 40
0.5
 50
179.999999982491
 51
359.999999982491
 73
     0
 72
     1
 10
-6.799999997444447
 20
-7.500000003494704
 11
-6.799999996986064
 21
-9.000000007406015
 72
     1
 10
-6.799999996986064
 20
-9.000000007406015
 11
-1.399999996953344
 21
-8.999999996788574
 72
     1
 10
-1.399999996953344
 20
-8.999999996788574
 11
-1.399999997496198
 21
-7.599999996939237
 72
     2
 10
-1.499999997496218
 20
-7.599999996978087
 40
0.0999999999999659
 50
0.0000000222119761
 51
90.00000001553534
 73
     1
 72
     2
 10
-1.499999997550449
 20
-7.399999997357093
 40
0.1000000006743562
 50
89.99999998446474
 51
179.9999999815009
 73
     0
 72
     1
 10
-1.599999997550469
 20
-7.399999997389612
 11
-1.599999997905968
 21
-6.300000002502633
 72
     2
 10
-0.7999999975866709
 20
-6.300000002243912
 40
0.7999999838156102
 50
179.9999999814878
 51
359.999999977788
 73
     0
 72
     1
 10
0.0000000019998048
 20
-6.300000001933767
 11
0.0000000032017002
 21
-9.600000002361632
 72
     2
 10
-0.9999999968758324
 20
-9.600000002749311
 40
1.0
 50
359.999999977788
 51
450.0
 73
     0
 72
     1
 10
-0.9999999968758324
 20
-10.60000000274931
 11
-14.39999998004459
 21
-10.60000000274931
 72
     1
 10
-14.39999998004459
 20
-10.60000000274931
 11
-14.39999997050432
 21
-29.00019295241668
 72
     1
 10
-14.39999997050432
 20
-29.00019295241668
 11
-14.99999997101719
 21
-29.00019295241668
 72
     2
 10
-14.99999997101719
 20
-28.00019295241668
 40
1.0
 50
90.0
 51
179.9999999706098
 73
     0
 72
     1
 10
-15.99999997101719
 20
-28.00019295292964
 11
-16.00000000563869
 21
38.49983490184673
 72
     2
 10
-15.49999999690038
 20
38.4998349021032
 40
0.5
 50
179.9999999706098
 51
270.0
 73
     0
 72
     1
 10
-15.49999999690038
 20
38.9998349021032
 11
-9.903274570186056
 21
38.9998349021032
 72
     2
 10
-9.903274570186056
 20
38.4998349021032
 40
0.5
 50
270.0000000000065
 51
360.0
 73
     0
 72
     1
 10
-9.403274570186056
 20
38.4998349021032
 11
-9.403274570185944
 21
36.80000000753466
 72
     1
 10
-9.403274570106816
 20
36.80000000761379
 11
-10.40327457015547
 21
35.80000000758628
 72
     1
 10
-10.40327457015343
 20
35.80000000758855
 11
-10.80327457015545
 21
35.80000000758855
 97
       63
330
21A8
330
21A0
330
21A1
330
219F
330
218B
330
218F
330
2192
330
2190
330
2194
330
2193
330
2195
330
2191
330
2199
330
219D
330
219A
330
219B
330
219C
330
219E
330
2197
330
2198
330
2196
330
218C
330
216A
330
217E
330
217A
330
217D
330
217B
330
217C
330
216E
330
2178
330
2179
330
2177
330
2176
330
216D
330
2169
330
217F
330
218A
330
2180
330
218E
330
2181
330
2187
330
2188
330
2186
330
2189
330
216C
330
2175
330
2170
330
2171
330
2172
330
216F
330
2174
330
2173
330
216B
330
2183
330
2184
330
2185
330
2182
330
21A5
330
21A4
330
21A3
330
21A2
330
21A7
330
21A6
 92
       49
 93
        1
 72
     1
 10
-6.800007893321044
 20
9.00000000666523
 11
-5.392820295548465
 21
9.000000000669841
 97
       64
330
21A8
330
21A0
330
21A1
330
219F
330
218B
330
218F
330
2192
330
2190
330
2194
330
2193
330
2195
330
2191
330
2199
330
219D
330
219A
330
219B
330
219C
330
219E
330
2197
330
2198
330
2196
330
218C
330
216A
330
217E
330
217A
330
217D
330
217B
330
217C
330
216E
330
2178
330
2179
330
2177
330
2176
330
216D
330
2169
330
217F
330
218A
330
2180
330
218E
330
2181
330
2187
330
2188
330
2186
330
2189
330
216C
330
2175
330
2170
330
2171
330
2172
330
216F
330
2174
330
2173
330
216B
330
2183
330
2184
330
2185
330
2182
330
21A5
330
21A4
330
21A3
330
21A2
330
21A7
330
21A6
330
218D
 75
     0
 76
     1
 52
30.0
 41
0.2
 77
     0
 78
     2
 53
30.0
 43
0.0
 44
0.0
 45
-0.6349999999999999
 46
1.099852262806237
 79
     0
 53
74.99999999999999
 43
0.0
 44
0.0
 45
-3.469702160612961
 46
0.9297038919127656
 79
     2
 49
1.796051999999999
 49
-3.592099999999998
 98
        1
 10
0.0
 20
0.0
1001
ACAD
1010
0.0
1020
0.0
1030
0.0
1001
AcDbBlockRepETag
1070
     1
1071
       68
1005
21AB
  0
ENDBLK
  5
21AC
330
2163
100
AcDbEntity
  8
0
100
AcDbBlockEnd
  0
BLOCK
  5
22B4
330
22B3
100
AcDbEntity
  8
0
100
AcDbBlockBegin
  2
D-429.311
 70
     0
 10
0.0
 20
0.0
 30
0.0
  3
D-429.311
  1

  0
HATCH
  5
22B5
330
22B3
100
AcDbEntity
  8
Dichtungen
100
AcDbHatch
 10
0.0
 20
0.0
 30
0.0
210
0.0
220
0.0
230
1.0
  2
ANSI37
 70
     0
 71
     1
 91
        2
 92
        1
 93
       27
 72
     1
 10
-0.0585786437626865
 20
0.1414213562373163
 11
-0.0585786437628855
 21
2.699651495866476
 72
     2
 10
-0.2585786437628741
 20
2.699651495866476
 40
0.2
 50
0.0
 51
90.0
 73
     1
 72
     1
 10
-0.2585786437628741
 20
2.899651495866493
 11
-1.658578643762879
 21
2.899651495866493
 72
     2
 10
-1.658578643762879
 20
2.699651495866476
 40
0.2
 50
90.0
 51
180.0
 73
     1
 72
     1
 10
-1.858578643762896
 20
2.699651495866476
 11
-1.858578643762696
 21
2.399651495866493
 72
     2
 10
-2.158578643762679
 20
2.399651495866493
 40
0.3
 50
360.0
 51
498.9601010000011
 73
     0
 72
     1
 10
-2.384854643762693
 20
2.20267649586651
 11
-4.116045643762689
 21
4.191384495866515
 72
     2
 10
-3.678578643762691
 20
4.572203495866516
 40
0.58
 50
138.9601010000012
 51
180.0
 73
     0
 72
     1
 10
-4.258578643762675
 20
4.572203495866516
 11
-4.258578643762675
 21
4.627099495866501
 72
     2
 10
-3.678578643762691
 20
4.627099495866501
 40
0.58
 50
180.0
 51
221.0398989999988
 73
     0
 72
     1
 10
-4.116045643762689
 20
5.007918495866505
 11
-2.384854643762693
 21
6.996627495866505
 72
     2
 10
-2.158578643762679
 20
6.799651495866527
 40
0.3
 50
221.0398989999988
 51
360.0
 73
     0
 72
     1
 10
-1.858578643762696
 20
6.799651495866527
 11
-1.858578643762696
 21
6.499651495866544
 72
     2
 10
-1.658578643762679
 20
6.499651495866544
 40
0.2
 50
180.0
 51
270.0
 73
     1
 72
     1
 10
-1.658578643762679
 20
6.299651495866527
 11
-0.2585786437626751
 21
6.299651495866527
 72
     2
 10
-0.2585786437626751
 20
6.499651495866544
 40
0.2
 50
270.0
 51
360.0
 73
     1
 72
     1
 10
-0.0585786437626865
 20
6.499651495866544
 11
-0.0585786437626865
 21
10.09965149586651
 72
     1
 10
-0.0585786437626865
 20
10.09965149586651
 11
4.088332845605108
 21
14.20603098618196
 72
     2
 10
4.440145689278266
 20
13.85074557552369
 40
0.5
 50
225.2813779154355
 51
389.0817658714957
 73
     0
 72
     1
 10
4.877109165712994
 20
13.60771693469698
 11
2.441421356237313
 21
9.228370495866499
 72
     2
 10
3.441421356237313
 20
7.496319495866512
 40
2.0
 50
119.9999999999997
 51
180.0
 73
     1
 72
     1
 10
1.441421356237313
 20
7.496319495866512
 11
1.441421356237313
 21
2.799089356237316
 72
     2
 10
2.041421356237306
 20
2.799089356237316
 40
0.6
 50
180.0
 51
245.0
 73
     1
 72
     1
 10
1.787850356237314
 20
2.25530435623733
 11
3.47951635623731
 21
1.466468356237356
 72
     2
 10
3.141421356237301
 20
0.7414213562373391
 40
0.8
 50
295.0
 51
450.0
 73
     0
 72
     1
 10
3.141421356237301
 20
-0.0585786437626723
 11
0.1414213562373163
 21
-0.0585786437626723
 72
     2
 10
0.1414213562373163
 20
0.1414213562373163
 40
0.2
 50
90.0
 51
180.0
 73
     0
 97
       27
330
22D8
330
22C1
330
22BD
330
22C0
330
22C7
330
22BE
330
22BF
330
22D2
330
22D1
330
22D3
330
22C4
330
22C5
330
22C8
330
22C3
330
22C6
330
22C2
330
22D7
330
22B9
330
22B8
330
22B7
330
22B6
330
22D4
330
22BA
330
22BB
330
22BC
330
22D5
330
22D6
 92
       16
 93
        8
 72
     2
 10
-1.258578643762675
 20
4.599651495866509
 40
0.7
 50
270.0
 51
450.0
 73
     1
 72
     1
 10
-1.258578643762675
 20
5.299651495866527
 11
-2.77779264376268
 21
5.299651495866527
 72
     2
 10
-2.77779264376268
 20
4.999651495866514
 40
0.3
 50
90.0
 51
138.9601010000012
 73
     1
 72
     1
 10
-3.004068643762693
 20
5.196627495866521
 11
-3.409429643762691
 21
4.730968495866505
 72
     2
 10
-3.258578643762675
 20
4.599651495866509
 40
0.2
 50
138.9601010000012
 51
221.0398989999988
 73
     1
 72
     1
 10
-3.409429643762691
 20
4.468334495866512
 11
-3.004068643762693
 21
4.002676495866495
 72
     2
 10
-2.77779264376268
 20
4.199651495866502
 40
0.3
 50
221.0398989999988
 51
270.0
 73
     1
 72
     1
 10
-2.77779264376268
 20
3.899651495866493
 11
-1.258578643762675
 21
3.899651495866493
 97
        8
330
22D0
330
22CD
330
22CF
330
22CC
330
22CB
330
22CA
330
22CE
330
22C9
 75
     0
 76
     1
 52
0.0
 41
0.4
 77
     0
 78
     2
 53
45.0
 43
-74.10385997653673
 44
241.5744961112999
 45
-0.8980256121069151
 46
0.8980256121069153
 79
     0
 53
135.0
 43
-74.10385997653673
 44
241.5744961112999
 45
-0.8980256121069153
 46
-0.8980256121069151
 79
     0
 98
        1
 10
-74.10385997653673
 20
241.5744961112999
1001
ACAD
1010
0.0
1020
0.0
1030
0.0
  0
ARC
  5
22B6
102
{ACAD_REACTORS
330
22B5
102
}
330
22B3
100
AcDbEntity
  8
Dichtungen
100
AcDbCircle
 10
3.441421356237313
 20
7.496319495866512
 30
0.0
 40
2.0
100
AcDbArc
 50
119.9999999999997
 51
180.0
  0
LINE
  5
22B7
102
{ACAD_REACTORS
330
22B5
102
}
330
22B3
100
AcDbEntity
  8
Dichtungen
100
AcDbLine
 10
4.877109165712994
 20
13.60771693469698
 30
0.0
 11
2.441421356237313
 21
9.228370495866499
 31
0.0
  0
ARC
  5
22B8
102
{ACAD_REACTORS
330
22B5
102
}
330
22B3
100
AcDbEntity
  8
Dichtungen
100
AcDbCircle
 10
4.440145689278266
 20
13.85074557552369
 30
0.0
 40
0.5
100
AcDbArc
 50
330.9182341285043
 51
134.7186220845645
  0
LINE
  5
22B9
102
{ACAD_REACTORS
330
22B5
102
}
330
22B3
100
AcDbEntity
  8
Dichtungen
100
AcDbLine
 10
-0.0585786437626865
 20
10.09965149586651
 30
0.0
 11
4.088332845605108
 21
14.20603098618196
 31
0.0
  0
ARC
  5
22BA
102
{ACAD_REACTORS
330
22B5
102
}
330
22B3
100
AcDbEntity
  8
Dichtungen
100
AcDbCircle
 10
2.041421356237306
 20
2.799089356237316
 30
0.0
 40
0.6
100
AcDbArc
 50
180.0
 51
245.0
  0
LINE
  5
22BB
102
{ACAD_REACTORS
330
22B5
102
}
330
22B3
100
AcDbEntity
  8
Dichtungen
100
AcDbLine
 10
1.787850356237314
 20
2.25530435623733
 30
0.0
 11
3.47951635623731
 21
1.466468356237356
 31
0.0
  0
ARC
  5
22BC
102
{ACAD_REACTORS
330
22B5
102
}
330
22B3
100
AcDbEntity
  8
Dichtungen
100
AcDbCircle
 10
3.141421356237301
 20
0.7414213562373391
 30
0.0
 40
0.8
100
AcDbArc
 50
270.0
 51
64.99999999999996
  0
LINE
  5
22BD
102
{ACAD_REACTORS
330
22B5
102
}
330
22B3
100
AcDbEntity
  8
Dichtungen
100
AcDbLine
 10
-0.2585786437628741
 20
2.899651495866493
 30
0.0
 11
-1.658578643762879
 21
2.899651495866493
 31
0.0
  0
ARC
  5
22BE
102
{ACAD_REACTORS
330
22B5
102
}
330
22B3
100
AcDbEntity
  8
Dichtungen
100
AcDbCircle
 10
-2.158578643762679
 20
2.399651495866493
 30
0.0
 40
0.3
100
AcDbArc
 50
221.0398989999988
 51
0.0
  0
LINE
  5
22BF
102
{ACAD_REACTORS
330
22B5
102
}
330
22B3
100
AcDbEntity
  8
Dichtungen
100
AcDbLine
 10
-4.116045643762689
 20
4.191384495866515
 30
0.0
 11
-2.384854643762693
 21
2.20267649586651
 31
0.0
  0
ARC
  5
22C0
102
{ACAD_REACTORS
330
22B5
102
}
330
22B3
100
AcDbEntity
  8
Dichtungen
100
AcDbCircle
 10
-1.658578643762879
 20
2.699651495866476
 30
0.0
 40
0.2
100
AcDbArc
 50
90.0
 51
180.0
  0
ARC
  5
22C1
102
{ACAD_REACTORS
330
22B5
102
}
330
22B3
100
AcDbEntity
  8
Dichtungen
100
AcDbCircle
 10
-0.2585786437628741
 20
2.699651495866476
 30
0.0
 40
0.2
100
AcDbArc
 50
0.0
 51
90.0
  0
ARC
  5
22C2
102
{ACAD_REACTORS
330
22B5
102
}
330
22B3
100
AcDbEntity
  8
Dichtungen
100
AcDbCircle
 10
-0.2585786437626751
 20
6.499651495866544
 30
0.0
 40
0.2
100
AcDbArc
 50
270.0
 51
0.0
  0
ARC
  5
22C3
102
{ACAD_REACTORS
330
22B5
102
}
330
22B3
100
AcDbEntity
  8
Dichtungen
100
AcDbCircle
 10
-1.658578643762679
 20
6.499651495866544
 30
0.0
 40
0.2
100
AcDbArc
 50
180.0
 51
270.0
  0
LINE
  5
22C4
102
{ACAD_REACTORS
330
22B5
102
}
330
22B3
100
AcDbEntity
  8
Dichtungen
100
AcDbLine
 10
-4.116045643762689
 20
5.007918495866505
 30
0.0
 11
-2.384854643762693
 21
6.996627495866505
 31
0.0
  0
ARC
  5
22C5
102
{ACAD_REACTORS
330
22B5
102
}
330
22B3
100
AcDbEntity
  8
Dichtungen
100
AcDbCircle
 10
-2.158578643762679
 20
6.799651495866527
 30
0.0
 40
0.3
100
AcDbArc
 50
0.0
 51
138.9601010000012
  0
LINE
  5
22C6
102
{ACAD_REACTORS
330
22B5
102
}
330
22B3
100
AcDbEntity
  8
Dichtungen
100
AcDbLine
 10
-0.2585786437626751
 20
6.299651495866527
 30
0.0
 11
-1.658578643762679
 21
6.299651495866527
 31
0.0
  0
LINE
  5
22C7
102
{ACAD_REACTORS
330
22B5
102
}
330
22B3
100
AcDbEntity
  8
Dichtungen
100
AcDbLine
 10
-1.858578643762696
 20
2.399651495866493
 30
0.0
 11
-1.858578643762896
 21
2.699651495866476
 31
0.0
  0
LINE
  5
22C8
102
{ACAD_REACTORS
330
22B5
102
}
330
22B3
100
AcDbEntity
  8
Dichtungen
100
AcDbLine
 10
-1.858578643762696
 20
6.499651495866544
 30
0.0
 11
-1.858578643762696
 21
6.799651495866527
 31
0.0
  0
LINE
  5
22C9
102
{ACAD_REACTORS
330
22B5
102
}
330
22B3
100
AcDbEntity
  8
Dichtungen
100
AcDbLine
 10
-1.258578643762675
 20
3.899651495866493
 30
0.0
 11
-2.77779264376268
 21
3.899651495866493
 31
0.0
  0
LINE
  5
22CA
102
{ACAD_REACTORS
330
22B5
102
}
330
22B3
100
AcDbEntity
  8
Dichtungen
100
AcDbLine
 10
-3.409429643762691
 20
4.468334495866512
 30
0.0
 11
-3.004068643762693
 21
4.002676495866495
 31
0.0
  0
ARC
  5
22CB
102
{ACAD_REACTORS
330
22B5
102
}
330
22B3
100
AcDbEntity
  8
Dichtungen
100
AcDbCircle
 10
-3.258578643762675
 20
4.599651495866509
 30
0.0
 40
0.2
100
AcDbArc
 50
138.9601010000012
 51
221.0398989999988
  0
LINE
  5
22CC
102
{ACAD_REACTORS
330
22B5
102
}
330
22B3
100
AcDbEntity
  8
Dichtungen
100
AcDbLine
 10
-3.409429643762691
 20
4.730968495866505
 30
0.0
 11
-3.004068643762693
 21
5.196627495866521
 31
0.0
  0
LINE
  5
22CD
102
{ACAD_REACTORS
330
22B5
102
}
330
22B3
100
AcDbEntity
  8
Dichtungen
100
AcDbLine
 10
-1.258578643762675
 20
5.299651495866527
 30
0.0
 11
-2.77779264376268
 21
5.299651495866527
 31
0.0
  0
ARC
  5
22CE
102
{ACAD_REACTORS
330
22B5
102
}
330
22B3
100
AcDbEntity
  8
Dichtungen
100
AcDbCircle
 10
-2.77779264376268
 20
4.199651495866502
 30
0.0
 40
0.3
100
AcDbArc
 50
221.0398989999988
 51
270.0
  0
ARC
  5
22CF
102
{ACAD_REACTORS
330
22B5
102
}
330
22B3
100
AcDbEntity
  8
Dichtungen
100
AcDbCircle
 10
-2.77779264376268
 20
4.999651495866514
 30
0.0
 40
0.3
100
AcDbArc
 50
90.0
 51
138.9601010000012
  0
ARC
  5
22D0
102
{ACAD_REACTORS
330
22B5
102
}
330
22B3
100
AcDbEntity
  8
Dichtungen
100
AcDbCircle
 10
-1.258578643762675
 20
4.599651495866509
 30
0.0
 40
0.7
100
AcDbArc
 50
270.0
 51
90.0
  0
LINE
  5
22D1
102
{ACAD_REACTORS
330
22B5
102
}
330
22B3
100
AcDbEntity
  8
Dichtungen
100
AcDbLine
 10
-4.258578643762675
 20
4.572203495866516
 30
0.0
 11
-4.258578643762675
 21
4.627099495866501
 31
0.0
  0
ARC
  5
22D2
102
{ACAD_REACTORS
330
22B5
102
}
330
22B3
100
AcDbEntity
  8
Dichtungen
100
AcDbCircle
 10
-3.678578643762691
 20
4.572203495866516
 30
0.0
 40
0.58
100
AcDbArc
 50
180.0
 51
221.0398989999988
  0
ARC
  5
22D3
102
{ACAD_REACTORS
330
22B5
102
}
330
22B3
100
AcDbEntity
  8
Dichtungen
100
AcDbCircle
 10
-3.678578643762691
 20
4.627099495866501
 30
0.0
 40
0.58
100
AcDbArc
 50
138.9601010000012
 51
180.0
  0
LINE
  5
22D4
102
{ACAD_REACTORS
330
22B5
102
}
330
22B3
100
AcDbEntity
  8
Dichtungen
100
AcDbLine
 10
1.441421356237313
 20
2.799089356237316
 30
0.0
 11
1.441421356237313
 21
7.496319495866512
 31
0.0
  0
LINE
  5
22D5
102
{ACAD_REACTORS
330
22B5
102
}
330
22B3
100
AcDbEntity
  8
Dichtungen
100
AcDbLine
 10
0.1414213562373163
 20
-0.0585786437626723
 30
0.0
 11
3.141421356237301
 21
-0.0585786437626723
 31
0.0
  0
ARC
  5
22D6
102
{ACAD_REACTORS
330
22B5
102
}
330
22B3
100
AcDbEntity
  8
Dichtungen
100
AcDbCircle
 10
0.1414213562373163
 20
0.1414213562373163
 30
0.0
 40
0.2
100
AcDbArc
 50
180.0
 51
270.0
  0
LINE
  5
22D7
102
{ACAD_REACTORS
330
22B5
102
}
330
22B3
100
AcDbEntity
  8
Dichtungen
100
AcDbLine
 10
-0.0585786437626865
 20
6.499651495866544
 30
0.0
 11
-0.0585786437626865
 21
10.09965149586651
 31
0.0
  0
LINE
  5
22D8
102
{ACAD_REACTORS
330
22B5
102
}
330
22B3
100
AcDbEntity
  8
Dichtungen
100
AcDbLine
 10
-0.0585786437626865
 20
0.1414213562373163
 30
0.0
 11
-0.0585786437628855
 21
2.699651495866476
 31
0.0
  0
ENDBLK
  5
22D9
330
22B3
100
AcDbEntity
  8
0
100
AcDbBlockEnd
  0
ENDSEC
  0
SECTION
  2
ENTITIES
  0
HATCH
  5
1F13
330
1F
100
AcDbEntity
  8
Schraffur
 62
     5
100
AcDbHatch
 10
0.0
 20
0.0
 30
0.0
210
0.0
220
0.0
230
1.0
  2
STEEL
 70
     0
 71
     0
 91
        2
 92
        7
 72
     1
 73
     1
 93
        8
 10
80.21185881909245
 20
57.97934878505173
 42
0.0
 10
73.21185881909276
 20
57.97934878505173
 42
-0.4142135623730951
 10
72.2118588190927
 20
58.97934878505179
 42
0.0
 10
72.2118588190927
 20
75.9793487850518
 42
0.4142135623730951
 10
70.21185881909275
 20
77.9793487850518
 42
0.0
 10
56.21185881909259
 20
77.9793487850518
 42
0.0
 10
56.21185881909259
 20
7.979348785051602
 42
0.0
 10
80.21185881909245
 20
7.979348785051602
 42
0.0
 97
        0
 92
       24
 93
        4
 72
     1
 10
60.14015601513358
 20
37.47793986259619
 11
74.94015601513371
 21
37.47793986259619
 72
     1
 10
74.94015601513371
 20
37.47793986259619
 11
74.94015601513371
 21
29.38270176735811
 72
     1
 10
74.94015601513371
 20
29.38270176735811
 11
60.14015601513358
 21
29.38270176735811
 72
     1
 10
60.14015601513358
 20
29.38270176735811
 11
60.14015601513358
 21
37.47793986259619
 97
        0
 75
     0
 76
     1
 52
90.0
 41
2.0
 77
     0
 78
     2
 53
135.0
 43
-14.26176893671976
 44
5.979348497179931
 45
-4.490128060534575
 46
-4.490128060534575
 79
     0
 53
135.0
 43
-17.4367689367196
 44
5.979348497179931
 45
-4.490128060534575
 46
-4.490128060534575
 79
     0
 47
0.0811996146054584
 98
        3
 10
-14.26176893671976
 20
5.979348497179931
 10
-14.26176893671976
 20
5.979348497179931
 10
74.29501722594976
 20
44.49073456894222
1001
ACAD
1010
0.0
1020
0.0
1030
0.0
  0
LWPOLYLINE
  5
1F14
330
1F
100
AcDbEntity
  8
Sohlbank
100
AcDbPolyline
 90
       32
 70
     1
 43
0.0
 10
102.2118588190927
 20
39.47934878505173
 10
102.2118588190927
 20
39.47934878505173
 10
102.2118588190922
 20
55.97934878505173
 42
0.4142135623730951
 10
100.2118588190922
 20
57.97934878505173
 10
73.21185881909276
 20
57.97934878505173
 42
-0.4142135623730951
 10
72.2118588190927
 20
58.97934878505179
 10
72.2118588190927
 20
75.9793487850518
 42
0.4142135623730951
 10
70.21185881909275
 20
77.9793487850518
 10
49.21185881909275
 20
77.9793487850518
 10
49.21185881909275
 20
69.47934878506581
 10
44.21185881909275
 20
69.47934878506581
 10
44.21185881909275
 20
77.97934878506589
 10
35.21185881909258
 20
77.9793487850518
 10
34.21185881909247
 20
76.97934878505179
 10
34.21185881909247
 20
62.9793492852378
 10
35.3665593574712
 20
60.97934928523971
 10
34.21185881909247
 20
58.97934928523739
 10
34.21185881909247
 20
43.37934928523785
 10
34.21185881909333
 20
41.17004581401519
 42
0.5205670505517423
 10
38.2379192490704
 20
38.35096795165748
 10
42.44059292531011
 20
39.88061607414291
 42
0.2679491924311182
 10
42.76198673015341
 20
40.26363829570229
 10
43.16798570030118
 20
42.56617287388499
 42
-0.3639702342661923
 10
43.66038957680721
 20
42.97934878505155
 10
45.71185881909332
 20
42.97934878505155
 42
-0.4142135623731546
 10
46.21185881909338
 20
42.47934878505158
 10
46.21185881909332
 20
10.97934878505171
 42
0.4142135623730962
 10
49.21185881909332
 20
7.979348785051602
 10
91.21185881909321
 20
7.979348785051602
 42
0.4142135623730966
 10
94.21185881909321
 20
10.97934878505171
 10
94.21185881909357
 20
37.97934878505156
 10
100.7118588190926
 20
37.97934878505156
 42
0.4142135623731325
  0
LINE
  5
1F15
330
1F
100
AcDbEntity
  8
Schlitz-Zapfen
100
AcDbLine
 10
46.21185881909338
 20
42.47934878505158
 30
0.0
 11
46.21185881909309
 21
69.47934878506578
 31
0.0
  0
LINE
  5
1F16
330
1F
100
AcDbEntity
  8
Schlitz-Zapfen
100
AcDbLine
 10
55.71185881909309
 20
7.979348785051602
 30
0.0
 11
55.71185881909309
 21
77.97934878505174
 31
0.0
  0
LINE
  5
1F17
330
1F
100
AcDbEntity
  8
Schlitz-Zapfen
100
AcDbLine
 10
66.71185881909309
 20
7.979348785051602
 30
0.0
 11
66.71185881909309
 21
77.97934878505174
 31
0.0
  0
LINE
  5
1F18
330
1F
100
AcDbEntity
  8
Schlitz-Zapfen
100
AcDbLine
 10
78.71185881909275
 20
7.979348785051602
 30
0.0
 11
78.71185881909275
 21
57.97934878505173
 31
0.0
  0
LINE
  5
1F19
330
1F
100
AcDbEntity
  8
Schraffur
 62
     5
100
AcDbLine
 10
56.21185881909259
 20
77.9793487850518
 30
0.0
 11
56.21185881909259
 21
7.979348785051602
 31
0.0
  0
HATCH
  5
1F1A
330
1F
100
AcDbEntity
  8
Schraffur
 62
     5
100
AcDbHatch
 10
0.0
 20
0.0
 30
0.0
210
0.0
220
0.0
230
1.0
  2
STEEL
 70
     0
 71
     0
 91
        2
 92
        7
 72
     1
 73
     1
 93
        9
 10
102.2118588190922
 20
55.97934878505173
 42
0.4142135623730951
 10
100.2118588190922
 20
57.97934878505173
 42
0.0
 10
80.21185881909245
 20
57.97934878505173
 42
0.0
 10
80.21185881909245
 20
7.979348785051602
 42
0.0
 10
91.21185881909321
 20
7.979348785051602
 42
0.414213562373094
 10
94.21185881909321
 20
10.9793487850516
 42
0.0
 10
94.21185881909357
 20
37.97934878505156
 42
0.0
 10
100.7118588190926
 20
37.97934878505156
 42
0.4142135623730935
 10
102.2118588190927
 20
39.47934878505151
 42
0.0
 97
        0
 92
        7
 72
     1
 73
     1
 93
       22
 10
56.21185881909224
 20
77.9793487850518
 42
0.0
 10
49.21185881909275
 20
77.9793487850518
 42
0.0
 10
49.21185881909275
 20
69.47934878506581
 42
0.0
 10
44.21185881909275
 20
69.47934878506581
 42
0.0
 10
44.21185881909268
 20
77.97934878506589
 42
0.0
 10
35.21185881909258
 20
77.9793487850518
 42
0.0
 10
34.21185881909247
 20
76.97934878505179
 42
0.0
 10
34.21185881909247
 20
62.9793492852378
 42
0.0
 10
35.3665593574712
 20
60.97934928523962
 42
0.0
 10
34.21185881909247
 20
58.9793492852375
 42
0.0
 10
34.21185881909247
 20
43.37934928523785
 42
0.0
 10
34.21185881909333
 20
41.17004581401519
 42
0.5205670505517364
 10
38.23791924907027
 20
38.35096795165748
 42
0.0
 10
42.44059292531011
 20
39.88061607414291
 42
0.2679491924311047
 10
42.76198673015341
 20
40.26363829570229
 42
0.0
 10
43.16798570030118
 20
42.56617287388499
 42
-0.3639702342662244
 10
43.66038957680721
 20
42.97934878505155
 42
0.0
 10
45.71185881909332
 20
42.97934878505155
 42
-0.4142135623731546
 10
46.21185881909338
 20
42.47934878505158
 42
0.0
 10
46.21185881909332
 20
10.97934878505171
 42
0.4142135623731022
 10
49.21185881909332
 20
7.979348785051602
 42
0.0
 10
56.21185881909259
 20
7.979348785051602
 42
0.0
 97
        0
 75
     0
 76
     1
 52
0.0
 41
2.0
 77
     0
 78
     2
 53
45.0
 43
-424.6082449354644
 44
258.6217929333838
 45
-4.490128060534575
 46
4.490128060534575
 79
     0
 53
45.0
 43
-424.6082449354644
 44
261.7967929333838
 45
-4.490128060534575
 46
4.490128060534575
 79
     0
 47
0.2149027079017734
 98
        5
 10
87.06769613513092
 20
47.52828641693969
 10
49.63908802744459
 20
50.36844117805348
 10
-14.26176893671976
 20
5.979348497179931
 10
42.66867794488097
 20
34.14144856315771
 10
95.80597222261976
 20
28.61166318676962
1001
ACAD
1010
0.0
1020
0.0
1030
0.0
  0
LINE
  5
1F1B
330
1F
100
AcDbEntity
  8
Schraffur
 62
     5
100
AcDbLine
 10
80.21185881909245
 20
57.97934878505173
 30
0.0
 11
80.21185881909245
 21
7.979348785051602
 31
0.0
  0
MTEXT
  5
1F1C
330
1F
100
AcDbEntity
  8
Bemaßung
100
AcDbMText
 10
61.14015601513358
 20
36.4779398625962
 30
0.0
 40
4.0
 41
17.08212320174334
 71
     1
 72
     5
  1
{\Fromans|c0;70/68}
  7
RomanS
 73
     1
 44
1.0
  0
HATCH
  5
1F1D
330
1F
100
AcDbEntity
  8
Schraffur
 62
     5
100
AcDbHatch
 10
0.0
 20
0.0
 30
0.0
210
0.0
220
0.0
230
1.0
  2
STEEL
 70
     0
 71
     0
 91
        2
 92
        7
 72
     1
 73
     1
 93
        8
 10
230.2118588190926
 20
57.97934878505173
 42
0.0
 10
223.2118588190929
 20
57.97934878505173
 42
-0.4142135623730951
 10
222.2118588190927
 20
58.97934878505179
 42
0.0
 10
222.2118588190927
 20
75.9793487850518
 42
0.4142135623730951
 10
220.2118588190929
 20
77.9793487850518
 42
0.0
 10
206.2118588190926
 20
77.9793487850518
 42
0.0
 10
206.2118588190926
 20
7.979348785051602
 42
0.0
 10
230.2118588190926
 20
7.979348785051602
 42
0.0
 97
        0
 92
       24
 93
        4
 72
     1
 10
210.1401560151337
 20
37.47793986259619
 11
224.9401560151337
 21
37.47793986259619
 72
     1
 10
224.9401560151337
 20
37.47793986259619
 11
224.9401560151337
 21
29.38270176735811
 72
     1
 10
224.9401560151337
 20
29.38270176735811
 11
210.1401560151337
 21
29.38270176735811
 72
     1
 10
210.1401560151337
 20
29.38270176735811
 11
210.1401560151337
 21
37.47793986259619
 97
        0
 75
     0
 76
     1
 52
90.0
 41
2.0
 77
     0
 78
     2
 53
135.0
 43
135.7382310632804
 44
5.979348497179931
 45
-4.490128060534575
 46
-4.490128060534575
 79
     0
 53
135.0
 43
132.5632310632803
 44
5.979348497179931
 45
-4.490128060534575
 46
-4.490128060534575
 79
     0
 47
0.0811996146054584
 98
        3
 10
135.7382310632804
 20
5.979348497179931
 10
135.7382310632804
 20
5.979348497179931
 10
224.2950172259498
 20
44.49073456894222
1001
ACAD
1010
0.0
1020
0.0
1030
0.0
  0
LWPOLYLINE
  5
1F1E
330
1F
100
AcDbEntity
  8
Sohlbank
100
AcDbPolyline
 90
       29
 70
     0
 43
0.0
 10
252.2118588190929
 20
14.88840408225434
 10
252.2118588190929
 20
44.47934878505178
 10
252.2118588190923
 20
55.97934878505173
 42
0.4142135623730951
 10
250.2118588190923
 20
57.97934878505173
 10
223.2118588190929
 20
57.97934878505173
 42
-0.4142135623730951
 10
222.2118588190927
 20
58.97934878505179
 10
222.2118588190927
 20
75.9793487850518
 42
0.4142135623730951
 10
220.2118588190929
 20
77.9793487850518
 10
199.2118588190928
 20
77.9793487850518
 10
199.2118588190928
 20
69.47934878506581
 10
194.2118588190928
 20
69.47934878506581
 10
194.2118588190928
 20
77.97934878506589
 10
185.2118588190926
 20
77.9793487850518
 10
184.2118588190926
 20
76.97934878505179
 10
184.2118588190926
 20
62.9793492852378
 10
185.3665593574712
 20
60.97934928523971
 10
184.2118588190926
 20
58.97934928523739
 10
184.2118588190926
 20
43.37934928523785
 10
184.2118588190933
 20
40.97934878505156
 42
0.5205670505517467
 10
188.2379192490704
 20
38.1602709226939
 10
192.4405929253103
 20
39.6899190451792
 42
0.2679491924311182
 10
192.7619867301535
 20
40.07294126673868
 10
193.1679857003011
 20
42.56617287388499
 42
-0.3639702342661923
 10
193.6603895768073
 20
42.97934878505155
 10
195.7118588190933
 20
42.97934878505155
 42
-0.4142135623731546
 10
196.2118588190933
 20
42.47934878505158
 10
196.2118588190933
 20
10.97934878505171
 42
0.4142135623730962
 10
199.2118588190933
 20
7.979348785051602
 10
240.7795773332739
 20
7.979348785051602
  0
LINE
  5
1F1F
330
1F
100
AcDbEntity
  8
Schlitz-Zapfen
100
AcDbLine
 10
196.2118588190933
 20
42.47934878505158
 30
0.0
 11
196.2118588190931
 21
69.47934878506581
 31
0.0
  0
LINE
  5
1F20
330
1F
100
AcDbEntity
  8
Schlitz-Zapfen
100
AcDbLine
 10
205.7118588190931
 20
7.979348785051652
 30
0.0
 11
205.7118588190931
 21
77.9793487850518
 31
0.0
  0
LINE
  5
1F21
330
1F
100
AcDbEntity
  8
Schlitz-Zapfen
100
AcDbLine
 10
216.7118588190931
 20
7.979348785051652
 30
0.0
 11
216.7118588190931
 21
77.9793487850518
 31
0.0
  0
LINE
  5
1F22
330
1F
100
AcDbEntity
  8
Schlitz-Zapfen
100
AcDbLine
 10
228.7118588190929
 20
7.979348785051652
 30
0.0
 11
228.7118588190929
 21
57.97934878505173
 31
0.0
  0
LINE
  5
1F23
330
1F
100
AcDbEntity
  8
Schraffur
 62
     5
100
AcDbLine
 10
206.2118588190926
 20
77.9793487850518
 30
0.0
 11
206.2118588190926
 21
7.979348785051602
 31
0.0
  0
HATCH
  5
1F24
330
1F
100
AcDbEntity
  8
Schraffur
 62
     5
100
AcDbHatch
 10
0.0
 20
0.0
 30
0.0
210
0.0
220
0.0
230
1.0
  2
STEEL
 70
     0
 71
     0
 91
        2
 92
        7
 72
     1
 73
     1
 93
       22
 10
206.2118588190926
 20
77.9793487850518
 42
0.0
 10
199.2118588190928
 20
77.9793487850518
 42
0.0
 10
199.2118588190928
 20
69.47934878506581
 42
0.0
 10
194.2118588190928
 20
69.47934878506581
 42
0.0
 10
194.2118588190928
 20
77.97934878506589
 42
0.0
 10
185.2118588190926
 20
77.9793487850518
 42
0.0
 10
184.2118588190923
 20
76.97934878505179
 42
0.0
 10
184.2118588190926
 20
62.9793492852377
 42
0.0
 10
185.366559357471
 20
60.97934928523971
 42
0.0
 10
184.2118588190926
 20
58.97934928523739
 42
0.0
 10
184.2118588190926
 20
43.37934928523785
 42
0.0
 10
184.2118588190933
 20
41.17004581401519
 42
0.520567050551728
 10
188.2379192490704
 20
38.35096795165748
 42
0.0
 10
192.4405929253103
 20
39.88061607414291
 42
0.2679491924311182
 10
192.7619867301535
 20
40.26363829570229
 42
0.0
 10
193.1679857003011
 20
42.56617287388499
 42
-0.3639702342661922
 10
193.6603895768073
 20
42.97934878505155
 42
0.0
 10
195.7118588190933
 20
42.97934878505155
 42
-0.4142135623731546
 10
196.2118588190933
 20
42.47934878505158
 42
0.0
 10
196.2118588190933
 20
10.97934878505171
 42
0.4142135623730962
 10
199.2118588190933
 20
7.979348785051602
 42
0.0
 10
206.2118588190926
 20
7.979348785051602
 42
0.0
 97
        0
 92
        1
 93
        7
 72
     1
 10
240.779577333274
 20
7.979348785051602
 11
240.7795773332739
 21
14.88840408225434
 72
     1
 10
240.7795773332739
 20
14.88840408225434
 11
252.2118588190929
 21
14.88840408225434
 72
     1
 10
252.2118588190929
 20
14.88840408225434
 11
252.2118588190923
 21
55.97934878505173
 72
     2
 10
250.2118588190923
 20
55.97934878505173
 40
1.999999999999999
 50
0.0
 51
90.0
 73
     1
 72
     1
 10
250.2118588190923
 20
57.97934878505173
 11
230.2118588190926
 21
57.97934878505173
 72
     1
 10
230.2118588190926
 20
57.97934878505173
 11
230.2118588190926
 21
7.979348785051598
 72
     1
 10
230.2118588190926
 20
7.979348785051602
 11
240.779577333274
 21
7.979348785051602
 97
        0
 75
     0
 76
     1
 52
0.0
 41
2.0
 77
     0
 78
     2
 53
45.0
 43
-424.6082449354644
 44
258.6217929333838
 45
-4.490128060534575
 46
4.490128060534575
 79
     0
 53
45.0
 43
-424.6082449354644
 44
261.7967929333838
 45
-4.490128060534575
 46
4.490128060534575
 79
     0
 47
0.2972609671955222
 98
        4
 10
198.2010477917891
 20
45.72742961110711
 10
135.7382310632804
 20
5.979348497179931
 10
192.6686779448809
 20
34.14144856315771
 10
245.8059722226199
 20
28.61166318676962
1001
ACAD
1010
0.0
1020
0.0
1030
0.0
  0
LINE
  5
1F25
330
1F
100
AcDbEntity
  8
Schraffur
 62
     5
100
AcDbLine
 10
230.2118588190926
 20
57.97934878505173
 30
0.0
 11
230.2118588190926
 21
7.979348785051602
 31
0.0
  0
MTEXT
  5
1F26
330
1F
100
AcDbEntity
  8
Bemaßung
100
AcDbMText
 10
211.1401560151337
 20
36.4779398625962
 30
0.0
 40
4.0
 41
17.08212320174334
 71
     1
 72
     5
  1
{\Fromans|c0;70/68}
  7
RomanS
 73
     1
 44
1.0
  0
LWPOLYLINE
  5
1F27
330
1F
100
AcDbEntity
  8
0
100
AcDbPolyline
 90
        4
 70
     1
 43
0.0
 10
0.0000011707487033
 20
0.0000005697270922
 10
297.0000011707487
 20
0.0000005697270922
 10
297.0000011707487
 20
210.000000569727
 10
0.0000011707487033
 20
210.000000569727
  0
LWPOLYLINE
  5
1F28
330
1F
100
AcDbEntity
  8
0
100
AcDbPolyline
 90
        4
 70
     1
 43
0.0
 10
6.000001170748871
 20
6.000000569727093
 10
291.0000011707488
 20
6.000000569727093
 10
291.0000011707488
 20
204.000000569727
 10
6.000001170748871
 20
204.000000569727
  0
HATCH
  5
1F29
330
1F
100
AcDbEntity
  8
Schraffur
 62
     5
100
AcDbHatch
 10
0.0
 20
0.0
 30
0.0
210
0.0
220
0.0
230
1.0
  2
STEEL
 70
     0
 71
     0
 91
        2
 92
        7
 72
     1
 73
     1
 93
        8
 10
80.21185881909245
 20
154.9808310568925
 42
0.0
 10
73.21185881909276
 20
154.9808310568925
 42
-0.4142135623730951
 10
72.2118588190927
 20
155.9808310568925
 42
0.0
 10
72.2118588190927
 20
172.9808310568928
 42
0.4142135623730951
 10
70.21185881909275
 20
174.9808310568928
 42
0.0
 10
56.21185881909259
 20
174.9808310568928
 42
0.0
 10
56.21185881909259
 20
104.9808310568925
 42
0.0
 10
80.21185881909245
 20
104.9808310568925
 42
0.0
 97
        0
 92
       24
 93
        4
 72
     1
 10
60.14015601513358
 20
134.4794221344371
 11
74.94015601513371
 21
134.4794221344371
 72
     1
 10
74.94015601513371
 20
134.4794221344371
 11
74.94015601513371
 21
126.3841840391991
 72
     1
 10
74.94015601513371
 20
126.3841840391991
 11
60.14015601513358
 21
126.3841840391991
 72
     1
 10
60.14015601513358
 20
126.3841840391991
 11
60.14015601513358
 21
134.4794221344371
 97
        0
 75
     0
 76
     1
 52
90.0
 41
2.0
 77
     0
 78
     2
 53
135.0
 43
-14.26176893671976
 44
102.9808307690208
 45
-4.490128060534575
 46
-4.490128060534575
 79
     0
 53
135.0
 43
-17.4367689367196
 44
102.9808307690208
 45
-4.490128060534575
 46
-4.490128060534575
 79
     0
 47
0.0811996146054584
 98
        3
 10
-14.26176893671976
 20
102.9808307690208
 10
-14.26176893671976
 20
102.9808307690208
 10
74.29501722594976
 20
141.4922168407833
1001
ACAD
1010
0.0
1020
0.0
1030
0.0
  0
LWPOLYLINE
  5
1F2A
330
1F
100
AcDbEntity
  8
Sohlbank
100
AcDbPolyline
 90
       23
 70
     1
 43
0.0
 10
34.21185881909247
 20
136.3808315570786
 10
34.2118588190927
 20
107.9808310568925
 42
0.414213562373094
 10
37.21185881909271
 20
104.9808310568925
 10
91.21185881909276
 20
104.9808310568925
 10
99.21185881909195
 20
104.9808310568925
 42
0.4142135623730951
 10
102.2118588190927
 20
107.9808310568925
 10
102.2118588190927
 20
141.4808310568925
 10
102.2118588190922
 20
152.9808310568926
 42
0.4142135623730951
 10
100.2118588190922
 20
154.9808310568925
 10
73.21185881909276
 20
154.9808310568925
 42
-0.4142135623730951
 10
72.2118588190927
 20
155.9808310568925
 10
72.2118588190927
 20
172.9808310568928
 42
0.4142135623730951
 10
70.21185881909275
 20
174.9808310568928
 10
49.21185881909275
 20
174.9808310568928
 10
49.21185881909275
 20
166.4808310569068
 10
44.21185881909275
 20
166.4808310569068
 10
44.21185881909275
 20
174.9808310569069
 10
35.21185881909258
 20
174.9808310568928
 10
34.21185881909247
 20
173.9808310568928
 10
34.21185881909247
 20
159.9808315570788
 10
35.3665593574712
 20
157.9808315570806
 10
34.21185881909247
 20
155.9808315570784
 10
34.21185881909247
 20
140.3808315570788
  0
LINE
  5
1F2B
330
1F
100
AcDbEntity
  8
Schlitz-Zapfen
100
AcDbLine
 10
46.21185881909309
 20
104.9808310568925
 30
0.0
 11
46.21185881909309
 21
166.4808310569067
 31
0.0
  0
LINE
  5
1F2C
330
1F
100
AcDbEntity
  8
Schlitz-Zapfen
100
AcDbLine
 10
55.71185881909309
 20
104.9808310568925
 30
0.0
 11
55.71185881909309
 21
174.9808310568927
 31
0.0
  0
LINE
  5
1F2D
330
1F
100
AcDbEntity
  8
Schlitz-Zapfen
100
AcDbLine
 10
66.71185881909309
 20
104.9808310568925
 30
0.0
 11
66.71185881909309
 21
174.9808310568927
 31
0.0
  0
LINE
  5
1F2E
330
1F
100
AcDbEntity
  8
Schlitz-Zapfen
100
AcDbLine
 10
78.71185881909275
 20
104.9808310568925
 30
0.0
 11
78.71185881909275
 21
154.9808310568925
 31
0.0
  0
LINE
  5
1F2F
330
1F
100
AcDbEntity
  8
Schraffur
 62
     5
100
AcDbLine
 10
56.21185881909259
 20
174.9808310568928
 30
0.0
 11
56.21185881909259
 21
104.9808310568925
 31
0.0
  0
HATCH
  5
1F30
330
1F
100
AcDbEntity
  8
Schraffur
 62
     5
100
AcDbHatch
 10
0.0
 20
0.0
 30
0.0
210
0.0
220
0.0
230
1.0
  2
STEEL
 70
     0
 71
     0
 91
        2
 92
        7
 72
     1
 73
     1
 93
       25
 10
56.21185881909259
 20
174.9808310568928
 42
0.0
 10
51.73472993391897
 20
174.9808310568928
 42
-0.0132377735487261
 10
51.72436220380598
 20
174.9808310568928
 42
0.0
 10
49.21185881909275
 20
174.9808310568928
 42
0.0
 10
49.21185881909275
 20
166.4808310569068
 42
0.0
 10
44.21185881909275
 20
166.4808310569068
 42
0.0
 10
44.21185881909275
 20
174.9808310569069
 42
0.0
 10
35.21185881909258
 20
174.9808310568928
 42
0.0
 10
34.21185881909247
 20
173.9808310568928
 42
0.0
 10
34.21185881909247
 20
159.9808315570788
 42
0.0
 10
35.3665593574712
 20
157.9808315570806
 42
0.0
 10
34.21185881909247
 20
155.9808315570784
 42
0.0
 10
34.21185881909247
 20
148.3620815570805
 42
0.0
 10
34.21185881909247
 20
140.3808315570788
 42
0.0
 10
34.21185881909247
 20
136.3808315570786
 42
0.0
 10
34.2118588190927
 20
117.6803928586363
 42
-0.0002482623097805
 10
34.21185881909247
 20
117.6798955879283
 42
0.0
 10
34.21185881909247
 20
116.9887209042911
 42
0.0
 10
34.21185899829124
 20
116.9887226777654
 42
0.0
 10
34.2118588190927
 20
116.9887209042919
 42
0.0
 10
34.2118588190927
 20
107.9808310568925
 42
0.414213562373094
 10
37.21185881909271
 20
104.9808310568925
 42
0.0
 10
45.51812893807272
 20
104.9808310568925
 42
0.0
 10
47.51812893807271
 20
104.9808310568925
 42
0.0
 10
56.21185881909259
 20
104.9808310568925
 42
0.0
 97
        0
 92
        7
 72
     1
 73
     1
 93
        8
 10
102.2118588190927
 20
141.4808310568925
 42
0.0
 10
102.2118588190922
 20
152.9808310568926
 42
0.4142135623730951
 10
100.2118588190922
 20
154.9808310568925
 42
0.0
 10
80.21185881909245
 20
154.9808310568925
 42
0.0
 10
80.21185881909245
 20
104.9808310568925
 42
0.0
 10
91.21185881909276
 20
104.9808310568925
 42
0.0
 10
99.21185881909195
 20
104.9808310568925
 42
0.4142135623731202
 10
102.2118588190927
 20
107.9808310568929
 42
0.0
 97
        0
 75
     0
 76
     1
 52
0.0
 41
2.0
 77
     0
 78
     2
 53
45.0
 43
-14.26176893671976
 44
102.9808307690208
 45
-4.490128060534575
 46
4.490128060534575
 79
     0
 53
45.0
 43
-14.26176893671976
 44
106.1558307690208
 45
-4.490128060534575
 46
4.490128060534575
 79
     0
 47
0.0897931407034085
 98
        3
 10
-14.26176893671976
 20
102.9808307690208
 10
42.66867794488097
 20
131.1429308349986
 10
95.80597222261976
 20
125.6131454586106
1001
ACAD
1010
0.0
1020
0.0
1030
0.0
  0
LINE
  5
1F31
330
1F
100
AcDbEntity
  8
Schraffur
 62
     5
100
AcDbLine
 10
80.21185881909245
 20
154.9808310568925
 30
0.0
 11
80.21185881909245
 21
104.9808310568925
 31
0.0
  0
MTEXT
  5
1F32
330
1F
100
AcDbEntity
  8
Bemaßung
100
AcDbMText
 10
61.14015601513358
 20
133.4794221344371
 30
0.0
 40
4.0
 41
17.08212320174334
 71
     1
 72
     5
  1
{\Fromans|c0;70/68}
  7
RomanS
 73
     1
 44
1.0
  0
HATCH
  5
1F33
330
1F
100
AcDbEntity
  8
Schraffur
 62
     5
100
AcDbHatch
 10
0.0
 20
0.0
 30
0.0
210
0.0
220
0.0
230
1.0
  2
STEEL
 70
     0
 71
     0
 91
        2
 92
        7
 72
     1
 73
     1
 93
        8
 10
230.2118588190926
 20
154.9808310568925
 42
0.0
 10
223.2118588190929
 20
154.9808310568925
 42
-0.4142135623730951
 10
222.2118588190927
 20
155.9808310568925
 42
0.0
 10
222.2118588190927
 20
172.9808310568928
 42
0.4142135623730951
 10
220.2118588190929
 20
174.9808310568928
 42
0.0
 10
206.2118588190926
 20
174.9808310568928
 42
0.0
 10
206.2118588190926
 20
104.9808310568925
 42
0.0
 10
230.2118588190926
 20
104.9808310568925
 42
0.0
 97
        0
 92
       24
 93
        4
 72
     1
 10
210.1401560151337
 20
134.4794221344371
 11
224.9401560151337
 21
134.4794221344371
 72
     1
 10
224.9401560151337
 20
134.4794221344371
 11
224.9401560151337
 21
126.3841840391991
 72
     1
 10
224.9401560151337
 20
126.3841840391991
 11
210.1401560151337
 21
126.3841840391991
 72
     1
 10
210.1401560151337
 20
126.3841840391991
 11
210.1401560151337
 21
134.4794221344371
 97
        0
 75
     0
 76
     1
 52
90.0
 41
2.0
 77
     0
 78
     2
 53
135.0
 43
135.7382310632804
 44
102.9808307690208
 45
-4.490128060534575
 46
-4.490128060534575
 79
     0
 53
135.0
 43
132.5632310632803
 44
102.9808307690208
 45
-4.490128060534575
 46
-4.490128060534575
 79
     0
 47
0.0811996146054584
 98
        3
 10
135.7382310632804
 20
102.9808307690208
 10
135.7382310632804
 20
102.9808307690208
 10
224.2950172259498
 20
141.4922168407833
1001
ACAD
1010
0.0
1020
0.0
1030
0.0
  0
LWPOLYLINE
  5
1F34
102
{ACAD_REACTORS
330
1F3F
102
}
330
1F
100
AcDbEntity
  8
Sohlbank
100
AcDbPolyline
 90
       25
 70
     1
 43
0.0
 10
252.2118588190929
 20
136.4808310568926
 10
252.2118588190929
 20
136.4808310568926
 10
252.2118588190923
 20
152.9808310568926
 42
0.4142135623730951
 10
250.2118588190923
 20
154.9808310568925
 10
223.2118588190929
 20
154.9808310568925
 42
-0.4142135623730951
 10
222.2118588190927
 20
155.9808310568925
 10
222.2118588190927
 20
172.9808310568928
 42
0.4142135623730951
 10
220.2118588190929
 20
174.9808310568928
 10
199.2118588190928
 20
174.9808310568928
 10
199.2118588190928
 20
166.4808310569068
 10
194.2118588190928
 20
166.4808310569068
 10
194.2118588190928
 20
174.9808310569069
 10
185.2118588190926
 20
174.9808310568928
 10
184.2118588190926
 20
173.9808310568928
 10
184.2118588190926
 20
159.9808315570788
 10
185.3665593574712
 20
157.9808315570806
 10
184.2118588190926
 20
155.9808315570784
 10
184.2118588190926
 20
140.3808315570788
 10
184.2118588190926
 20
136.3808315570786
 10
184.2118588190926
 20
107.9808310568925
 42
0.414213562373094
 10
187.2118588190926
 20
104.9808310568925
 10
241.2118588190932
 20
104.9808310568925
 42
0.4142135623730966
 10
244.2118588190932
 20
107.9808310568925
 10
244.2118588190936
 20
134.9808310568925
 10
250.7118588190929
 20
134.9808310568925
 42
0.4142135623731325
  0
LINE
  5
1F35
330
1F
100
AcDbEntity
  8
Schlitz-Zapfen
100
AcDbLine
 10
196.2118588190931
 20
104.9808310568927
 30
0.0
 11
196.2118588190931
 21
166.4808310569068
 31
0.0
  0
LINE
  5
1F36
330
1F
100
AcDbEntity
  8
Schlitz-Zapfen
100
AcDbLine
 10
205.7118588190931
 20
104.9808310568927
 30
0.0
 11
205.7118588190931
 21
174.9808310568928
 31
0.0
  0
LINE
  5
1F37
330
1F
100
AcDbEntity
  8
Schlitz-Zapfen
100
AcDbLine
 10
216.7118588190931
 20
104.9808310568927
 30
0.0
 11
216.7118588190931
 21
174.9808310568928
 31
0.0
  0
LINE
  5
1F38
330
1F
100
AcDbEntity
  8
Schlitz-Zapfen
100
AcDbLine
 10
228.7118588190929
 20
104.9808310568927
 30
0.0
 11
228.7118588190929
 21
154.9808310568925
 31
0.0
  0
LINE
  5
1F39
330
1F
100
AcDbEntity
  8
Schraffur
 62
     5
100
AcDbLine
 10
206.2118588190926
 20
174.9808310568928
 30
0.0
 11
206.2118588190926
 21
104.9808310568925
 31
0.0
  0
HATCH
  5
1F3A
330
1F
100
AcDbEntity
  8
Schraffur
 62
     5
100
AcDbHatch
 10
0.0
 20
0.0
 30
0.0
210
0.0
220
0.0
230
1.0
  2
STEEL
 70
     0
 71
     0
 91
        2
 92
        7
 72
     1
 73
     1
 93
        9
 10
252.2118588190923
 20
152.9808310568926
 42
0.4142135623730951
 10
250.2118588190923
 20
154.9808310568925
 42
0.0
 10
230.2118588190926
 20
154.9808310568925
 42
0.0
 10
230.2118588190926
 20
104.9808310568925
 42
0.0
 10
241.2118588190932
 20
104.9808310568925
 42
0.414213562373094
 10
244.2118588190932
 20
107.9808310568925
 42
0.0
 10
244.2118588190933
 20
134.9808310568925
 42
0.0
 10
250.7118588190929
 20
134.9808310568925
 42
0.4142135623730935
 10
252.2118588190929
 20
136.4808310568925
 42
0.0
 97
        0
 92
        7
 72
     1
 73
     1
 93
       25
 10
206.2118588190926
 20
174.9808310568928
 42
0.0
 10
201.734729933919
 20
174.9808310568928
 42
-0.0132377735487261
 10
201.724362203806
 20
174.9808310568928
 42
0.0
 10
199.2118588190928
 20
174.9808310568928
 42
0.0
 10
199.2118588190928
 20
166.4808310569068
 42
0.0
 10
194.2118588190928
 20
166.4808310569068
 42
0.0
 10
194.2118588190928
 20
174.9808310569069
 42
0.0
 10
185.2118588190926
 20
174.9808310568928
 42
0.0
 10
184.2118588190926
 20
173.9808310568928
 42
0.0
 10
184.2118588190926
 20
159.9808315570788
 42
0.0
 10
185.3665593574712
 20
157.9808315570806
 42
0.0
 10
184.2118588190923
 20
155.9808315570784
 42
0.0
 10
184.2118588190923
 20
148.3620815570805
 42
0.0
 10
184.2118588190926
 20
140.3808315570788
 42
0.0
 10
184.2118588190926
 20
136.3808315570786
 42
0.0
 10
184.2118588190926
 20
117.6803928586363
 42
-0.0002482623097805
 10
184.2118588190926
 20
117.6798955879283
 42
0.0
 10
184.2118588190926
 20
116.9887209042911
 42
0.0
 10
184.2118589982911
 20
116.9887226777654
 42
0.0
 10
184.2118588190926
 20
116.9887209042919
 42
0.0
 10
184.2118588190926
 20
107.9808310568925
 42
0.414213562373094
 10
187.2118588190926
 20
104.9808310568925
 42
0.0
 10
195.5181289380728
 20
104.9808310568925
 42
0.0
 10
197.5181289380726
 20
104.9808310568925
 42
0.0
 10
206.2118588190926
 20
104.9808310568925
 42
0.0
 97
        0
 75
     0
 76
     1
 52
0.0
 41
2.0
 77
     0
 78
     2
 53
45.0
 43
-424.6082449354644
 44
276.7198836227567
 45
-4.490128060534575
 46
4.490128060534575
 79
     0
 53
45.0
 43
-424.6082449354644
 44
279.8948836227567
 45
-4.490128060534575
 46
4.490128060534575
 79
     0
 47
0.1515914182843967
 98
        4
 10
239.0249453402266
 20
142.7885916506406
 10
135.7382310632804
 20
102.9808307690208
 10
192.6686779448809
 20
131.1429308349986
 10
245.8059722226199
 20
125.6131454586106
1001
ACAD
1010
0.0
1020
0.0
1030
0.0
  0
LINE
  5
1F3B
330
1F
100
AcDbEntity
  8
Schraffur
 62
     5
100
AcDbLine
 10
230.2118588190926
 20
154.9808310568925
 30
0.0
 11
230.2118588190926
 21
104.9808310568925
 31
0.0
  0
MTEXT
  5
1F3C
330
1F
100
AcDbEntity
  8
Bemaßung
100
AcDbMText
 10
211.1401560151337
 20
133.4794221344371
 30
0.0
 40
4.0
 41
17.08212320174334
 71
     1
 72
     5
  1
{\Fromans|c0;70/68}
  7
RomanS
 73
     1
 44
1.0
  0
DIMENSION
  5
1F3D
102
{ACAD_XDICTIONARY
360
1F3E
102
}
102
{ACAD_REACTORS
330
1F3F
102
}
330
1F
100
AcDbEntity
  8
Bemaßung
100
AcDbDimension
  2
*D14
 10
244.2118588190936
 20
131.139633890049
 30
0.0
 11
248.2118588190932
 21
133.014633890049
 31
0.0
 70
    32
 71
     5
 42
7.999999999999316
  3
IDEAL Holz
100
AcDbAlignedDimension
 13
252.2118588190929
 23
136.4808310568926
 33
0.0
 14
244.2118588190936
 24
132.9341523750573
 34
0.0
100
AcDbRotatedDimension
  0
DIMENSION
  5
1F40
330
1F
100
AcDbEntity
  8
Bemaßung
100
AcDbDimension
  2
*D5
 10
261.783573847566
 20
104.9808310568925
 30
0.0
 11
259.908573847566
 21
119.9808310568926
 31
0.0
 70
    32
 71
     5
 42
30.0
  3
IDEAL Holz
100
AcDbAlignedDimension
 13
255.6234758237888
 23
134.9808310568925
 33
0.0
 14
254.0822076559516
 24
104.9808310568925
 34
0.0
 50
90.0
100
AcDbRotatedDimension
  0
DIMENSION
  5
1F41
330
1F
100
AcDbEntity
  8
Bemaßung
100
AcDbDimension
  2
*D6
 10
184.2118588190933
 20
34.40522733746901
 30
0.0
 11
190.2118588190933
 21
36.28022733746901
 31
0.0
 70
    32
 71
     5
 42
12.0
  3
IDEAL Holz
100
AcDbAlignedDimension
 13
196.2118588190933
 23
34.40522733746901
 33
0.0
 14
184.2118588190933
 24
34.40522733746901
 34
0.0
100
AcDbRotatedDimension
  0
DIMENSION
  5
1F42
330
1F
100
AcDbEntity
  8
Bemaßung
100
AcDbDimension
  2
*D7
 10
178.52296860646
 20
7.979348785051602
 30
0.0
 11
176.6479686064601
 21
22.97934878505161
 31
0.0
 70
    32
 71
     5
 42
29.99999999999996
  3
IDEAL Holz
100
AcDbAlignedDimension
 13
181.9299137127768
 23
37.97934878505156
 33
0.0
 14
182.3492408363336
 24
7.979348785051602
 34
0.0
 50
90.0
100
AcDbRotatedDimension
  0
DIMENSION
  5
1F43
330
1F
100
AcDbEntity
  8
Bemaßung
100
AcDbDimension
  2
*D8
 10
172.9307249429756
 20
42.97934878505156
 30
0.0
 11
171.0557249429756
 21
25.47934878505161
 31
0.0
 70
    32
 71
     5
 42
34.99999999999996
  3
IDEAL Holz
100
AcDbAlignedDimension
 13
178.52296860646
 23
7.979348785051602
 33
0.0
 14
181.2700363348077
 24
42.97934878505155
 34
0.0
 50
90.0
100
AcDbRotatedDimension
  0
DIMENSION
  5
1F44
330
1F
100
AcDbEntity
  8
Bemaßung
100
AcDbDimension
  2
*D9
 10
34.21185881909333
 20
34.40522733746901
 30
0.0
 11
40.21185881909334
 21
36.28022733746901
 31
0.0
 70
    32
 71
     5
 42
12.00000000000005
  3
IDEAL Holz
100
AcDbAlignedDimension
 13
46.21185881909338
 23
34.40522733746901
 33
0.0
 14
34.21185881909333
 24
34.40522733746901
 34
0.0
100
AcDbRotatedDimension
  0
DIMENSION
  5
1F45
330
1F
100
AcDbEntity
  8
Bemaßung
100
AcDbDimension
  2
*D10
 10
28.52296860646038
 20
7.979348785051602
 30
0.0
 11
26.64796860646038
 21
22.97934878505159
 31
0.0
 70
    32
 71
     5
 42
29.99999999999996
  3
IDEAL Holz
100
AcDbAlignedDimension
 13
31.92991371277691
 23
37.97934878505156
 33
0.0
 14
32.34924083633359
 24
7.979348785051602
 34
0.0
 50
90.0
100
AcDbRotatedDimension
  0
DIMENSION
  5
1F46
330
1F
100
AcDbEntity
  8
Bemaßung
100
AcDbDimension
  2
*D11
 10
22.93072494297536
 20
42.97934878505155
 30
0.0
 11
21.05572494297535
 21
25.47934878505158
 31
0.0
 70
    32
 71
     5
 42
34.99999999999996
  3
IDEAL Holz
100
AcDbAlignedDimension
 13
28.52296860646038
 23
7.979348785051602
 33
0.0
 14
31.27003633480774
 24
42.97934878505155
 34
0.0
 50
90.0
100
AcDbRotatedDimension
  0
DIMENSION
  5
1F47
330
1F
100
AcDbEntity
  8
Bemaßung
100
AcDbDimension
  2
*D12
 10
94.21185881909357
 20
34.13815161820811
 30
0.0
 11
98.21185881909308
 21
36.01315161820811
 31
0.0
 70
    32
 71
     5
 42
7.99999999999903
  3
IDEAL Holz
100
AcDbAlignedDimension
 13
102.2118588190926
 23
39.47934878505173
 33
0.0
 14
94.21185881909357
 24
35.93267010321623
 34
0.0
100
AcDbRotatedDimension
  0
DIMENSION
  5
1F48
330
1F
100
AcDbEntity
  8
Bemaßung
100
AcDbDimension
  2
*D13
 10
111.783573847566
 20
7.979348785051596
 30
0.0
 11
109.908573847566
 21
22.9793487850516
 31
0.0
 70
    32
 71
     5
 42
29.99999999999996
  3
IDEAL Holz
100
AcDbAlignedDimension
 13
105.6234758237887
 23
37.97934878505156
 33
0.0
 14
104.0822076559516
 24
7.979348785051602
 34
0.0
 50
90.0
100
AcDbRotatedDimension
  0
MTEXT
  5
1F49
330
1F
100
AcDbEntity
  8
0
100
AcDbMText
 10
76.55507060242022
 20
184.3221142633518
 30
0.0
 40
5.0
 41
68.54906907578879
 71
     1
 72
     5
  1
SB 0 - ohne Fräsung\Pmit Steinbankanschluss
  7
RomanS
 73
     1
 44
1.0
  0
MTEXT
  5
1F4A
330
1F
100
AcDbEntity
  8
0
100
AcDbMText
 10
200.4370609392735
 20
190.5479067398772
 30
0.0
 40
5.0
 41
96.28965376318099
 71
     1
 72
     5
  1
SB 1 - FB-Fräsung innen\P       mit Steinbankanschluss
  7
RomanS
 73
     1
 44
1.0
1001
ACAD
1000
ACAD_MTEXT_DEFINED_HEIGHT_BEGIN
1070
    46
1040
13.89527648061767
1000
ACAD_MTEXT_DEFINED_HEIGHT_END
  0
MTEXT
  5
1F4B
330
1F
100
AcDbEntity
  8
0
100
AcDbMText
 10
56.296161464772
 20
87.7206797864081
 30
0.0
 40
5.0
 41
107.6101393196304
 71
     1
 72
     5
  1
SB 2 - Fräsung innen und außen
  7
RomanS
 73
     1
 44
1.0
1001
ACAD
1000
ACAD_MTEXT_DEFINED_HEIGHT_BEGIN
1070
    46
1040
13.38985017550521
1000
ACAD_MTEXT_DEFINED_HEIGHT_END
  0
MTEXT
  5
1F4C
330
1F
100
AcDbEntity
  8
0
100
AcDbMText
 10
204.0656263010486
 20
86.05531821800958
 30
0.0
 40
5.0
 41
93.56262419775886
 71
     1
 72
     5
  1
SB 3 - Alubankfräsung außen
  7
RomanS
 73
     1
 44
1.0
1001
ACAD
1000
ACAD_MTEXT_DEFINED_HEIGHT_BEGIN
1070
    46
1040
13.11748362952676
1000
ACAD_MTEXT_DEFINED_HEIGHT_END
  0
MTEXT
  5
1F4D
102
{ACAD_XDICTIONARY
360
22A7
102
}
330
1F
100
AcDbEntity
  8
0
100
AcDbMText
 10
37.95951442152858
 20
201.6378246799756
 30
0.0
 40
5.0
 41
195.0107101860835
 71
     1
 72
     5
  1
{\fArial|b1|i0|c0|p34;Standard-Fensterbankanschl\U+00FCsse\P\H0.6x;SB-Sonderfr\U+00E4sungen gesondert angeben}
 73
     1
 44
1.0
1001
ACAD
1000
ACAD_MTEXT_DEFINED_HEIGHT_BEGIN
1070
    46
1040
11.02238646360934
1000
ACAD_MTEXT_DEFINED_HEIGHT_END
  0
INSERT
  5
1F4E
330
1F
100
AcDbEntity
  8
Dichtungen
100
AcDbBlockReference
  2
D-Blendrahmendichtung
 10
44.21185881909275
 20
174.9808310569068
 30
0.0
  0
INSERT
  5
1F50
330
1F
100
AcDbEntity
  8
Aluhalter
100
AcDbBlockReference
  2
C-MEH40
 10
30.21185881909263
 20
157.9808315570809
 30
0.0
  0
INSERT
  5
1F51
330
1F
100
AcDbEntity
  8
Dichtungen
100
AcDbBlockReference
  2
D-Blendrahmendichtung
 10
44.21185881909275
 20
77.97934878506589
 30
0.0
  0
INSERT
  5
1F53
330
1F
100
AcDbEntity
  8
Aluhalter
100
AcDbBlockReference
  2
C-MEH40
 10
30.21185881909263
 20
60.97934928524001
 30
0.0
  0
INSERT
  5
1F54
330
1F
100
AcDbEntity
  8
Dichtungen
100
AcDbBlockReference
  2
D-Blendrahmendichtung
 10
194.2118588190929
 20
77.97934878506589
 30
0.0
  0
INSERT
  5
1F56
330
1F
100
AcDbEntity
  8
Aluhalter
100
AcDbBlockReference
  2
C-MEH40
 10
180.2118588190927
 20
60.97934928524001
 30
0.0
  0
INSERT
  5
1F57
330
1F
100
AcDbEntity
  8
Dichtungen
100
AcDbBlockReference
  2
D-Blendrahmendichtung
 10
194.2118588190929
 20
174.9808310569068
 30
0.0
  0
INSERT
  5
1F59
330
1F
100
AcDbEntity
  8
Aluhalter
100
AcDbBlockReference
  2
C-MEH40
 10
180.2118588190927
 20
157.9808315570809
 30
0.0
  0
INSERT
  5
1F5A
330
1F
100
AcDbEntity
  8
Aluprofile
100
AcDbBlockReference
  2
A-SB36-17
 10
30.21185881909264
 20
116.0491276358639
 30
0.0
  0
INSERT
  5
1F5B
330
1F
100
AcDbEntity
  8
Aluhalter
100
AcDbBlockReference
  2
C-DC340
 10
30.21185881909264
 20
116.0491276358639
 30
0.0
  0
INSERT
  5
1F5D
330
1F
100
AcDbEntity
  8
Aluprofile
100
AcDbBlockReference
  2
A-SB36-17
 10
180.2118588190925
 20
116.0491276358639
 30
0.0
  0
INSERT
  5
1F5E
330
1F
100
AcDbEntity
  8
Aluhalter
100
AcDbBlockReference
  2
C-DC340
 10
180.2118588190925
 20
116.0491276358639
 30
0.0
  0
DIMENSION
  5
204F
330
1F
100
AcDbEntity
  8
Bemaßung
100
AcDbDimension
  2
*D15
 10
11.11060948375415
 20
128.9806386031013
 30
0.0
 11
9.235609483754133
 21
162.9806525311427
 31
0.0
 70
    32
 71
     5
 42
68.00002785608282
  3
IDEAL Holz
100
AcDbAlignedDimension
 13
11.11060948375417
 23
196.9806664591841
 33
0.0
 14
11.11060948375415
 24
128.9806386031013
 34
0.0
 50
90.0
100
AcDbRotatedDimension
  0
DIMENSION
  5
2067
330
1F
100
AcDbEntity
  8
Bemaßung
100
AcDbDimension
  2
*D16
 10
159.6013109040113
 20
128.9806386031013
 30
0.0
 11
157.7263109040113
 21
161.980735079698
 31
0.0
 70
    32
 71
     5
 42
66.00019295319339
  3
IDEAL Holz
100
AcDbAlignedDimension
 13
165.8167424325195
 23
194.9808315562947
 33
0.0
 14
159.6013109040113
 24
128.9806386031013
 34
0.0
 50
90.0
100
AcDbRotatedDimension
  0
MTEXT
  5
209A
330
1F
100
AcDbEntity
  8
Bemaßung
100
AcDbMText
 10
107.8339041743087
 20
149.4860960696282
 30
0.0
 40
2.5
 41
46.67886561804603
 71
     1
 72
     5
  1
Aluschalen auch in der Größe 86mm lieferbar \P(für Sohlbankverbreiterung 90mm)
  7
RomanS
 73
     1
 44
1.0
  0
INSERT
  5
21BB
102
{ACAD_XDICTIONARY
360
21BC
102
}
330
1F
100
AcDbEntity
  8
0
100
AcDbBlockReference
  2
A-FB68-17 waschli
 10
30.21185881909242
 20
60.97934928524001
 30
0.0
  0
MTEXT
  5
21BD
330
1F
100
AcDbEntity
  8
Text intern
100
AcDbMText
 10
29.86374785075493
 20
83.35626630021019
 30
0.0
 40
2.5
 41
14.86233802803417
 71
     3
 72
     5
  1
FB68-17
  7
RomanS
 11
1.0
 21
-0.0000000000101663
 31
0.0
 73
     1
 44
1.0
1001
ACAD
1000
ACAD_MTEXT_DEFINED_HEIGHT_BEGIN
1070
    46
1040
2.045463289357485
1000
ACAD_MTEXT_DEFINED_HEIGHT_END
  0
INSERT
  5
21BE
102
{ACAD_XDICTIONARY
360
21BF
102
}
330
1F
100
AcDbEntity
  8
0
100
AcDbBlockReference
  2
A-FB68-17 waschli
 10
30.21185881909242
 20
157.9808315570809
 30
0.0
  0
MTEXT
  5
21C0
330
1F
100
AcDbEntity
  8
Text intern
100
AcDbMText
 10
29.86374785075493
 20
180.3577485720511
 30
0.0
 40
2.5
 41
14.86233802803417
 71
     3
 72
     5
  1
FB68-17
  7
RomanS
 11
1.0
 21
-0.0000000000101663
 31
0.0
 73
     1
 44
1.0
1001
ACAD
1000
ACAD_MTEXT_DEFINED_HEIGHT_BEGIN
1070
    46
1040
2.045463289357485
1000
ACAD_MTEXT_DEFINED_HEIGHT_END
  0
INSERT
  5
21C1
102
{ACAD_XDICTIONARY
360
21C2
102
}
330
1F
100
AcDbEntity
  8
0
100
AcDbBlockReference
  2
A-FB68-17 waschli
 10
180.2118588190925
 20
157.9808315570809
 30
0.0
  0
MTEXT
  5
21C3
330
1F
100
AcDbEntity
  8
Text intern
100
AcDbMText
 10
179.863747850755
 20
180.3577485720511
 30
0.0
 40
2.5
 41
14.86233802803417
 71
     3
 72
     5
  1
FB68-17
  7
RomanS
 11
1.0
 21
-0.0000000000101663
 31
0.0
 73
     1
 44
1.0
1001
ACAD
1000
ACAD_MTEXT_DEFINED_HEIGHT_BEGIN
1070
    46
1040
2.045463289357485
1000
ACAD_MTEXT_DEFINED_HEIGHT_END
  0
INSERT
  5
21C4
102
{ACAD_XDICTIONARY
360
21C5
102
}
330
1F
100
AcDbEntity
  8
0
100
AcDbBlockReference
  2
A-FB68-17 waschli
 10
180.2118588190925
 20
60.97934928524001
 30
0.0
  0
MTEXT
  5
21C6
330
1F
100
AcDbEntity
  8
Text intern
100
AcDbMText
 10
179.863747850755
 20
83.35626630021019
 30
0.0
 40
2.5
 41
14.86233802803417
 71
     3
 72
     5
  1
FB68-17
  7
RomanS
 11
1.0
 21
-0.0000000000101663
 31
0.0
 73
     1
 44
1.0
1001
ACAD
1000
ACAD_MTEXT_DEFINED_HEIGHT_BEGIN
1070
    46
1040
2.045463289357485
1000
ACAD_MTEXT_DEFINED_HEIGHT_END
  0
MTEXT
  5
2272
330
1F
100
AcDbEntity
  8
Text intern
100
AcDbMText
 10
19.72355053380131
 20
126.4065550039146
 30
0.0
 40
2.5
 41
14.86233802803417
 71
     3
 72
     5
  1
SB36-17
  7
RomanS
 11
1.0
 21
-0.0000000000101663
 31
0.0
 73
     1
 44
1.0
1001
ACAD
1000
ACAD_MTEXT_DEFINED_HEIGHT_BEGIN
1070
    46
1040
2.045463289357485
1000
ACAD_MTEXT_DEFINED_HEIGHT_END
  0
MTEXT
  5
2273
330
1F
100
AcDbEntity
  8
Text intern
100
AcDbMText
 10
169.7235505338012
 20
126.4065550039146
 30
0.0
 40
2.5
 41
14.86233802803417
 71
     3
 72
     5
  1
SB36-17
  7
RomanS
 11
1.0
 21
-0.0000000000101663
 31
0.0
 73
     1
 44
1.0
1001
ACAD
1000
ACAD_MTEXT_DEFINED_HEIGHT_BEGIN
1070
    46
1040
2.045463289357485
1000
ACAD_MTEXT_DEFINED_HEIGHT_END
  0
MTEXT
  5
228C
330
1F
100
AcDbEntity
  8
0
100
AcDbMText
 10
243.4297653619516
 20
12.93367225561604
 30
0.0
 40
5.0
 41
44.56825787201046
 71
     1
 72
     5
  1
{\fArial|b0|i0|c0|p34;02-PL68-xx/56}
 73
     1
 44
1.0
1001
ACAD
1000
ACAD_MTEXT_DEFINED_HEIGHT_BEGIN
1070
    46
1040
9.819575724238347
1000
ACAD_MTEXT_DEFINED_HEIGHT_END
  0
INSERT
  5
22E1
330
1F
100
AcDbEntity
  8
Bemaßung
100
AcDbBlockReference
  2
D-429.311
 10
29.27043746276072
 20
131.4973719257372
 30
0.0
  0
INSERT
  5
22E2
330
1F
100
AcDbEntity
  8
Bemaßung
100
AcDbBlockReference
  2
D-429.311
 10
179.2704374627605
 20
131.4973719257372
 30
0.0
  0
VIEWPORT
  5
1CC5
330
1CC3
100
AcDbEntity
 67
     1
  8
0
100
AcDbViewport
 10
142.5159215490077
 20
98.98666420040706
 30
0.0
 40
394.8614367498574
 41
212.5839103302903
 68
     1
 69
     1
 12
142.5159215490077
 22
98.98666420040706
 13
0.0
 23
0.0
 14
10.0
 24
10.0
 15
10.0
 25
10.0
 16
0.0
 26
0.0
 36
1.0
 17
0.0
 27
0.0
 37
0.0
 42
50.0
 43
0.0
 44
0.0
 45
212.5839103302903
 50
0.0
 51
0.0
 72
  1000
 90
   557088
  1

281
     0
 71
     1
 74
     0
110
0.0
120
0.0
130
0.0
111
1.0
121
0.0
131
0.0
112
0.0
122
1.0
132
0.0
 79
     0
146
0.0
170
     0
  0
VIEWPORT
  5
1CC6
330
1CC3
100
AcDbEntity
 67
     1
  8
0
100
AcDbViewport
 10
142.515920700506
 20
98.98666347898036
 30
0.0
 40
297.0318419579695
 41
209.9733273852992
 68
     2
 69
     2
 12
148.3172137040858
 22
104.8684306445656
 13
0.0
 23
0.0
 14
10.0
 24
10.0
 15
10.0
 25
10.0
 16
0.0
 26
0.0
 36
1.0
 17
0.0
 27
0.0
 37
0.0
 42
50.0
 43
0.0
 44
0.0
 45
209.9733239306096
 50
0.0
 51
0.0
 72
  1000
 90
   819296
  1

281
     0
 71
     1
 74
     0
110
0.0
120
0.0
130
0.0
111
1.0
121
0.0
131
0.0
112
0.0
122
1.0
132
0.0
 79
     0
146
0.0
170
     0
  0
ENDSEC
  0
SECTION
  2
OBJECTS
  0
DICTIONARY
  5
C
330
0
100
AcDbDictionary
281
     1
  3
ACAD_COLOR
350
6B
  3
ACAD_GROUP
350
D
  3
ACAD_LAYOUT
350
1A
  3
ACAD_MATERIAL
350
6A
  3
ACAD_MLINESTYLE
350
17
  3
ACAD_PLOTSETTINGS
350
19
  3
ACAD_PLOTSTYLENAME
350
E
  3
ACAD_TABLESTYLE
350
7E
  3
ACAD_VISUALSTYLE
350
EF
  3
AcDbVariableDictionary
350
5E
  0
DICTIONARY
  5
120
330
2
100
AcDbDictionary
280
     1
281
     1
  3
ACAD_LAYERSTATES
360
121
  0
DICTIONARY
  5
732
330
1F
100
AcDbDictionary
280
     1
281
     1
  3
ACAD_SORTENTS
360
733
  0
DICTIONARY
  5
2126
330
1D5A
100
AcDbDictionary
280
     1
281
     1
  0
DICTIONARY
  5
215F
330
1DAA
100
AcDbDictionary
280
     1
281
     1
  0
DICTIONARY
  5
1DD5
330
1DD4
100
AcDbDictionary
280
     1
281
     1
  3
ACAD_SORTENTS
360
1DD6
  0
DICTIONARY
  5
2132
330
1E55
100
AcDbDictionary
280
     1
281
     1
  0
DICTIONARY
  5
2164
330
2163
100
AcDbDictionary
280
     1
281
     1
  3
ACAD_SORTENTS
360
2165
  0
DICTIONARY
  5
1F3E
330
1F3D
100
AcDbDictionary
280
     1
281
     1
  3
ACAD_DIMASSOC
360
1F3F
  0
DICTIONARY
  5
22A7
330
1F4D
100
AcDbDictionary
280
     1
281
     1
  3
ACAD_MTEXT_RT
360
2307
  0
DICTIONARY
  5
21BC
330
21BB
100
AcDbDictionary
280
     1
281
     1
  0
DICTIONARY
  5
21BF
330
21BE
100
AcDbDictionary
280
     1
281
     1
  0
DICTIONARY
  5
21C2
330
21C1
100
AcDbDictionary
280
     1
281
     1
  0
DICTIONARY
  5
21C5
330
21C4
100
AcDbDictionary
280
     1
281
     1
  0
DICTIONARY
  5
6B
102
{ACAD_REACTORS
330
C
102
}
330
C
100
AcDbDictionary
281
     1
  0
DICTIONARY
  5
D
102
{ACAD_REACTORS
330
C
102
}
330
C
100
AcDbDictionary
281
     1
  0
DICTIONARY
  5
1A
102
{ACAD_REACTORS
330
C
102
}
330
C
100
AcDbDictionary
281
     1
  3
Layout A4-quer
350
1CC8
  3
Model
350
22
  0
DICTIONARY
  5
6A
102
{ACAD_REACTORS
330
C
102
}
330
C
100
AcDbDictionary
281
     1
  3
ByBlock
350
ED
  3
ByLayer
350
EC
  3
Global
350
EE
  0
DICTIONARY
  5
17
102
{ACAD_REACTORS
330
C
102
}
330
C
100
AcDbDictionary
281
     1
  3
Standard
350
18
  0
DICTIONARY
  5
19
102
{ACAD_REACTORS
330
C
102
}
330
C
100
AcDbDictionary
281
     1
  0
ACDBDICTIONARYWDFLT
  5
E
102
{ACAD_REACTORS
330
C
102
}
330
C
100
AcDbDictionary
281
     1
  3
Normal
350
F
100
AcDbDictionaryWithDefault
340
F
  0
DICTIONARY
  5
7E
102
{ACAD_REACTORS
330
C
102
}
330
C
100
AcDbDictionary
281
     1
  3
Standard
350
7F
  0
DICTIONARY
  5
EF
102
{ACAD_REACTORS
330
C
102
}
330
C
100
AcDbDictionary
281
     1
  3
2dWireframe
350
F5
  3
3D Hidden
350
F7
  3
3dWireframe
350
F6
  3
Basic
350
F4
  3
Brighten
350
FB
  3
ColorChange
350
FF
  3
Conceptual
350
F8
  3
Dim
350
FA
  3
Facepattern
350
FE
  3
Flat
350
F0
  3
FlatWithEdges
350
F1
  3
Gouraud
350
F2
  3
GouraudWithEdges
350
F3
  3
Linepattern
350
FD
  3
Realistic
350
F9
  3
Thicken
350
FC
  0
DICTIONARY
  5
5E
102
{ACAD_REACTORS
330
C
102
}
330
C
100
AcDbDictionary
281
     1
  3
CTABLESTYLE
350
84
  3
DIMASSOC
350
5F
  3
HIDETEXT
350
63
  3
INDEXCTL
350
70A
  3
PSOLHEIGHT
350
2301
  3
PSOLWIDTH
350
2300
  3
SORTENTS
350
709
  0
DICTIONARY
  5
121
102
{ACAD_REACTORS
330
120
102
}
330
120
100
AcDbDictionary
281
     1
  0
SORTENTSTABLE
  5
733
102
{ACAD_REACTORS
330
732
102
}
330
732
100
AcDbSortentsTable
330
1F
  0
SORTENTSTABLE
  5
1DD6
102
{ACAD_REACTORS
330
1DD5
102
}
330
1DD5
100
AcDbSortentsTable
330
1DD4
331
1DDB
  5
18D
331
1DD9
  5
18F
331
1DDA
  5
190
331
1DD8
  5
18E
  0
SORTENTSTABLE
  5
2165
102
{ACAD_REACTORS
330
2164
102
}
330
2164
100
AcDbSortentsTable
330
2163
  0
DIMASSOC
  5
1F3F
102
{ACAD_REACTORS
330
1F3E
102
}
330
1F3E
100
AcDbDimAssoc
330
1F3D
 90
        3
 70
     0
 71
     0
  1
AcDbOsnapPointRef
 72
    13
331
1F34
 73
     2
 91
        2
 40
0.0
 10
0.0
 20
0.0
 30
2.000000000000000E+50
 75
     0
  1
AcDbOsnapPointRef
 72
    10
331
1F34
 73
     2
 91
       23
 40
0.9241970858579492
 10
0.0
 20
0.0
 30
0.0
 75
     0
  0
XRECORD
  5
2307
102
{ACAD_REACTORS
330
22A7
102
}
330
22A7
100
AcDbXrecord
280
     1
 40
559850.0
  1
{\fArial|b1|i0|c0|p34;Standard-Fensterbankanschlüsse\P\H0.6x;SB-Sonderfräsungen gesondert angeben}
  0
LAYOUT
  5
1CC8
102
{ACAD_XDICTIONARY
360
1CC9
102
}
102
{ACAD_REACTORS
330
1A
102
}
330
1A
100
AcDbPlotSettings
  1

  2
Adobe PDF
  4
A4
  6

 40
3.174999952316281
 41
3.174999952316281
 42
3.175003051757812
 43
3.17498779296875
 44
209.9733276367186
 45
297.0318298339844
 46
2.825000047683714
 47
2.825000047683714
 48
0.0
 49
0.0
140
0.0
141
0.0
142
1.0
143
1.0
 70
   672
 72
     1
 73
     1
 74
     5
  7
Grayscale.ctb
 75
    16
147
1.0
 76
     0
 77
     2
 78
   300
148
0.0
149
0.0
100
AcDbLayout
  1
Layout A4-quer
 70
     1
 71
     1
 10
-5.999987840652463
 20
-5.999999999999997
 11
291.0318419933318
 21
203.9733276367186
 12
0.0
 22
0.0
 32
0.0
 14
-6.000000278478751
 24
-6.000000213669252
 34
0.0
 15
291.0318416794908
 25
203.9733271716299
 35
0.0
146
0.0
 13
0.0
 23
0.0
 33
0.0
 16
1.0
 26
0.0
 36
0.0
 17
0.0
 27
1.0
 37
0.0
 76
     0
330
1CC3
331
1CC5
1001
ACAD_PSEXT
1000
Adobe PDF
1000
Adobe PDF Converter
1000
Eigene Dateien
1000

1070
     0
  0
LAYOUT
  5
22
102
{ACAD_REACTORS
330
1A
102
}
330
1A
100
AcDbPlotSettings
  1

  2
\\ideal-ts1\TT_OG_Auftragseingabe_Holz_SPF161_Briefbogen
  4
A4
  6

 40
5.027082920074462
 41
5.027085781097412
 42
5.027069091796875
 43
5.027069091796875
 44
209.9733276367187
 45
296.9259948730469
 46
0.9595878124237628
 47
0.9359200000763223
 48
6.000001170748871
 49
6.000000569727093
140
291.0000011707488
141
204.000000569727
142
1.0
143
1.0
 70
 11940
 72
     1
 73
     1
 74
     4
  7
Grayscale.ctb
 75
     0
147
1.006567859649658
 76
     0
 77
     2
 78
   300
148
-6.000001170748871
149
-6.000000569727093
100
AcDbLayout
  1
Model
 70
     1
 71
     0
 10
0.0
 20
0.0
 11
12.0
 21
9.0
 12
0.0
 22
0.0
 32
0.0
 14
0.0
 24
0.0
 34
0.0
 15
0.0
 25
0.0
 35
0.0
146
0.0
 13
0.0
 23
0.0
 33
0.0
 16
1.0
 26
0.0
 36
0.0
 17
0.0
 27
1.0
 37
0.0
 76
     0
330
1F
331
EA
1001
ACAD_PSEXT
1000
\\ideal-ts1\TT_OG_Auftragseingabe_Holz_SPF161_Briefbogen
1000
RICOH Aficio MP 161 RPCS
1000
Traben-Trarbach Obergeschoß Auftragseingabe Holz
1000
IP: 172.16.99.14
1070
     0
  0
MATERIAL
  5
ED
102
{ACAD_XDICTIONARY
360
718
102
}
102
{ACAD_REACTORS
330
6A
102
}
330
6A
100
AcDbMaterial
  1
ByBlock
  0
MATERIAL
  5
EC
102
{ACAD_XDICTIONARY
360
716
102
}
102
{ACAD_REACTORS
330
6A
102
}
330
6A
100
AcDbMaterial
  1
ByLayer
  0
MATERIAL
  5
EE
102
{ACAD_XDICTIONARY
360
71A
102
}
102
{ACAD_REACTORS
330
6A
102
}
330
6A
100
AcDbMaterial
  1
Global
  0
MLINESTYLE
  5
18
102
{ACAD_REACTORS
330
17
102
}
330
17
100
AcDbMlineStyle
  2
STANDARD
 70
     0
  3

 62
   256
 51
90.0
 52
90.0
 71
     2
 49
0.5
 62
   256
  6
BYLAYER
 49
-0.5
 62
   256
  6
BYLAYER
  0
ACDBPLACEHOLDER
  5
F
102
{ACAD_REACTORS
330
E
102
}
330
E
  0
TABLESTYLE
  5
7F
102
{ACAD_XDICTIONARY
360
2305
102
}
102
{ACAD_REACTORS
330
7E
102
}
330
7E
100
AcDbTableStyle
  3
Standard
 70
     0
 71
     0
 40
1.5
 41
1.5
280
     0
281
     0
  7
Standard
140
4.5
170
     2
 62
     0
 63
     7
283
     0
274
    -2
284
     1
 64
     0
275
    -2
285
     1
 65
     0
276
    -2
286
     1
 66
     0
277
    -2
287
     1
 67
     0
278
    -2
288
     1
 68
     0
279
    -2
289
     1
 69
     0
  7
Standard
140
6.0
170
     5
 62
     0
 63
     7
283
     0
274
    -2
284
     1
 64
     0
275
    -2
285
     1
 65
     0
276
    -2
286
     1
 66
     0
277
    -2
287
     1
 67
     0
278
    -2
288
     1
 68
     0
279
    -2
289
     1
 69
     0
  7
Standard
140
4.5
170
     5
 62
     0
 63
     7
283
     0
274
    -2
284
     1
 64
     0
275
    -2
285
     1
 65
     0
276
    -2
286
     1
 66
     0
277
    -2
287
     1
 67
     0
278
    -2
288
     1
 68
     0
279
    -2
289
     1
 69
     0
  0
VISUALSTYLE
  5
F5
102
{ACAD_REACTORS
330
EF
102
}
330
EF
100
AcDbVisualStyle
  2
2dWireframe
 70
     4
 71
     0
 72
     2
 73
     1
 90
        0
 40
-0.6
 41
-30.0
 62
     5
 63
     7
 74
     1
 91
        4
 64
     7
 65
   257
 75
     1
175
     1
 42
1.0
 92
        0
 66
   257
 43
1.0
 76
     1
 77
     6
 78
     2
 67
     7
 79
     5
170
     0
171
     0
290
     0
174
     0
 93
        1
 44
0.0
173
     0
291
     0
 45
0.0
1001
ACAD
1000
AcDbSavedByObjectVersion
1070
     0
1000
AcDbSavedByObjectVersion
1070
     0
1000
AcDbSavedByObjectVersion
1070
     0
1000
AcDbSavedByObjectVersion
1070
     0
1000
AcDbSavedByObjectVersion
1070
     0
1000
AcDbSavedByObjectVersion
1070
     0
  0
VISUALSTYLE
  5
F7
102
{ACAD_REACTORS
330
EF
102
}
330
EF
100
AcDbVisualStyle
  2
3D Hidden
 70
     6
 71
     1
 72
     2
 73
     2
 90
        0
 40
-0.6
 41
-30.0
 62
     5
 63
     7
 74
     2
 91
        2
 64
     7
 65
   257
 75
     2
175
     1
 42
40.0
 92
        0
 66
   257
 43
1.0
 76
     1
 77
     6
 78
     2
 67
     7
 79
     3
170
     0
171
     0
290
     0
174
     0
 93
        1
 44
0.0
173
     0
291
     0
 45
0.0
1001
ACAD
1000
AcDbSavedByObjectVersion
1070
     0
1000
AcDbSavedByObjectVersion
1070
     0
1000
AcDbSavedByObjectVersion
1070
     0
1000
AcDbSavedByObjectVersion
1070
     0
1000
AcDbSavedByObjectVersion
1070
     0
1000
AcDbSavedByObjectVersion
1070
     0
  0
VISUALSTYLE
  5
F6
102
{ACAD_REACTORS
330
EF
102
}
330
EF
100
AcDbVisualStyle
  2
3dWireframe
 70
     5
 71
     0
 72
     2
 73
     1
 90
        0
 40
-0.6
 41
-30.0
 62
     5
 63
     7
 74
     1
 91
        4
 64
     7
 65
   257
 75
     1
175
     1
 42
1.0
 92
        0
 66
   257
 43
1.0
 76
     1
 77
     6
 78
     2
 67
     7
 79
     5
170
     0
171
     0
290
     0
174
     0
 93
        1
 44
0.0
173
     0
291
     0
 45
0.0
1001
ACAD
1000
AcDbSavedByObjectVersion
1070
     0
1000
AcDbSavedByObjectVersion
1070
     0
1000
AcDbSavedByObjectVersion
1070
     0
1000
AcDbSavedByObjectVersion
1070
     0
1000
AcDbSavedByObjectVersion
1070
     0
1000
AcDbSavedByObjectVersion
1070
     0
  0
VISUALSTYLE
  5
F4
102
{ACAD_REACTORS
330
EF
102
}
330
EF
100
AcDbVisualStyle
  2
Basic
 70
     7
 71
     1
 72
     0
 73
     1
 90
        0
 40
-0.6
 41
-30.0
 62
     5
 63
     7
 74
     0
 91
        4
 64
     7
 65
   257
 75
     1
175
     1
 42
1.0
 92
        8
 66
     7
 43
1.0
 76
     1
 77
     6
 78
     2
 67
     7
 79
     5
170
     0
171
     0
290
     0
174
     0
 93
        1
 44
0.0
173
     0
291
     1
 45
0.0
1001
ACAD
1000
AcDbSavedByObjectVersion
1070
     0
1000
AcDbSavedByObjectVersion
1070
     0
1000
AcDbSavedByObjectVersion
1070
     0
1000
AcDbSavedByObjectVersion
1070
     0
1000
AcDbSavedByObjectVersion
1070
     0
1000
AcDbSavedByObjectVersion
1070
     0
  0
VISUALSTYLE
  5
FB
102
{ACAD_REACTORS
330
EF
102
}
330
EF
100
AcDbVisualStyle
  2
Brighten
 70
    12
 71
     2
 72
     2
 73
     1
 90
        0
 40
-0.6
 41
-30.0
 62
     5
 63
     7
 74
     1
 91
        4
 64
     7
 65
   257
 75
     1
175
     1
 42
1.0
 92
        8
 66
     7
 43
1.0
 76
     1
 77
     6
 78
     2
 67
     7
 79
     5
170
     0
171
     0
290
     0
174
     0
 93
        1
 44
50.0
173
     0
291
     1
 45
0.0
1001
ACAD
1000
AcDbSavedByObjectVersion
1070
     0
1000
AcDbSavedByObjectVersion
1070
     0
1000
AcDbSavedByObjectVersion
1070
     0
1000
AcDbSavedByObjectVersion
1070
     0
1000
AcDbSavedByObjectVersion
1070
     0
1000
AcDbSavedByObjectVersion
1070
     0
  0
VISUALSTYLE
  5
FF
102
{ACAD_REACTORS
330
EF
102
}
330
EF
100
AcDbVisualStyle
  2
ColorChange
 70
    16
 71
     2
 72
     2
 73
     3
 90
        0
 40
-0.6
 41
-30.0
 62
     5
 63
     8
 74
     1
 91
        4
 64
     7
 65
   257
 75
     1
175
     1
 42
1.0
 92
        8
 66
     8
 43
1.0
 76
     1
 77
     6
 78
     2
 67
     7
 79
     5
170
     0
171
     0
290
     0
174
     0
 93
        1
 44
0.0
173
     0
291
     1
 45
0.0
1001
ACAD
1000
AcDbSavedByObjectVersion
1070
     0
1000
AcDbSavedByObjectVersion
1070
     0
1000
AcDbSavedByObjectVersion
1070
     0
1000
AcDbSavedByObjectVersion
1070
     0
1000
AcDbSavedByObjectVersion
1070
     0
1000
AcDbSavedByObjectVersion
1070
     0
  0
VISUALSTYLE
  5
F8
102
{ACAD_REACTORS
330
EF
102
}
330
EF
100
AcDbVisualStyle
  2
Conceptual
 70
     9
 71
     3
 72
     2
 73
     1
 90
        0
 40
-0.6
 41
-30.0
 62
     5
 63
     7
 74
     2
 91
        2
 64
     7
 65
   257
 75
     1
175
     1
 42
40.0
 92
        8
 66
     7
 43
1.0
 76
     1
 77
     6
 78
     2
 67
     7
 79
     3
170
     0
171
     0
290
     0
174
     0
 93
        1
 44
0.0
173
     0
291
     0
 45
0.0
1001
ACAD
1000
AcDbSavedByObjectVersion
1070
     0
1000
AcDbSavedByObjectVersion
1070
     0
1000
AcDbSavedByObjectVersion
1070
     0
1000
AcDbSavedByObjectVersion
1070
     0
1000
AcDbSavedByObjectVersion
1070
     0
1000
AcDbSavedByObjectVersion
1070
     0
  0
VISUALSTYLE
  5
FA
102
{ACAD_REACTORS
330
EF
102
}
330
EF
100
AcDbVisualStyle
  2
Dim
 70
    11
 71
     2
 72
     2
 73
     1
 90
        0
 40
-0.6
 41
-30.0
 62
     5
 63
     7
 74
     1
 91
        4
 64
     7
 65
   257
 75
     1
175
     1
 42
1.0
 92
        8
 66
     7
 43
1.0
 76
     1
 77
     6
 78
     2
 67
     7
 79
     5
170
     0
171
     0
290
     0
174
     0
 93
        1
 44
-50.0
173
     0
291
     1
 45
0.0
1001
ACAD
1000
AcDbSavedByObjectVersion
1070
     0
1000
AcDbSavedByObjectVersion
1070
     0
1000
AcDbSavedByObjectVersion
1070
     0
1000
AcDbSavedByObjectVersion
1070
     0
1000
AcDbSavedByObjectVersion
1070
     0
1000
AcDbSavedByObjectVersion
1070
     0
  0
VISUALSTYLE
  5
FE
102
{ACAD_REACTORS
330
EF
102
}
330
EF
100
AcDbVisualStyle
  2
Facepattern
 70
    15
 71
     2
 72
     2
 73
     1
 90
        0
 40
-0.6
 41
-30.0
 62
     5
 63
     7
 74
     1
 91
        4
 64
     7
 65
   257
 75
     1
175
     1
 42
1.0
 92
        8
 66
     7
 43
1.0
 76
     1
 77
     6
 78
     2
 67
     7
 79
     5
170
     0
171
     0
290
     0
174
     0
 93
        1
 44
0.0
173
     0
291
     1
 45
0.0
1001
ACAD
1000
AcDbSavedByObjectVersion
1070
     0
1000
AcDbSavedByObjectVersion
1070
     0
1000
AcDbSavedByObjectVersion
1070
     0
1000
AcDbSavedByObjectVersion
1070
     0
1000
AcDbSavedByObjectVersion
1070
     0
1000
AcDbSavedByObjectVersion
1070
     0
  0
VISUALSTYLE
  5
F0
102
{ACAD_REACTORS
330
EF
102
}
330
EF
100
AcDbVisualStyle
  2
Flat
 70
     0
 71
     2
 72
     1
 73
     1
 90
        2
 40
-0.6
 41
30.0
 62
     5
 63
     7
 74
     0
 91
        4
 64
     7
 65
   257
 75
     1
175
     1
 42
1.0
 92
        8
 66
     7
 43
1.0
 76
     1
 77
     6
 78
     2
 67
     7
 79
     5
170
     0
171
     0
290
     0
174
     0
 93
        1
 44
0.0
173
     0
291
     1
 45
0.0
1001
ACAD
1000
AcDbSavedByObjectVersion
1070
     0
1000
AcDbSavedByObjectVersion
1070
     0
1000
AcDbSavedByObjectVersion
1070
     0
1000
AcDbSavedByObjectVersion
1070
     0
1000
AcDbSavedByObjectVersion
1070
     0
1000
AcDbSavedByObjectVersion
1070
     0
  0
VISUALSTYLE
  5
F1
102
{ACAD_REACTORS
330
EF
102
}
330
EF
100
AcDbVisualStyle
  2
FlatWithEdges
 70
     1
 71
     2
 72
     1
 73
     1
 90
        2
 40
-0.6
 41
30.0
 62
     5
 63
     7
 74
     1
 91
        4
 64
     7
 65
   257
 75
     1
175
     1
 42
1.0
 92
        0
 66
   257
 43
1.0
 76
     1
 77
     6
 78
     2
 67
     7
 79
     5
170
     0
171
     0
290
     0
174
     0
 93
        1
 44
0.0
173
     0
291
     1
 45
0.0
1001
ACAD
1000
AcDbSavedByObjectVersion
1070
     0
1000
AcDbSavedByObjectVersion
1070
     0
1000
AcDbSavedByObjectVersion
1070
     0
1000
AcDbSavedByObjectVersion
1070
     0
1000
AcDbSavedByObjectVersion
1070
     0
1000
AcDbSavedByObjectVersion
1070
     0
  0
VISUALSTYLE
  5
F2
102
{ACAD_REACTORS
330
EF
102
}
330
EF
100
AcDbVisualStyle
  2
Gouraud
 70
     2
 71
     2
 72
     2
 73
     1
 90
        2
 40
-0.6
 41
30.0
 62
     5
 63
     7
 74
     0
 91
        4
 64
     7
 65
   257
 75
     1
175
     1
 42
1.0
 92
        0
 66
     7
 43
1.0
 76
     1
 77
     6
 78
     2
 67
     7
 79
     5
170
     0
171
     0
290
     0
174
     0
 93
        1
 44
0.0
173
     0
291
     1
 45
0.0
1001
ACAD
1000
AcDbSavedByObjectVersion
1070
     0
1000
AcDbSavedByObjectVersion
1070
     0
1000
AcDbSavedByObjectVersion
1070
     0
1000
AcDbSavedByObjectVersion
1070
     0
1000
AcDbSavedByObjectVersion
1070
     0
1000
AcDbSavedByObjectVersion
1070
     0
  0
VISUALSTYLE
  5
F3
102
{ACAD_REACTORS
330
EF
102
}
330
EF
100
AcDbVisualStyle
  2
GouraudWithEdges
 70
     3
 71
     2
 72
     2
 73
     1
 90
        2
 40
-0.6
 41
30.0
 62
     5
 63
     7
 74
     1
 91
        4
 64
     7
 65
   257
 75
     1
175
     1
 42
1.0
 92
        0
 66
   257
 43
1.0
 76
     1
 77
     6
 78
     2
 67
     7
 79
     5
170
     0
171
     0
290
     0
174
     0
 93
        1
 44
0.0
173
     0
291
     1
 45
0.0
1001
ACAD
1000
AcDbSavedByObjectVersion
1070
     0
1000
AcDbSavedByObjectVersion
1070
     0
1000
AcDbSavedByObjectVersion
1070
     0
1000
AcDbSavedByObjectVersion
1070
     0
1000
AcDbSavedByObjectVersion
1070
     0
1000
AcDbSavedByObjectVersion
1070
     0
  0
VISUALSTYLE
  5
FD
102
{ACAD_REACTORS
330
EF
102
}
330
EF
100
AcDbVisualStyle
  2
Linepattern
 70
    14
 71
     2
 72
     2
 73
     1
 90
        0
 40
-0.6
 41
-30.0
 62
     5
 63
     7
 74
     1
 91
        4
 64
     7
 65
   257
 75
     7
175
     7
 42
1.0
 92
        8
 66
     7
 43
1.0
 76
     1
 77
     6
 78
     2
 67
     7
 79
     5
170
     0
171
     0
290
     0
174
     0
 93
        1
 44
0.0
173
     0
291
     1
 45
0.0
1001
ACAD
1000
AcDbSavedByObjectVersion
1070
     0
1000
AcDbSavedByObjectVersion
1070
     0
1000
AcDbSavedByObjectVersion
1070
     0
1000
AcDbSavedByObjectVersion
1070
     0
1000
AcDbSavedByObjectVersion
1070
     0
1000
AcDbSavedByObjectVersion
1070
     0
  0
VISUALSTYLE
  5
F9
102
{ACAD_REACTORS
330
EF
102
}
330
EF
100
AcDbVisualStyle
  2
Realistic
 70
     8
 71
     2
 72
     2
 73
     1
 90
        0
 40
-0.6
 41
-30.0
 62
     5
 63
     7
 74
     1
 91
        0
 64
     7
 65
   257
 75
     1
175
     1
 42
1.0
 92
        8
 66
     8
 43
1.0
 76
     1
 77
     6
 78
     2
 67
     7
 79
     5
170
     0
171
     0
290
     0
174
     0
 93
       13
 44
0.0
173
     0
291
     0
 45
0.0
1001
ACAD
1000
AcDbSavedByObjectVersion
1070
     0
1000
AcDbSavedByObjectVersion
1070
     0
1000
AcDbSavedByObjectVersion
1070
     0
1000
AcDbSavedByObjectVersion
1070
     0
1000
AcDbSavedByObjectVersion
1070
     0
1000
AcDbSavedByObjectVersion
1070
     0
  0
VISUALSTYLE
  5
FC
102
{ACAD_REACTORS
330
EF
102
}
330
EF
100
AcDbVisualStyle
  2
Thicken
 70
    13
 71
     2
 72
     2
 73
     1
 90
        0
 40
-0.6
 41
-30.0
 62
     5
 63
     7
 74
     1
 91
        4
 64
     7
 65
   257
 75
     1
175
     1
 42
1.0
 92
       12
 66
     7
 43
1.0
 76
     1
 77
     6
 78
     2
 67
     7
 79
     5
170
     0
171
     0
290
     0
174
     0
 93
        1
 44
0.0
173
     0
291
     1
 45
0.0
1001
ACAD
1000
AcDbSavedByObjectVersion
1070
     0
1000
AcDbSavedByObjectVersion
1070
     0
1000
AcDbSavedByObjectVersion
1070
     0
1000
AcDbSavedByObjectVersion
1070
     0
1000
AcDbSavedByObjectVersion
1070
     0
1000
AcDbSavedByObjectVersion
1070
     0
  0
DICTIONARYVAR
  5
84
102
{ACAD_REACTORS
330
5E
102
}
330
5E
100
DictionaryVariables
280
     0
  1
STANDARD
  0
DICTIONARYVAR
  5
5F
102
{ACAD_REACTORS
330
5E
102
}
330
5E
100
DictionaryVariables
280
     0
  1
2
  0
DICTIONARYVAR
  5
63
102
{ACAD_REACTORS
330
5E
102
}
330
5E
100
DictionaryVariables
280
     0
  1
1
  0
DICTIONARYVAR
  5
70A
102
{ACAD_REACTORS
330
5E
102
}
330
5E
100
DictionaryVariables
280
     0
  1
0
  0
DICTIONARYVAR
  5
2301
102
{ACAD_REACTORS
330
5E
102
}
330
5E
100
DictionaryVariables
280
     0
  1
80.000000
  0
DICTIONARYVAR
  5
2300
102
{ACAD_REACTORS
330
5E
102
}
330
5E
100
DictionaryVariables
280
     0
  1
5.000000
  0
DICTIONARYVAR
  5
709
102
{ACAD_REACTORS
330
5E
102
}
330
5E
100
DictionaryVariables
280
     0
  1
127
  0
DICTIONARY
  5
1CC9
330
1CC8
100
AcDbDictionary
280
     1
281
     1
  3
ADSK_XREC_LAYOUTTHUMBNAIL
360
1CCA
  0
DICTIONARY
  5
718
330
ED
100
AcDbDictionary
280
     1
281
     1
  3
ACAD_XREC_ROUNDTRIP
360
719
  0
DICTIONARY
  5
716
330
EC
100
AcDbDictionary
280
     1
281
     1
  3
ACAD_XREC_ROUNDTRIP
360
717
  0
DICTIONARY
  5
71A
330
EE
100
AcDbDictionary
280
     1
281
     1
  3
ACAD_XREC_ROUNDTRIP
360
71B
  0
DICTIONARY
  5
2305
330
7F
100
AcDbDictionary
280
     1
281
     1
  3
ACAD_XREC_ROUNDTRIP
360
2306
  0
XRECORD
  5
1CCA
102
{ACAD_REACTORS
330
1CC9
102
}
330
1CC9
100
AcDbXrecord
280
     1
310
28000000B40000007F00000001000800000000004C59000000000000000000000001000000000000FFFFFF0000000000FFFFFF000000000000000000000000000000000000000000000000000000000000000000330000006600000099000000CC000000FF00000000330000333300006633000099330000CC330000FF3300
310
0000660000336600006666000099660000CC660000FF66000000990000339900006699000099990000CC990000FF99000000CC000033CC000066CC000099CC0000CCCC0000FFCC000000FF000033FF000066FF000099FF0000CCFF0000FFFF000000003300330033006600330099003300CC003300FF003300003333003333
310
33006633330099333300CC333300FF33330000663300336633006666330099663300CC663300FF66330000993300339933006699330099993300CC993300FF99330000CC330033CC330066CC330099CC3300CCCC3300FFCC330000FF330033FF330066FF330099FF3300CCFF3300FFFF330000006600330066006600660099
310
006600CC006600FF00660000336600333366006633660099336600CC336600FF33660000666600336666006666660099666600CC666600FF66660000996600339966006699660099996600CC996600FF99660000CC660033CC660066CC660099CC6600CCCC6600FFCC660000FF660033FF660066FF660099FF6600CCFF6600
310
FFFF660000009900330099006600990099009900CC009900FF00990000339900333399006633990099339900CC339900FF33990000669900336699006666990099669900CC669900FF66990000999900339999006699990099999900CC999900FF99990000CC990033CC990066CC990099CC9900CCCC9900FFCC990000FF99
310
0033FF990066FF990099FF9900CCFF9900FFFF99000000CC003300CC006600CC009900CC00CC00CC00FF00CC000033CC003333CC006633CC009933CC00CC33CC00FF33CC000066CC003366CC006666CC009966CC00CC66CC00FF66CC000099CC003399CC006699CC009999CC00CC99CC00FF99CC0000CCCC0033CCCC0066CC
310
CC0099CCCC00CCCCCC00FFCCCC0000FFCC0033FFCC0066FFCC0099FFCC00CCFFCC00FFFFCC000000FF003300FF006600FF009900FF00CC00FF00FF00FF000033FF003333FF006633FF009933FF00CC33FF00FF33FF000066FF003366FF006666FF009966FF00CC66FF00FF66FF000099FF003399FF006699FF009999FF00CC
310
99FF00FF99FF0000CCFF0033CCFF0066CCFF0099CCFF00CCCCFF00FFCCFF0000FFFF0033FFFF0066FFFF0099FFFF00CCFFFF00FFFFFF00000000000D0D0D001A1A1A00282828003535350043434300505050005D5D5D006B6B6B00787878008686860093939300A1A1A100AEAEAE00BBBBBB00C9C9C900D6D6D600E4E4E400
310
F1F1F100FFFFFF0000000000000000000000000000000000000000000000000000000000000000000000000000000000E2E2E2E2E2E2E2E2E2E2E2E2E2E2E2E2E2E2E2E2E2E2E2E2E2E2E2E2E2E2E2E2E2E2E2E2E2E2E2E2E2E2E2E2E2E2E2E2E2E2E2E2E2E2E2E2E2E2E2E2E2E2E2E2E2E2E2E2E2E2E2E2E2E2E2E2E2E2E2
310
E2E2E2E2E2E2E2E2E2E2E2E2E2E2E2E2E2E2E2E2E2E2E2E2E2E2E2E2E2E2E2E2E2E2E2E2E2E2E2E2E2E2E2E2E2E2E2E2E2E2E2E2E2E2E2E2E2E2E2E2E2E2E2E2E2E2E2E2E2E2E2E2E2E2E2E2E2E2E2E2E2E2E2E2E2E2E2E2E2E2E2E2E2E2E2E2E2E2E2E2EFE2E2E2E2E2E2E2E2E2E2E2E2E2E2E2E2E2E2E2E2E2E2E2E2E2E2
310
E2E2E2E2E2E2E2E2E2E2E2E2E2E2E2E2E2E2E2E2E2E2E2E2E2E2E2E2E2E2E2E2E2E2E2E2E2E2E2E2E2E2E2E2E2E2E2E2E2E2E2E2E2E2E2E2E2E2E2E2E2E2E2E2E2E2E2E2E2E2E2E2E2E2E2E2E2E2E2E2E2E2E2E2E2E2E2E2E2E2E2E2E2E2E2E2E2E2E2E2E2E2E2E2E2E2E2E2E2E2E2E2E2E2E2E2E2E2E2E2E2E2E2E2E2E2E2
310
E2E2E2E2E2E2E2E2E2E2E2E2E2E2E2E2E2E2E2E2E2E2E2E2E2E2EFE2F5E2E2E2E2E2E2E2E2F5F5F5F5F5F5F5F5F5E2E2E2E2E2E2E2E2E2E2E2E2E2E2E2E2F5F5F5F5F5F5F5F5F5E2E2E2E2E2E2E2E2E2E2E2E2E2E2E2E2F5F5F5F5F5F5F5F5F5E2E2E2E2E2E2E2E2E2E2E2E2E2E2E2E2F5F5F5F5F5F5F5F5E2E2E2E2E2E2E2
310
E2E2E2E2E2E2E2E2E2F5F5F5F5F5F5F5F5F5E2E2E2E2E2E2E2E2E2E2E2E2E2E2E2E2F5F5F5F5F5F5F5F5F5E2E2E2E2E2E2E2E2E2E2E2E2E2E2E2E2F5F5F5F5F5F5F5F5F5E2E2E2E2E2E2E2E2F5E2E2EFE2F5E2F5F5F5F5F5F5F5F5F5F5F5F5F5F5F5F5F5F5F5F5F5F5F5F5F5F5F5F5F5F5F5F5F5F5F5F5F5F5F5F5F5F5F5F5
310
F5F5F5F5F5F5F5F5F5F5F5F5F5F5F5F5F5F5F5F5F5F5F5F5F5F5F5F5F5F5F5F5F5F5F5F5F5F5F5F5F5F5F5F5F5F5F5F5F5F5F5F5F5F5F5F5F5F5F5F5F5F5F5F5F5F5F5F5F5F5F5F5F5F5F5F5F5F5F5F5F5F5F5F5F5F5F5F5F5F5F5F5F5F5F5F5F5F5F5F5F5F5F5F5F5F5F5F5F5F5F5F5F5F5F5F5F5F5F5F5F5F5F5F5F5F5F5
310
F5E2F5E2E2EFE2F5E2E2E2E2E2E2E2E2E2E2E2E2E2E2E2E2E2E2E2E2E2E2E2E2E2E2E2E2E2E2E2E2E2E2E2E2E2E2E2E2E2E2E2E2E2E2E2E2E2E2E2E2E2E2E2E2E2E2E2E2E2E2E2E2E2E2E2E2E2E2E2E2E2E2E2E2E2E2E2E2E2E2E2E2E2E2E2E2E2E2E2E2E2E2E2E2E2E2E2E2E2E2E2E2E2E2E2E2E2E2E2E2E2E2E2E2E2E2E2
310
E2E2E2E2E2E2E2E2E2E2E2E2E2E2E2E2E2E2E2E2E2E2E2E2E2E2E2E2E2E2E2E2E2E2E2E2E2E2E2E2E2E2E2E2E2E2E2E2E2E2E2E2E2E2E2F5E2E2EFE2F5E2E2F5F5F5F5F5F5F5F5F5F5F5F5F5F5F5F5F5F5F5F5F5F5F5F5F5F5F5F5F5F5F5F5F5F5F5F5F5F5F5F5F5F5F5F5F5F5F5F5F5F5F5F5F5F5F5F5F5F5F5F5F5F5F5F5
310
F5F5F5F5F5F5F5F5F5F5F5F5F5F5F5F5F5F5F5F5F5F5F5F5F5F5F5F5F5F5F5F5F5F5F5F5F5F5F5F5F5F5F5F5F5F5F5F5F5F5F5F5F5F5F5F5F5F5F5F5F5F5F5F5F5F5F5F5F5F5F5F5F5F5F5F5F5F5F5F5F5F5F5F5F5F5F5F5F5F5F5F5F5F5F5F5F5F5F5F5F5F5F5F5F5F5E2E2F5E2E2EFE2F5E2E2F5F5F5F5F5F5F5F5F5F5F5
310
F5F5F5F5F5F5F5F5F5F5F5F5F5F5F5F5F5F5F5F5F5F5F5F5F5F5F5F5F5F5F5F5F5F5F5F5F5F5F5F5F5F5F5F5F5F5F5F5F5F5F5F5F5F5F5F5F5F5F5F5F5F5F5F5F5F5F5F5F5F5F5F5F5F5F5F5F5F5F5F5F5F5F5F5F5F5F5F5F5F5F5F5F5F5F5F5F5F5F5F5F5F5F5F5F5F5F5F5F5F5F5F5F5F5F5F5F5F5F5F5F5F5F5F5F5F5F5
310
F5F5F5F5F5F5F5F5F5F5F5F5F5F5F5F5F5F5F5F5F5F5F5F5F5F5F5F5F5F5F5F5E2E2F5E2E2EFE2F5E2E2F5F5F5F5F5F5F5F5F5F5BEF5F5F5BEF5F5F5F5F5F5F5F5F5F5F5F5F5F5F5F5F5F5F5F5F5F5F5F5F5F5F5F5F5F5F5F5F5F5F5F5F5F5F5F5F5F5F5F5F5F5F5F5BEF5F5F5F5F5F5F5F5F5F5F5F5F5F5F5F5F5F5F5F5F5
310
F5F5F5F5F5F5F5F5F5F5F5F5F5F5F5BEF5F5BEF5F5F5F5F5F5F5F5F5F5F5F5F5F5F5F5F5F5F5F5F5F5F5F5F5F5F5F5F5F5F5F5F5F5F5F5F5F5F5F5F5F5F5F5F5F5F5F5F5F5F5F5F5F5F5F5F5F5F5F5F5F5F5F5F5F5E2E2F5E2E2EFE2F5E2E2F5F5F5F5F5F5F5F5F5BEBEBEBEBEBEBEF5F5F5F5F5F5F5F50F0F0F0F0F0F0F0F
310
0F0F0F0FEC0F0F0F0F0F0FEC0F0F0F0F0F0F0F0FF5F5F5F5F5F5BEBEBEBEBEBEF5F5F5F5F5F5F5F5F5F5F5F5F5F5F5F5F5F5F5F5F5F5F5F5F5F5F5F5F5F5F5F5F5F5BEBEBEBEBEBEBEBEF5F5F5F5F5F5F5F50F0F0F0F0F0F0F0F0F0F0FEC0F0F0F0F0F0F0F0F0F0F0F0F0F0F0F0F0F0F0F0F0FF5F5F5F5F5F5F5F5F5F5F5F5
310
F5F5F5F5F5F5F5F5F5F5F5E2E2F5E2E2EFE2F5E2E2F5F5F5F5F5F5F5F5F5BEBEF5BEBEF5F5F5F5F5F5F5F5F5F50FF50FF50F0FF5F50F0FF5F5EC0FF50FF5F50FEC0FF5F5F50F0FF50F0FF5F5F5F5F5F5F5F5F5BEBEF5F5F5F5F5F5F5F5F5F5F5F5F5F5F5F5F5F5F5F5F5F5F5F5F5F5F5F5F5F5F5F5F5F5BEBEF5F5BEBEF5F5
310
F5F5F5F5F5F5F50F0FF5F50FF50FF50FF50FF5ECF50F0FF5F5F50F0FF50FF5F5F50FF50FF5F50FF50FF5F5F5F5F5F5F5F5F5F5F5F5F5F5F5F5F5F5F5F5F5F5F5E2E2F5E2E2EFE2F5F5E2F5F5F5F5F5F5F5F5F5F5BEF5F5BEF5F5F5F5F5F5F5F5F50F0FF5F50F0F0F0F0F0FF5F5F5ECF50FF5F50FF5EC0F0FF5F5F50F0FF50F
310
F5F5F5F5F5F5F5F5F5F5BEF5F5F5F5F5F5F5F5F5F5F5F5F5F5F5F5F5F5F5F5F5F5F5F5F5F5F5F5F5F5F5F5F5F5F5BEF5F5F5BEF5F5F5F5F5F5F5F5F50FF50FF5F50F0F0FF50FF5F5EC0F0FF5F5F50F0F0F0FF50FF5F5F50FF50FF5F50F0F0FF5F5F5F5F5F5F5F5F5F5F5F5F5F5F5F5F5F5F5F5F5F5E2F5F5E2E2EFE2F5F5E2
310
F5F5F5F5F5F5F5F5F5F5BEF5F5BEF5F5F5F5F5F5F5F5F50F0FF5F5F50F0FF50FF5F5F50FEC0FF5F50FF50FEC0FF50FF5F50FF50F0FF5F5F5F5F5F5F5F5F5F5BEF5F5F5F5F5F5F5F5F5F5F5F5F5F5F5F5F5F5F5F5F5F5F5F5F5F5F5F5F5F5F5F5F5F5F5BEF5F5F5BEF5F5F5F5F5F5F5F5F50F0FF50FF5F50FF50FF5F5F5EC0F
310
F5F5F50F0FF50FF50FF50FF5F5F50FF50FF5F5F50FF5F5F5F5F5F5F5F5F5F5F5F5F5F5F5F5F5F5F5F5F5F5E2F5F5E2E2EFE2F5F5E2F5F5F5F5F5F5F5F5F5F5BEF5F5BEF5F5F5F5F5F5F5F5F50FF50FF5F5F50F0FF5F5F50FF50FF5F50FF50FF5F50F0FF50FF5F50FF50FF5F5F5F5F5F5F5F5F5F5BEF5F5F5F5F5F5F5F5F5F5
310
F5F5F5F5F5F5F5F5F5F5F5F5F5F5F5F5F5F5F5F5F5F5F5F5F5BEF5F5F5BEF5F5F5F5F5F5F5F5F50FF50FF50FF50F0FF5F5F50F0FF5F5F50F0FF5F50FF5F50FF50FF5F5F50FF50FF5F50FF5F5F5F5F5F5F5F5F5F5F5F5F5F5F5F5F5F5F5F5F5F5E2F5F5E2E2EFE2F5F5E2F5F5F5F5F5F5F5F5F5F5BEF5F5BEF5F5F5F5F5F5F5
310
F5F50F0FF50FF5F50FF5F5F50F0F0FECF50FF50FF5F5EC0FF50FF50FF5F50F0FF5F5F5F5F5F5F5F5F5F5BEF5F5F5F5F5F5F5F5F5F5F5F5F5F5F5F5F5F5F5F5F5F5F5F5F5F5F5F5F5F5F5F5F5F5F5BEF5F5F5BEF5F5F5F5F5F5F5F5F50FF5F50FF50F0FF5F5F50F0FECF5F50F0FF5F5F50FF5F5F50FF50FF5F5F50FF50FF50F
310
F5F5F5F5F5F5F5F5F5F5F5F5F5F5F5F5F5F5F5F5F5F5E2F5F5E2E2EFE2F5F5E2F5F5F5F5F5F5F5F5F5F5BEF5F5BEF5F5F5F5F5F5F5F5F50FF50FF50FF50FF5F50F0FF5F5EC0FF50FF5F5F5EC0FF5F50FF50FF5F50FF5F5F5F5F5F5F5F5F5F5BEF5F5F5F5F5F5F5F5F5F5F5F5F5F5F5F5F5F5F5F5F5F5F5F5F5F5F5F5F5F5F5
310
F5F5F5F5BEF5F5F5BEF5F5F5F5F5F5F5F5F50FF5F5F50FF50FF5F50F0FF5ECF50F0FF5F5F50F0F0FF5F5F50FF50F0FF5F50FF50F0FF5F5F5F5F5F5F5F5F5F5F5F5F5F5F5F5F5F5F5F5F5F5E2F5F5E2E2EFE2F5F5E2F5F5F5F5F5F5F5F5F5F5BEF5F5BEF5F5F5F5F5F5F5F5F50FF5F50FF50F0FF50F0FF5F5F5ECF50FF5F5F5
310
0FEC0F0FF5F50FF50FF50FF5F5F5F5F5F5F5F5F5F5BEF5F5F5F5F5F5F5F5F5F5F5F5F5F5F5F5F5F5F5F5F5F5F5F5F5F5F5F5F5F5F5F5F5F5F5BEF5F5F5BEF5F5F5F5F5F5F5F5F50F0FF5F5F50F0FF50F0FF5F5EC0FF50FF5F50FF50F0F0FF5F5F50FF5F50FF5F50FF50FF5F5F5F5F5F5F5F5F5F5F5F5F5F5F5F5F5F5F5F5F5
310
F5E2F5F5E2E2EFE2F5F5E2F5F5F5F5F5F5F5F5F5F5BEBEBEBEF5F5F5F5F5F5F5F5F50F0FF5F50FF50F0F0FF5F5F50FEC0FF5F5F50FF5EC0FF50FF5F50FF50F0FF5F5F5F5F5F5F5F5BEBEBEF5F5F5F5F5F5F5F5F5F5F5F5F5F5F5F5F5F5F5F5F5F5F5F5F5F5F5F5F5F5F5F5F5F5F5BEF5BEBEBEF5F5F5F5F5F5F5F5F50FF50F
310
F5F5F50F0F0FF5F5F5ECF50FF5F50FF50F0FF50F0FF5F5F50F0FF50FF5F50F0FF5F5F5F5F5F5F5F5F5F5F5F5F5F5F5F5F5F5F5F5F5F5E2F5F5E2E2EFE2F5F5E2F5F5F5F5F5F5F5F5F5F5BEBEBEBEF5F5F5F5F5F5F5F5F50FF50FF5F50F0F0FF5F5F50FF5ECF5F5F50FF50FEC0F0FF50FF5F50FF50FF5F5F5F5F5F5F5F5BEBE
310
BEF5F5F5F5F5F5F5F5F5F5F5F5F5F5F5F5F5F5F5F5F5F5F5F5F5F5F5F5F5F5F5F5F5F5F5BEF5BEBEBEF5F5F5F5F5F5F5F5F50F0FF50FF5F50F0FF5F5F50FEC0FF5F5F50F0FF50FF5F50F0FF5F5F5F50FF50FF5F50FF5F5F5F5F5F5F5F5F5F5F5F5F5F5F5F5F5F5F5F5F5F5E2F5F5E2E2EFE2F5F5E2F5F5F5F5F5F5F5F5BEBE
310
BEBEBEBEF5F5F5F5F5F5F5F5F50F0FF50FF5F50FF5F5F50FF50FECF5F50FF50FF5EC0FF50FF50FF5F50F0FF5F5F5F5F5F5F5F5BEBEBEF5F5F5F5F5F5F5F5F5F5F5F5F5F5F5F5F5F5F5F5F5F5F5F5F5F5F5F5F5F5F5F5F5BEBEBEF5BEBEBEF5F5F5F5F5F5F5F5F50FF50FF50FF50FF5F5F50FF5ECF5F5F50F0FF5F50FF5F5F5
310
0F0FF5F5F5F50FF50FF50FF5F5F5F5F5F5F5F5F5F5F5F5F5F5F5F5F5F5F5F5F5F5E2F5F5E2E2EFE2F5E2E2F5F5F5F5F5F5F5F5BEBEBEF5F5BEF5F5F5F5F5F5F5F5F50FF50FF50FF50FF5F50FF50FF5ECF50FF50FF5F5EC0FF5F50FF50FF5F50FF5F5F5F5F5F5F5F5F5F5BEF5F5F5F5F5F5F5F5F5F5F5F5F5F5F5F5F5F5F5F5
310
F5F5F5F5F5F5F5F5F5F5F5F5F5BEBEBEF5F5F5BEF5F5F5F5F5F5F5F5F50FF5F50F0F0F0FF5F50FF50FECF5F50F0FF5F50F0F0FF5F5F50F0FF5F5F5F50FF50F0FF5F5F5F5F5F5F5F5F5F5F5F5F5F5F5F5F5F5F5F5F5F5E2E2F5E2E2EFE2F5E2E2F5F5F5F5F5F5F5F5F5F5BEF5F5BEF5F5F5F5F5F5F5F5F50FF5F50FF50F0FF5
310
0FF50FF5F5EC0FF50FF5F50FEC0F0FF5F50FF50FF50FF5F5F5F5F5F5F5F5F5F5BEF5F5F5F5F5F5F5F5F5F5F5F5F5F5F5F5F5F5F5F5F5F5F5F5F5F5F5F5F5F5F5F5F5F5F5BEF5F5F5BEF5F5F5F5F5F5F5F5F50F0FF5F5F50F0FF50FF50FF5ECF50F0FF5F50FF50FF50FF5F5F50F0F0FF5F5F50FF50FF5F5F5F5F5F5F5F5F5F5
310
F5F5F5F5F5F5F5F5F5F5F5F5E2E2F5E2E2EFE2F5E2E2F5F5F5F5F5F5F5F5F5F5BEF5F5BEF5F5F5F5F5F5F5F5F50FF5F5F50FF50F0FF50FF5F5F5BEF50FF5F50FF5EC0FF50FF5F50FF50F0FF5F5F5F5F5F5F5F5F5F5BEF5F5F5F5F5F5F5F5F5F5F5F5F5F5F5F5F5F5F5F5F5F5F5F5F5F5F5F5F5F5F5F5F5F5F5BEF5F5F5BEF5
310
F5F5F5F5F5F5F5F50FF50FF5F5F50F0F0F0FF5F5BE0F0FF5F50FF50F0F0FF50FF5F5F50F0F0FF5F5F50F0FF5F5F5F5F5F5F5F5F5F5F5F5F5F5F5F5F5F5F5F5F5F5E2E2F5E2E2EFE2F5E2E2F5F5F5F5F5ECF5F5F5F5BEF5F5BEF5F5F5F5F5F5F5F5F50F0FF5F5F50F0FF50FF5BEBEBEBEF5BEBEBEF50FF50F0FF50FF5F50FF5
310
0FF5F5F5F5F5F5F5F5F5F5BEF5F5F5F5F5F5F5F5F5F5F5F5F5F5F5F5F5F5F5F5F5F5F5F5F5F5F5F5F5F5ECECF5F5F5BEF5F5F5BEF5F5F5F5F5F5F5F5F50F0FF50FF5F50F0FF5BEF5BEBEBEBEBEBEBE0FF50FF50FF50FF5F5F5F50F0FF5F5F50FF5F5F5F5F5F5F5F5F5F5F5F5F5F5F5F5F5F5F5F5F5F5E2E2F5E2E2EFE2F5E2
310
E2F5F5F5F5ECECF5F5F5F5BEF5F5BEF5F5BEF5F5F5F5F5F5BE0F0FF5F5F50F0FF5F5BEBEBEECBEBEBEBE0FF5EC0FF50FF50FF5F5BEBEF5F5F5BEBEF5F5F5F5F5BEF5F5F5F5F5F5F5F5F5F5F5F5F5F5F5F5F5F5F5F5F5F5F5F5F5F5F5F5F5F5ECECF5F5F5BEF5F5F5BEF5BEF5F5F5F5F5F5BE0FF50FF50FF50F0FF5BEF5BEBE
310
BEBEBEBEBEF5F50FF5F50FF50FF5F5F5F50F0FF5F50FF5F5F5F5F5F5F5F5F5F5F5F5F5F5F5F5F5F5F5F5F5F5E2E2F5E2E2EFE2F5E2E2F5F5F5F5ECECF5F5F5F5BEF5F5BEF5F5BEBEBEBEBEBEBEBEBE0F0FF5F50FF5F5F5F5BEBEECBEBEBEBEF5F5EC0FF5F50FF50FF5F5BEBEBEBEBEBEBEF5F5F5F5BEF5F5F5F5F5F5F5F5F5
310
F5F5F5F5F5F5F5F5F5F5F5F5F5F5F5F5F5F5F5F5F5ECECF5F5F5BEF5F5F5BEF5F5BEBEBEBEBEBEBEBEF5F50FF50F0FF5F5F5BEBEBEF5BEBEBEBEF5F50F0FF5F50FF50FF5F5F5F50F0FF50FF5F5F5F5F5F5F5F5F5F5F5F5F5F5F5F5F5F5F5F5F5F5E2E2F5E2E2EFE2F5E2E2F5F5F5F5ECECF5F5F5F5BEF5F5BEBEF5BEBEF5BE
310
BEBEF5BEBEF50F0FF50FF5F5BEBEBEBEECBEBEBEBEF5F5EC0FF5F5F50FF50FF5BEF5BEBEF5BEF5F5F5F5F5BEF5F5F5F5F5F5F5F5F5F5F5F5F5F5F5F5F5F5F5F5F5F5F5F5F5F5F5F5F5F5ECECF5F5F5BEF5F5F5BEF5F5BEBEF5BEBEF5F5BEBEF5F50FF50FF50FBEBEBEECF5BEBEBEF5F50F0FF50FF5F50FF50F0FF5F5F50F0F
310
0FF5F5F5F5F5F5F5F5F5F5F5F5F5F5F5F5F5F5F5F5F5F5E2E2F5E2E2EFE2F5E2E2F5F5F5F5ECECF5F5F5F5BEF5BEBEBEBEF50F0FBEBEBEF50FF5F5F50F0F0F0F0FF50FF5F5ECF50FF5F5F50FEC0F0FF5F5F50FF50F0F0F0F0F0FBEF5BEBEBEBEBEF5F5F5F5F5F5F5F5F5F5F5F5F5F5F5F5F5F5F5F5F5F5F5F5F5F5F5F5F5F5
310
ECECF5F5F5BEF5F5BEBEBEBEF50F0FBEBEF5F50FF50FF5F50F0F0FF5F50FF5EC0FF50FF5F50F0F0F0FF50FF5F50FF5F50FF5F5F50F0FF5F5F5F5F5F5F5F5F5F5F5F5F5F5F5F5F5F5F5F5F5F5E2E2F5E2E2EFE2F5E2E2F5F5F5F5ECECF5F5F5F5BEF5BEF5F5F50F0FF50F0F0FF50F0FF5F5F50F0FF5F50FF5F50FEC0FF5F5F5
310
0F0FEC0FF50FF5F5F50FF50FF5F50FF5BEF5F5F5F5BEF5F5F5F5F5F5F5F5F5F5F5F5F5F5F5F5F5F5F5F5F5F5F5F5F5F5F5F5F5F5F5ECECF5F5F5BEF5F5BEF5F5F50FF5F50F0F0FF50F0FF50FF5F50FF5F50FF5F5ECF50FF5F50F0FF50FF50FF50FF5F50F0FF50FF5F5F50FF5F5F5F5F5F5F5F5F5F5F5F5F5F5F5F5F5F5F5F5
310
F5F5E2E2F5E2E2EFE2F5E2E2F5F5F5F5ECECF5F5F5F5BEF5F5F5F5F50FF50FF50FF50F0FF50FF5F5F50F0F0FF5F50FF50FF5F5F50F0FF5F50F0FF50FF5F5F50FF50FF5F50F0FF5F5F5F5F5F5F5F5F5F5F5F5F5F5F5F5F5F5F5F5F5F5F5F5F5F5F5F5F5F5F5F5F5F5F5F5ECECF5F5F5BEBEF5F5F5F5F50FF5F5F50F0FF50FF5
310
0FF50FF50F0F0FF5F50FF50FF5F50F0FF5F50FF5F50FF50FF5F5F50FF50FF5F50FF5F5F5F5F5F5F5F5F5F5F5F5F5F5F5F5F5F5F5F5F5F5E2E2F5E2E2EFE2F5E2E2F5F5F5F5ECECF5F5F5BEBEBEBEBEBEBE0FF5F50FF50F0FEC0FF50FF5F50FF5F50F0FF50FECF5F50F0FF5F5EC0FF50FF50FF5F5F50FF50FF5F50FF5F5F5F5
310
F5F5F5F5F5F5F5F5F5F5F5F5F5F5F5F5F5F5F5F5F5F5F5F5F5F5F5F5F5F5F5F5ECECF5F5BEBEBEBEBEBEBEF50F0FF5F5F50F0FECF5F50FF50F0FF5F50F0FF5ECF5F50F0FF5F5F50FF5F5F50FF50FF5F5F50FF50FF50FF5F5F5F5F5F5F5F5F5F5F5F5F5F5F5F5F5F5F5F5F5F5E2E2F5E2E2EFE2F5E2E2F5F5F5F5ECECF5F5F5
310
BEF5F5F5F5F5F50F0FF5F50FF50FECF50FF50FF50FF50FF50F0FF5ECF50F0FF5F5F5EC0FF5F50FF50FF5F5F50FF50FF50FF5F5F5F5F5F5F5F5F5F5F5F5F5F5F5F5F5F5F5F5F5F5F5F5F5F5F5F5F5F5F5F5F5F5F5F5ECECF5F5BEF5F5F5F5F5F5F50FF50FF5F5F50F0FF5F5F50FF50FF50FF50F0FECF50F0FF5F5F50F0F0FF5
310
F5F50FF50F0FF5F50FF50F0FF5F5F5F5F5F5F5F5F5F5F5F5F5F5F5F5F5F5F5F5F5F5E2E2F5E2E2EFE2F5E2E2F5F5F5F5ECECF5F5F5F5F5F5F5F5F5F50FF50FF5F50FF50FF5F50FF50F0F0FF50FF5F5F5EC0F0FF5F5F50FEC0F0FF5F50FF50F0FF5F50FF50F0FF5F5F5F5F5F5F5F5F5F5F5F5F5F5F5F5F5F5F5F5F5F5F5F5F5
310
F5F5F5F5F5F5F5F5F5F5F5ECECF5F5F5F5F5F5F5F5F5F50F0FF50FF5F5F50F0FF5F5F50F0F0FF50FF5F5EC0F0FF5F5F50FF50F0F0FF5F5F50FF5F50FF5F50FF50FF5F5F5F5F5F5F5F5F5F5F5F5F5F5F5F5F5F5F5F5F5F5E2E2F5E2E2EFE2F5E2E2F5F5F5F5ECECF5F5F5F5F5F5F5F5F5F50F0FF50FF5F50FEC0FF5F50FF50F
310
F50FF5F5F50FEC0FF5F5F50FF5EC0FF50FF5F50FF5F50FF5F50FF50FF5F5F5F5F5F5F5F5F5F5F5F5F5F5F5F5F5F5F5F5F5F5F5F5F5F5F5F5F5F5F5F5F5F5F5F5ECECF5F5F5F5F5F5F5F5F5F50FF50FF50FF5F5EC0F0FF5F5F50FF50FF5F5F5EC0FF5F5F50FF50F0FF50F0FF5F5F50FF5F50FF5F50F0FF5F5F5F5F5F5F5F5F5
310
F5F5F5F5F5F5F5F5F5F5F5F5F5E2E2F5E2E2EFE2F5E2E2F5F5F5F5ECECECECECECECECECECECF50FF50FF50FF5F50FF50FF5F50F0F0FF5F5F50FF5ECF5F5F50FF50FEC0F0FF50FF5F50FF5F50FF5F50F0FF5F5F5F5F5F5F5F5F5F5F5F5F5F5F5F5F5F5F5F5F5F5F5F5F5F5F5F5F5F5F5F5F5F5F5F5ECECECECECECECECECEC
310
F5F50FF5F50FF50FF5F5F50F0FF5F50F0FF5F5F50FEC0FF5F50FF50FF50FF5F50F0FF5F5F50FF5F50FF5F50FF5F5F5F5F5F5F5F5F5F5F5F5F5F5F5F5F5F5F5F5F5F5E2E2F5E2E2EFE2F5E2E2F5F5F5F5ECECECECECECECECECEC282828F5F50FF50FF5EC0FF50FF5F50FF5F5F50FF50FF5F5F50FF50FF5F50FF50FF50FF5F5
310
0FF5F50FF5F50FF5F5F5F5F5F5F5F5F5F5F5F5F5F5F5F5F5F5F5F5F5F5F5F5F5F5F5F5F5F5F5F5F5F5F5F5ECECECECECECECECECEC2828280FF5F50FF50FECF5F50F0FF50FF5F5F50FF50FF5F50FF50FF5F50FF5F5F50F0F0FF5F50FF5F50FF50FF5F5F5F5F5F5F5F5F5F5F5F5F5F5F5F5F5F5F5F5F5F5E2E2F5E2E2EFE2F5
310
F5E2F5F5F5F5ECECF5F5F5EC2828282828F528F5F5F50FF50FECF50FF50FF50FF5F50FF50FF5ECF50FF50FF5F5EC0FF5F50FF50FF5F50FF5F50FF50FF5F5F5F5F5F5F5F5F5F5F5F5F5F5F5F5F5F5F5F5F5F5F5F5F5F5F5F5F5F5F5F5F5F5F5F5ECECF5F5F5EC2828282828F528F50FF5F50FF50FF5F5F50F0F0FF5F50FF50F
310
ECF50FF50FF5F50F0F0FF5F5F50FF50FF5F50FF5F50F0FF5F5F5F5F5F5F5F5F5F5F5F5F5F5F5F5F5F5F5F5F5F5E2F5F5E2E2EFE2F5F5E2F5F5F5F5ECECF5F5F5F528F5F52828F5280FF5F5F50FF50FF5F50FF50F0FF50FF50FF5F5EC0FF50FF5F50FEC0F0FF5F50FF50FF5F50FF5F50F0FF5F5F5F5F5F5F5F5F5F5F5F5F5F5
310
F5F5F5F5F5F5F5F5F5F5F5F5F5F5F5F5F5F5F5F5F5F5ECECF5F5F5F528F5F52828F5280FF50FF5F50FEC0FF5F5F50F0FF50FF50FF5EC0FF50FF5F5F50F0FF50FF5F5F50FF50FF5F50FF5F50FF5F5F5F5F5F5F5F5F5F5F5F5F5F5F5F5F5F5F5F5F5F5E2F5F5E2E2EFE2F5F5E2F5F5F5F5ECECF5F5F5F528F5F52828F528F50F
310
F5F5F50FEC0FF5F50FF50F0FF50FF5F50FECF50FF5F50FF5EC0F0FF5F5F50FF50FF5F50FF5F50FF5F5F5F5F5F5F5F5F5F5F5F5F5F5F5F5F5F5F5F5F5F5F5F5F5F5F5F5F5F5F5F5F5F5F5F5ECECF5F5F5F528F5F52828F528F50FF50FF5F50FF50FF5F5F50F0FF50FF5F5ECF50FF5F5F50FF50F0F0F0FF5F5F50FF50FF5F50F
310
0F0FF5F5F5F5F5F5F5F5F5F5F5F5F5F5F5F5F5F5F5F5F5F5E2F5F5E2E2EFE2F5F5E2F5F5F5F5ECECF5F5F5F5282828282828280FF50FF5F5F50FF50FF5F50F0FF50FF5F50FF5EC0FF50F0F0F0FEC0F0F0F0F0F0F0F0F0F0F0F0F0FF5F5F5F5F5F5F5F5F5F5F5F5F5F5F5F5F5F5F5F5F5F5F5F5F5F5F5F5F5F5F5F5F5F5F5F5
310
F5ECECF5F5F5F528282828282828F5F50FF50FF5EC0FF50FF5F50FF50FF5F50FEC0FF5F50F0F0F0F0F0F0F0F0F0F0F0F0F0F0F0F0F0FF5F5F5F5F5F5F5F5F5F5F5F5F5F5F5F5F5F5F5F5F5F5F5E2F5F5E2E2EFE2F5F5E2F5F5F5F5ECECF5F5F5F528F5282828F5280F0FF50FF5F5F50FF50FF5F50F0FF5F50FF50FECF5F50F
310
F5F5F5F5F5F5F5F5F5F5F5F5F5F5F5F5F5F5F5F5F5F5F5F5F5F5F5F5F5F5F5F5F5F5F5F5F5F5F5F5F5F5F5F5F5F5F5F5F5F5F5F5F5F5ECECF5F5F5F52828F52828F5280FF5F50FF50FF5F50FF50FF50F0FF5F50FF5ECF5F5F50FF5F5F5F5F5F5F5F5F5F5F5F5F5F5F5F5F5F5F5F5F5F5F5F5F5F5F5F5F5F5F5F5F5F5F5F5F5
310
F5F5F5E2F5F5E2E2EFE2F5F5E2F5F5F5F5ECECF5F5F5F528F5282828EC280FF50FF50FF5ECF50FF50FF50FF5F50FF50FF5F5F50F0FF5F5F5F5F5F5F5F5F5F5F5F5F5F5F5F5F5F5F5F5F5F5F5F5F5F5F5F5F5F5F5F5F5F5F5F5F5F5F5F5F5F5F5F5F5F5F5F5F5F5F5F5F5F5ECECF5F5F5F52828F52828F5280FF5F5F50FF50F
310
F5F50FF50F0FF5F50FF50FF5F5F50F0FF5F5F5F5F5F5F5F5F5F5F5F5F5F5F5F5F5F5F5F5F5F5F5F5F5F5F5F5F5F5F5F5F5F5F5F5F5F5F5F5E2F5F5E2E2EFE2F5F5E2F5F5F5F5ECECF5F5F5F528F52828282828F50FF50FF50FECF5F50FF50F0FF50FF50FF5F5EC0FF50FF5F5F5F5F5F5F5F5F5F5F5F5F5F5F5F5F5F5F5F5F5
310
F5F5F5F5F5F5F5F5F5F5F5F5F5F5F5F5F5F5F5F5F5F5F5F5F5F5F5F5F5F5F5F5F5ECECF5F5F5F528282828282828F50FF5F5F50FEC0FF5F50FF50FF50FF50FF5ECF50FF50FF5F5F5F5F5F5F5F5F5F5F5F5F5F5F5F5F5F5F5F5F5F5F5F5F5F5F5F5F5F5F5F5F5F5F5F5F5F5F5F5E2F5F5E2E2EFE2F5F5E2F5F5F5F5ECECF5F5
310
F5F52828F52828F528F5F50FF50FF50FF5F5F50FF50F0FF50FF5F5F5ECF50F0FF5F5F5F5F5F5F5F5F5F5F5F5F5F5F5F5F5F5F5F5F5F5F5F5F5F5F5F5F5F5F5F5F5F5F5F5F5F5F5F5F5F5F5F5F5F5F5F5F5F5F5F5F5F5ECECF5F5F5F528F5F52828F5280FF50FF5F5F50FF50FF5F50F0F0FF50FF5F5EC0FF50F0FF5F5F5F5F5
310
F5F5F5F5F5F5F5F5F5F5F5F5F5F5F5F5F5F5F5F5F5F5F5F5F5F5F5F5F5F5F5F5F5F5F5E2F5F5E2E2EFE2F5E2E2F5F5F5F5ECECF5F5F5F528F5F52828F5280FF50FF5F50FEC0FF5F5F50F0FF50FF5F5F50FEC0FF50FF5F5F5F5F5F5F5F5F5F5F5F5F5F5F5F5F5F5F5F5F5F5F5F5F5F5F5F5F5F5F5F5F5F5F5F5F5F5F5F5F5F5
310
F5F5F5F5F5F5F5F5F5F5F5F5ECECF5F5F5F528F5F52828F528F50FF50FF5F5EC0FF50FF5F50FF50FF5F5F5ECF50FF50FF5F5F5F5F5F5F5F5F5F5F5F5F5F5F5F5F5F5F5F5F5F5F5F5F5F5F5F5F5F5F5F5F5F5F5F5F5F5F5F5E2E2F5E2E2EFE2F5E2E2F5F5F5F5ECECF5F5F5EC2828282828F528F50FF50FF5F50FF50FF5F5F5
310
0F0FF5F50F0FF5ECF5F50FF5F5F5F5F5F5F5F5F5F5F5F5F5F5F5F5F5F5F5F5F5F5F5F5F5F5F5F5F5F5F5F5F5F5F5F5F5F5F5F5F5F5F5F5F5F5F5F5F5F5F5F5F5F5ECECF5F5F5EC2828282828F528F5F50F0F0FF5ECF50FF50FF50F0FF5F50F0FEC0FF5F50FF5F5F5F5F5F5F5F5F5F5F5F5F5F5F5F5F5F5F5F5F5F5F5F5F5F5
310
F5F5F5F5F5F5F5F5F5F5F5F5F5F5E2E2F5E2E2EFE2F5E2E2F5F5F5F5ECECECECECECECECECEC282828F5F50FF50F0FC30F0F0FF5F50FF5F50FF5F50FECF50F0FF5F5F5F5F5F5F5F5F5F5F5F5F5F5F5F5F5F5F5F5F5F5F5F5F5F5F5F5F5F5F5F5F5F5F5F5F5F5F5F5F5F5F5F5F5F5F5F5F5F5F5F5F5F5ECECECECECECECECEC
310
EC2828280FF5F5F50FC3C30F0F0FF50F0FF5F50FF5F5ECF5F50F0FF5F5F5F5F5F5F5F5F5F5F5F5F5F5F5F5F5F5F5F5F5F5F5F5F5F5F5F5F5F5F5F5F5F5F5F5F5F5F5F5E2E2F5E2E2EFE2F5E2E2F5F5F5F5ECECECECECECECECECECECC3C30FF5F50FF5C3C3C3C3F50FF50FF50FF5F50FF5F50FF50FF5F5F5F5F5F5F5F5F5F5
310
F5F5F5F5F5F5F5F5F5F5F5F5F5F5F5F5F5F5F5F5F5F5F5F5F5F5F5F5F5F5F5F5F5F5F5F5F5F5F5F5F5F5F5F5ECECECECECECECECECECECC3C3F50FF5F5F5C3C3C30FF50FF50FF50FF5F50FF5F50FF50FF5F5F5F5F5F5F5F5F5F5F5F5F5F5F5F5F5F5F5F5F5F5F5F5F5F5F5F5F5F5F5F5F5F5F5F5F5F5F5F5E2E2F5E2E2EFE2
310
F5E2E2F5F5F5F5ECECF5F5F5F5F5F5F5ECECC3C3F50FF5F50FC3C3C3C30FF50F0F0FF5F50FF5F5EC0F0F0FF5F5F5F5F5F5F5F5F5F5F5F5F5F5F5F5F5F5F5F5F5F5F5F5F5F5F5F5F5F5F5F5F5F5F5F5F5F5F5F5F5F5F5F5F5F5F5F5F5F5F5F5F5F5ECECF5F5F5F5F5F5F5ECECC3C30FF50FF5F5C3C3C3C3F5F50F0F0FF5F50F
310
F5EC0FF50F0FF5F5F5F5F5F5F5F5F5F5F5F5F5F5F5F5F5F5F5F5F5F5F5F5F5F5F5F5F5F5F5F5F5F5F5F5F5F5F5F5E2E2F5E2E2EFE2F5E2E2F5F5F5F5ECECF5F5F5F5F5F5F5ECECECC30FF50FF5F5C3C3C3C3F50FF50FF5F50FF5F5F5ECF50F0FF5F5F5F5F5F5F5F5F5F5F5F5F5F5F5F5F5F5F5F5F5F5F5F5F5F5F5F5F5F5F5
310
F5F5F5F5F5F5F5F5F5F5F5F5F5F5F5F5F5F5F5F5F5F5F5ECECF5F5F5F5F5F5F5ECECECC3F50FF50FF5C3C3C3C30FF5F50FF5F50FF5F5ECF50FF50FF5F5F5F5F5F5F5F5F5F5F5F5F5F5F5F5F5F5F5F5F5F5F5F5F5F5F5F5F5F5F5F5F5F5F5F5F5F5F5F5E2E2F5E2E2EFE2F5E2E2F5F5F5F5ECECF5F5F5F5F5C3C3F5C3C3C3F5
310
0FF50FF5C3C3C3C3F5F50F0FF50FF5F5F50FEC0F0F0FF5F5F5F5F5F5F5F5F5F5F5F5F5F5F5F5F5F5F5F5F5F5F5F5F5F5F5F5F5F5F5F5F5F5F5F5F5F5F5F5F5F5F5F5F5F5F5F5F5F5F5F5F5F5ECECF5F5F5F5F5C3C3F5C3C3C3F5F50FF50FC3C3C3C30FF5F50FF50FF5F50FEC0FF50F0FF5F5F5F5F5F5F5F5F5F5F5F5F5F5F5
310
F5F5F5F5F5F5F5F5F5F5F5F5F5F5F5F5F5F5F5F5F5F5F5F5F5E2E2F5E2E2EFE2F5E2E2F5F5F5F5ECECF5F5F5F5F5C3C3C3C3C3C3C3C3C3C3C3C3C3C3C3C3C30F0F0F0F0F0F0F0FEC0F0FF5F5F5F5F5F5F5F5F5F5F5F5F5F5F5F5F5F5F5F5F5F5F5F5F5F5F5F5F5F5F5F5F5F5F5F5F5F5F5F5F5F5F5F5F5F5F5F5F5F5F5F5F5
310
F5F5ECECF5F5F5F5F5C3C3C3C3C3C3C3C3C3C3C3C3C3C3C3C3C30F0F0F0F0F0F0FEC0F0F0FF5F5F5F5F5F5F5F5F5F5F5F5F5F5F5F5F5F5F5F5F5F5F5F5F5F5E2F5F5F5F5F5F5F5F5F5F5F5F5F5F5E2E2F5E2E2EFE2F5E2E2F5F5F5F5ECECF5F5F5F5F5F5C3C3C3C3C3C3C3C3C3C3C3C3C3C3F5F5F5F5F5F5F5F5F5F5F5F5F5
310
F5F5F5F5F5F5F5F5F5F5F5F5F5F5F5F5E2E2F5F5F5F5F5F5F5F5F5F5F5F5F5F5F5F5F5F5F5F5F5F5F5F5F5F5F5F5F5F5F5F5F5F5F5F5F5ECECF5F5F5F5F5F5C3C3C3C3C3C3C3C3C3C3C3C3C3C3F5F5E2E2E2E2F5F5E2E2F5F5F5F5F5F5F5E2E2E2E2E2E2F5E2E2E2E2E2E2E2F5E2E2E2E2E2E2E2E2E2F5F5E2E2E2E2E2F5E2
310
E2E2F5F5E2E2F5E2E2EFE2F5E2E2F5F5F5F5ECECF5F5F5F5F5F5F5F5F5F5F5F5F5F5F5F5F5C3C3C3F5F5F5F5E2F5E2F5F5F5E2E2F5F5F5F5F5F5F5E2E2F5E2E2E2F5E2E2E2E2E2F5F5E2E2E2E2E2E2E2E2F5F5F5E2E2E2F5E2F5F5F5E2E2E2E2E2E2E2F5E2F5F5F5F5F5F5F5ECECF5F5F5F5F5F5F5F5F5F5F5F5F5F5F5F5C3
310
C3C3C3F5F5E2E2E2E2F5F5E2E2F5F5F5F5F5F5F5E2E2E2E2E2E2E2E2E2E2E2E2E2E2E2E2E2E2E2E2E2E2E2E2F5E2E2E2E2E2E2E2E2E2E2F5F5E2E2F5E2E2EFE2F5E2E2F5F5F5F5ECECF5F5F5F5F5F5F5F5F5F5F5F5F5F5F5F5F5C3C3C3C3F5F5E2E2E2E2E2F5F5F5E2F5F5F5F5F5F5F5E2E2F5E2E2E2E2E2E2E2E2E2F5F5E2
310
E2E2E2E2E2E2E2F5F5E2E2E2E2E2E2F5F5E2E2E2E2E2E2E2E2F5E2F5F5F5F5F5F5F5ECECF5F5F5F5F5F5F5F5F5F5F5F5F5F5F5F5F5C3C3C3C3F5E2E2E2E2F5F5F5E2F5F5E2E2E2F5F5E2F5E2F5E2E2E2E2E2E2E2E2E2E2E2E2E2E2E2E2E2E2E2E2F5E2E2E2F5E2E2E2E2E2E2F5F5E2E2F5E2E2EFE2F5E2E2F5F5F5F5ECECF5
310
F5F5F5F5F5F5F5F5F5F5F5F5F5F5F5F5C3C3C3C3F5F5F5E2E2E2E2F5F5F5E2F5F5E2E2E2F5F5E2E2E2E2E2E2E2E2E2E2E2E2F5F5E2E2E2E2E2E2E2E2F5F5E2E2E2E2E2E2F5F5E2E2E2E2E2E2E2E2E2E2F5F5F5F5F5F5F5ECECF5F5F5F5F5F5F5F5F5F5F5F5F5F5F5F5F5C3C3C3C3F5E2E2E2E2F5F5E2E2F5F5F5F5F5F5F5E2
310
F5E2F5E2F5F5F5F5F5E2F5E2F5E2E2F5F5F5F5F5F5F5F5F5F5F5F5F5E2E2F5F5F5F5F5F5E2E2F5E2E2EFE2F5E2E2F5F5F5F5ECECF5F5F5F5F5F5F5F5F5F5F5F5F5F5F5F5F5F5C3C3C3F5F5E2E2E2E2E2F5F5E2E2F5F5F5F5F5F5F5E2E2F5E2E2F5F5F5F5F5F5F5F5F5E2F5F5F5F5F5F5F5F5F5F5F5F5F5F5E2F5F5F5F5F5F5
310
E2E2F5F5F5F5F5F5F5F5F5F5F5ECECF5F5F5F5F5F5F5F5F5F5F5F5F5F5F5F5F5C3C3C3C3F5F5F5F5F5F5F5F5F5F5F5F5F5F5F5F5F5F5F5F5F5F5F5F5F5F5F5F5F5F5F5F5F5F5F5F5F5F5F5F5F5F5F5F5F5F5F5F5F5F5F5F5F5E2E2F5E2E2EFE2F5E2E2F5F5F5F5ECECF5F5F5F5F5F5F5ECECECECF5F5F5F5F5F5F5F5F5F5F5
310
F5F5F5F5F5F5F5F5F5F5F5F5F5F5F5F5F5F5F5F5F5F5F5F5F5F5F5F5F5F5F5F5F5F5F5F5F5F5F5F5F5F5F5F5F5F5F5F5F5F5F5F5F5F5F5F5F5F5F5F5F5F5F5F5F5F5ECECF5F5F5F5F5F5ECECECECF5F5F5F5F5F5F5F5F5F5F5F5F5F5F5F5F5F5F5F5F5F5F5F5F5F5F5F5F5F5F5F5F5F5F5F5F5F5F5F5F5F5F5F5F5F5F5F5F5
310
F5F5F5F5F5F5F5F5F5F5F5F5F5F5F5E2E2F5E2E2EFE2F5E2E2F5F5F5F5F5ECECF5F5F5F5F5ECECECECECF5F5F5F5F5F5F5F5F5F5F5F5F5F5F5F5F5F5F5F5F5F5F5F5F5F5F5F5F5F5F5F5F5F5F5F5F5F5F5F5F5F5F5F5F5F5F5F5F5F5F5F5F5F5F5F5F5F5F5F5F5F5F5F5F5F5F5F5F5F5F5F5F5F5F5F5F5ECECECF5F5F5F5F5
310
ECECECECF5F5F5F5F5F5F5F5F5F5F5F5F5F5F5F5F5F5F5F5F5F5F5F5F5F5F5F5F5F5F5F5F5F5F5F5F5F5F5F5F5F5F5F5F5F5F5F5F5F5F5F5F5F5F5F5F5F5F5F5F5F5F5F5E2E2F5E2E2EFE2F5E2E2F5F5F5F5F5ECECECECECF5F5ECECF5ECF5F5F5F5F5F5F5F5F5F5F5F5F5F5F5F5F5F5F5F5F5F5F5F5F5F5F5F5F5F5F5F5F5
310
F5F5F5F5F5F5F5F5F5F5F5F5F5F5F5F5F5F5F5F5F5F5F5F5F5F5F5F5F5F5F5F5F5F5F5F5F5F5F5F5F5F5F5F5F5F5ECECECECF5F5F5ECECF5ECF5F5F5F5F5F5F5F5F5F5F5F5F5F5F5F5F5F5F5F5F5F5F5F5F5F5F5F5F5F5F5F5F5F5F5F5F5F5F5F5F5F5F5F5F5F5F5F5F5F5F5F5F5F5F5F5F5F5F5F5F5F5F5F5E2E2F5E2E2EF
310
E2F5F5E2F5F5F5F5F5F5F5ECECECECECECECF5F5F5F5F5F5F5F5F5F5F5F5F5F5F5F5F5F5F5F5F5F5F5F5F5F5F5F5F5F5F5F5F5F5F5F5F5F5F5F5F5F5F5F5F5F5F5F5F5F5F5F5F5F5F5F5F5F5F5F5F5F5F5F5F5F5F5F5F5F5F5F5F5F5F5F5F5F5F5F5F5F5F5ECECECECF5ECECF5F5F5F5F5F5F5F5F5F5F5F5F5F5F5F5F5F5F5
310
F5F5F5F5F5F5F5F5F5F5F5F5F5F5F5F5F5F5F5F5F5F5F5F5F5F5F5F5F5F5F5F5F5F5F5F5F5F5F5F5F5F5F5F5F5F5F5E2F5F5E2E2EFE2F5F5E2F5F5F5F5F5F5F5F5F5ECF5ECECECECECECF5F5F5F5F5F5F5F5F5F5F5F5F5F5F5F5F5F5F5F5F5F5F5F5F5F5F5F5F5F5F5F5F5F5F5F5F5F5F5F5F5F5F5F5F5F5F5F5F5F5F5F5F5
310
F5F5F5F5F5F5F5F5F5F5F5F5F5F5F5F5F5F5F5F5F5F5F5F5F5F5F5F5F5ECF5ECECECECECF5F5F5F5F5F5F5F5F5F5F5F5F5F5F5F5F5F5F5F5F5F5F5F5F5F5F5F5F5F5F5F5F5F5F5F5F5F5F5F5F5F5F5F5F5F5F5F5F5F5F5F5F5F5F5F5F5F5F5F5F5F5F5F5E2F5F5E2E2EFE2F5F5E2F5F5F5F5F5F5F5F5F5F5F5F5F5ECECECEC
310
F5F5F5F5F5F5F5F5F5F5F5F5F5F5F5F5F5F5F5F5F5F5F5F5F5F5F5F5F5F5F5F5F5F5F5F5F5F5F5F5F5F5F5F5F5F5F5F5F5F5F5F5F5F5F5F5F5F5F5F5F5F5F5F5F5F5F5F5F5F5F5F5F5F5F5F5F5F5F5F5F5F5F5F5F5F5ECECECF5F5F5F5F5F5F5F5F5F5F5F5F5F5F5F5F5F5F5F5F5F5F5F5F5F5F5F5F5F5F5F5F5F5F5F5F5F5
310
F5F5F5F5F5F5F5F5F5F5F5F5F5F5F5F5F5F5F5F5F5F5F5F5F5F5E2F5F5E2E2EFE2F5F5E2F5F5F5F5F5F5F5F5F5F5F5F5F5F5F5ECF5F5F5F5F5F5F5F5F5F5F5F5F5F5F5F5F5F5F5F5F5F5F5F5F5F5F5F5F5F5F5F5F5F5F5F5F5F5F5F5F5F5F5F5F5F5F5F5F5F5F5F5F5F5F5F5F5F5F5F5F5F5F5F5F5F5F5F5F5F5F5F5F5F5F5
310
F5F5F5F5F5F5F5F5F5F5F5F5F5ECF5F5F5F5F5F5F5F5F5F5F5F5F5F5F5F5F5F5F5F5F5F5F5F5F5F5F5F5F5F5F5F5F5F5F5F5F5F5F5F5F5F5F5F5F5F5F5F5BEF5F5F5F5F5F5F5F5F5F5F5F5F5F5F5F5E2F5F5E2E2EFE2F5F5E2F5F5F5F5ECECECECECECECECECF5F5F5F50F0F0F0F0F0FEC0F0F0F0F0F0F0F0F0F0F0F0FEC0F
310
0F0F0F0F0FEC0F0F0F0F0F0F0F0F0F0F0F0F0FF5F5F5F5F5F5F5F5F5F5F5F5F5F5F5F5F5F5F5F5F5F5F5F5F5F5F5F5F5F5F5F5F5F5F5F5F5ECECECECECECECECF5F5F5F5F50F0F0F0F0F0FEC0F0F0F0F0F0F0F0F0F0F0FEC0F0F0F0F0F0F0F0F0F0F0F0F0F0F0F0FF5F5F5F5F5F5BEBEBEBEBEBEF5F5F5F5F5F5F5F5F5F5F5
310
F5F5F5F5F5E2F5F5E2E2EFE2F5F5E2F5F5F5F5ECECECECECECECECECEC2828280FF5F50FF50FECF50FF50FF50FF5F50F0FF5F5EC0FF50FF5F50FEC0FF5F50FF50FF5F50FF50FF5F50FF5F5F5F5F5F5F5F5F5F5F5F5F5F5F5F5F5F5F5F5F5F5F5F5F5F5F5F5F5F5F5F5F5F5F5F5ECECECECECECECECECEC282828F50FF5F50F
310
F50FF5F50FF50F0FF50FF50FF5ECF50F0FF5F5F50F0F0FF5F5F50FF50F0F0FF5F5F5F5F5F5F5F5F5BEF5F5F5F5F5F5F5F5F5F5F5F5F5F5F5F5F5E2F5F5E2E2EFE2F5F5E2F5F5F5F5ECECF5F5F5F5F5F5F5EC28F5280FF5F5F50FF50FF5F50FF50F0F0F0F0FF5F5F5ECF50FF5F50FF5EC0FF5F5F50FF50FF5F50FF50FF50FF5
310
F5F5F5F5F5F5F5F5F5F5F5F5F5F5F5F5F5F5F5F5F5F5F5F5F5F5F5F5F5F5F5F5F5F5F5ECF5F5F5F5F5F5F5F5EC28F528F5F50FF5F50FEC0FF5F50FF50F0FF50FF5F5EC0F0FF5F5F50F0F0FF50FF5F5F50FF50F0FF5F5F5F5F5F5F5F5F5BEF5F5F5F5F5F5F5F5F5F5F5F5F5F5F5F5F5E2F5F5E2E2EFE2F5F5E2F5F5F5F5ECEC
310
ECECECF52828282828F528F50FF5F5F50FEC0FF5F50FF50FF50FF5F5F50FEC0FF5F50FF50FEC0F0FF5F5F50FF50FF5F50FF50F0FF5F5F5F5F5F5F5F5F5F5F5F5F5F5F5F5F5F5F5F5F5F5F5F5F5F5F5F5F5F5F5F5F5F5F5F5ECECECECECF52828282828F5280FF5F50FF5F50FF50FF5F50F0FF50FF5F5F5EC0FF5F5F50F0FF5
310
0F0FF50FF5F5F50FF50FF5F5F5F5F5F5F5F5F5BEF5F5F5F5F5F5F5F5F5F5F5F5F5F5F5F5F5E2F5F5E2E2EFE2F5F5E2F5F5F5F5ECECECECECF52828282828F5280FF50FF5F5F50FF50FF5F50F0F0FF5F50F0FF50FF5F50FF50FF5F50FF50FF5F5F50FF50FF5F50FF50FF5F5F5F5F5F5F5F5F5F5F5F5F5F5F5F5F5F5F5F5F5F5
310
F5F5F5F5F5F5F5F5F5F5F5F5F5F5ECECECECEC282828282828F528F50FF5F50FF5F50FF50FF5F50F0FF5F50F0F0FF5F5F50F0FF5F50FF50FF50FF5F5F50F0FF5F5F5F5F5F5F5F5F5BEF5F5F5F5F5F5F5F5F5F5F5F5F5F5F5F5F5E2F5F5E2E2EFE2F5E2E2F5F5F5F5ECECF5F5F5F52828282828F528F50FF50FF5F5EC0F0FF5
310
F5F50FF5F50FF50F0FECF50FF50FF5F5EC0F0FF50FF5F5F50FF50FF5F50F0FF5F5F5F5F5F5F5F5F5F5F5F5F5F5F5F5F5F5F5F5F5F5F5F5F5F5F5F5F5F5F5F5F5F5F5F5ECECF5F5F528F528282828F528F5F50FF5F50FECF50FF50FF50FF5F50FF50FECF5F50F0FF5F5F50FF5F50FF50FF5F5F50FF5F5F5F5F5F5F5F5F5BEF5
310
F5F5F5F5F5F5F5F5F5F5F5F5F5F5F5F5E2E2F5E2E2EFE2F5E2E2F5F5F5F5ECECECECECEC282828F5282828F5F50FF50FF5EC0FF50FF5F50FF50FF50FF5F5EC0FF50FF5F5F5EC0FF50FF50FF5F5F50FF50FF5F50FF5F5F5F5F5F5F5F5F5F5F5F5F5F5F5F5F5F5F5F5F5F5F5F5F5F5F5F5F5F5F5F5F5F5F5F5ECECECECEC2828
310
2828282828280FF5F50FF5F50FF5F50FF50F0FF50FF50FF5ECF50F0FF5F5F50F0FF5F5F50F0F0FF5F50FF5F5F5F5F5F5F5F5F5BEF5F5F5F5F5F5F5F5F5F5F5F5F5F5F5F5F5E2E2F5E2E2EFE2F5E2E2F5F5F5F5ECECF5F5F5F528F5F5EC28282828282828282828280FF50FF50F0FF50FF5F5F5ECF50FF5F5F50FEC0FF5F50F
310
F50FF5F5F50FF50FF50FF5F5F5F5F5F5F5F5F5F5F5F5F5F5F5F5F5F5F5F5F5F5F5F5F5F5F5F5F5F5F5F5F5F5F5F5ECF5F5F5F528F5F5F5EC2828282828282828282828F5F50FF50F0FF50FF5F5EC0FF50FF5F50FF50F0FF5F5F5F50F0FF50FF5F5F5F5F5F5F5F5F5BEF5F5F5F5F5F5F5F5F5F5F5F5F5F5F5F5F5E2E2F5E2E2
310
EFE2F5E2E2F5F5F5F5ECECF5F5F5F528282828282828F50FF5F50FF50FF5F50FF50F0FF50FF5F5F50FF50FF5F5F50FF50F0F0FF5F50FF50FF5F5F50FF50F0FF5F5F5F5F5F5F5F5F5F5F5F5F5F5F5F5F5F5F5F5F5F5F5F5F5F5F5F5F5F5F5F5F5F5F5F5ECECF5F5F528282828282828280FF50FF5F50FEC0FF5F5F50F0FF50F
310
F5F5F50FF50FF5F50FF50F0F0F0FF5F5F5F50F0F0FF5F5F5F5F5F5F5BEBEBEF5F5F5F5F5F5F5F5F5F5F5F5F5F5F5F5F5E2E2F5E2E2EFE2F5E2E2F5F5F5F5ECECF5F5F5F52828282828F5280FF50FF5F50FEC0FF5F50FF50F0FF5F5F50FF5ECF5F5F50FF50FEC0FF50FF5F50FF50FF5F5F50FF50FF5F5F5F5F5F5F5F5F5F5F5
310
F5F5F5F5F5F5F5F5F5F5F5F5F5F5F5F5F5F5F5F5F5F5F5F5F5ECECF5F5F5282828282828F528F50FF50FF5F50FF50FF5F5F50F0FF5F5F50FEC0FF5F5F50F0FF50FF50F0FF5F5F5F50F0FF5F5F5F5F5F5F5BEBEBEF5F5F5F5F5F5F5F5F5F5F5F5F5F5F5F5F5E2E2F5E2E2EFE2F5E2E2F5F5F5F5ECECECECECF52828F52828F5
310
28F50FF50FF5F50FF50FF5F50F0FF5F5F50FF50FECF5F50FF50FF5EC0F0FF50FF5F50FF50FF5F5F50F0FF5F5F5F5F5F5F5F5F5F5F5F5F5F5F5F5F5F5F5F5F5F5F5F5F5F5F5F5F5F5F5F5F5F5F5F5ECECECECECF528F5282828F528F5F50FF50FF5F50FF50FF5F50FF5F5F50FF5ECF5F5F50F0FF5F50FF5F50F0F0FF5F5F50F
310
F5F5F5F5F5F5F5BEBEBEF5F5F5F5F5F5F5F5F5F5F5F5F5F5F5F5F5E2E2F5E2E2EFE2F5E2E2F5F5F5F5F5F5ECECECECECEC282828F528F5F50FF50FF5EC0FF50FF5F50FF5F50FF50FF5ECF50FF50FF5F5EC0FF50FF50FF5F50FF50FF5F5F50FF5F5F5F5F5F5F5F5F5F5F5F5F5F5F5F5F5F5F5F5F5F5F5F5F5F5F5F5F5F5F5F5
310
F5F5F5F5F5F5ECECECECEC2828EC28F5280FF5F50FF50FECF50FF50FF50FF5F50FF50FECF5F50F0FF5F50F0FF5F5F50FF50FF5F50FF5F5F5F5F5F5F5F5F5BEF5F5F5F5F5F5F5F5F5F5F5F5F5F5F5F5F5E2E2F5E2E2EFE2F5E2E2F5F5F5F5F5F5F5F5F5ECECECECEC282828F5F5F50FF50FECF50FF50FF50FF50FF50FF5F5EC
310
0FF50FF5F50FEC0FF5F50FF50FF5F50FF50FF5F50FF5F5F5F5F5F5F5F5F5F5F5F5F5F5F5F5F5F5F5F5F5F5F5F5F5F5F5F5F5F5F5F5F5F5F5F5F5F5F5F5F5ECECECECEC282828F50FF5F50FF50FF5F50FF50F0FF50FF50FF5ECF50F0FF5F50FF50F0FF5F5F50FF50FF50FF5F5F5F5F5F5F5F5F5BEF5F5F5F5F5F5F5F5F5F5F5
310
F5F5F5F5F5F5E2E2F5E2E2EFE2F5E2E2F5F5F5F5F5F5F5F5F5F5F5ECECECECF50F0FF5F5F50FF50FF5F50FF50F0F0FF50FF5F5F5BEF50FF5F50FF5EC0F0FF5F50FF50FF5F50FF50FF50FF5F5F5F5F5F5F5F5F5F5F5F5F5F5F5F5F5F5F5F5F5F5F5F5F5F5F5F5F5F5F5F5F5F5F5F5F5F5F5F5F5F5F5ECECECECF50F0FF50FF5
310
F50FEC0FF5F50FF50F0F0F0FF5F5BE0F0FF5F50FF50F0FF50FF5F5F50FF50F0FF5F5F5F5F5F5F5F5F5BEF5F5F5F5F5F5F5F5F5F5F5F5F5F5F5F5F5E2E2F5E2E2EFE2F5E2E2F5F5BEBEBEBEF5F5F5F5F5F5F5ECECF50FF50FF5F5F50FEC0FF5F50FF50FF50FF5BEBEBEBEBEBEBEBEF50FF50FF50FF5F50FF50FF5F50FF50F0F
310
F5F5F5F5F5F5F5F5F5F5F5F5F5F5F5F5F5F5F5F5F5F5F5F5F5F5F5F5F5F5F5F5BEBEBEF5ECECF5F5F5F5F5F5F5ECECF50FF50FF50FF5F50FF50FF5F50F0F0FF5BEF5BEBEBEBEBEBEBE0FF50F0FF50FF5F5F50FF50FF5F5F5F5F5F5F5F5F5BEF5F5F5F5F5F5F5F5F5F5F5F5F5F5F5F5F5E2E2F5E2E2EFE2F5E2E2F5F5BEF5EC
310
ECF5F5F5F5F5F5F5C3C3C3C30FF50FF5F5F50FF50FF5F50F0F0FF5F5BEBEBEECBEBEBEBE0FF5EC0F0FF50FF5F50FF50FF5F50FF50FF5F5F5F5F5F5F5F5F5F5F5F5F5F5F5F5F5F5F5F5F5F5F5F5F5F5F5F5F5F5F5F5BEBEF5F5ECECF5F5F5F5F5F5ECC3C3C3C3F5F50FF50FF5EC0FF50FF5F50F0FF5BEF5BEBEBEBEBEBEBEF5
310
F50FF50FF50FF5F5F5BEBEF5F5F5BEBEF5F5F5F5BEF5F5F5F5F5F5F5F5F5F5F5F5F5F5F5F5F5E2E2F5E2E2EFE2F5E2E2F5F5BEF5ECECF5F5F5F5F5F5ECC3C3C3C3F50FF50FF5F5F50FF50FF5F50FF5F5F5F5BEBEECBEBEBEBEF5F5EC0FF50FF50FF5F50FF50FF5F50F0FF5F5F5F5F5BEBEBEBEBEBEF5BEBEBEF5BEBEBEBEBE
310
BEF5F5F5F5F5F5F5F5F5F5F5BEF5F5ECECF5F5F5F5F5ECECC3C3C3C3F5F5F50FF50FF5F50FF50FF50FF5F5F5BEBEBEF5BEBEBEBEF5F50FF5F50FF50FF5F5F5BEBEBEBEBEBEF5F5F5F5BEF5F5F5F5F5F5F5F5F5F5F5F5F5F5F5F5F5E2E2F5E2E2EFE2F5E2E2F5F5BEF5ECECF5F5F5F5ECECC3C3C3C3C3F5F50FF50FF5ECF50F
310
F50FF50FF5F5BEBEBEBEECBEBEBEBEF5F5EC0FF5F50FF50FF5F50FF50FF5F50FF5F5F5F5F5BEBEBEBEBEBEBEBEBEBEBEBEBEBEBEBEBEF5F5F5F5F5F5F5F5F5F5F5BEF5F5ECECF5F5F5F5ECECC3C3C3C3C30FF5F5F50FF50FF5F50FF50F0FF50FBEBEBEECF5BEBEBEF5F50F0F0FF5F50FF50FF5F5BEF5BEBEF5BEF5F5F5F5BE
310
BEF5F5F5F5F5F5F5F5F5F5F5F5F5F5F5F5E2E2F5E2E2EFE2F5E2E2F5F5BEF5ECECF5F5F5F5ECC3C3C3C3C3C30FF5F50FF50FECF5F50FF50F0F0F0FF50FF5F5ECF50FF5F5F50FEC0FF5F5F50FF50FF5F50FF50FF50FF5F5F5F5F5BEBEBEF5F5F5F5F5BEF5F5BEBEF5F5F5BEF5F5F5F5F5F5F5F5F5F5F5BEF5F5ECECF5F5F5F5
310
ECC3C3C3C3C3C3F50FF5F5F50FEC0FF5F50FF50F0FF5F50FF5EC0FF50FF5F50F0F0FF50FF5F50FF50F0F0F0F0F0F0FBEF5BEBEBEBEBEF5F5F5F5F5F5F5F5F5F5F5F5F5F5F5F5E2E2F5E2E2EFE2F5E2E2F5F5BEF5ECECF5F5F5F5ECC3C3C3C3C3C3F50FF5F50FF50FF5F5F50FF50FF5F50FF5F50FEC0FF5F5F50F0FEC0F0FF5
310
F5F50FF50FF5F50FF50F0FF5F5F5F5F5BEBEBEBEBEBEBEBEBEBEBEBEBEBEBEBEBEBEBEBEBEBEF5F5F5F5F5F5BEF5F5ECECF5F5F5F5ECC3C3C3C3C3C30FF50FF5F5F50FF50FF5F50F0FF5F50FF5F5ECF50FF5F50F0FF50F0FF50FF5F50FF5F50FF5F50FF5BEF5F5F5F5BEF5F5F5F5F5F5F5F5F5F5F5F5F5F5F5F5F5E2E2F5E2
310
E2EFE2F5E2E2F5F5BEF5ECECF5F5F5F5ECECC3C3C3C3C30FF50FF5F50FEC0FF5F5F50F0F0F0FF5F50FF50FF5F5F50F0FF5F50FF50FF5F5F50FF50FF5F50FF50FF5F5F5F5F5BEBEBEBEBEBEBEBEBEBEBEBEBEBEBEBEBEBEBEBEBEBEF5F5F5F5F5F5BEF5F5ECECF5F5F5F5ECC3C3C3C3C3C3F50FF50FF5F5EC0FF50FF5F50F0F
310
0FF5F50FF50FF5F50F0FF5F50FF50FF50FF5F50F0FF50FF5F50F0FF5F5F5F5F5F5F5F5F5F5F5F5F5F5F5F5F5F5F5F5F5F5E2E2F5E2E2EFE2F5F5E2F5F5BEF5ECECF5F5F5F5F5F5ECC3C3C3C3F50FF50FF5F50FF50FF5F5F50FF5F50F0FF50FECF5F50F0FF5F5EC0F0FF50FF5F5F50FF50FF5F50F0FF5F5F5F5F5BEBEBEF5BE
310
BEBEBEBEF5BEF5F5F5BEF5BEBEF5F5F5F5F5F5F5F5F5F5BEF5F5ECECF5F5F5F5F5ECECC3C3C3C3F5F50FF50FF5ECF50FF50FF50FF5F50F0FF5ECF5F50F0FF5F5F50FF5F50FF50FF5F5F50FF50FF5F50FF5F5F5F5F5F5F5F5F5F5F5F5F5F5F5F5F5F5F5F5F5F5E2F5F5E2E2EFE2F5F5E2F5F5BEF5ECECF5F5F5F5F5F5C3C3C3
310
C3C3F5F50FF50FF5F50FF50FF5F50FF50FF50F0FF5ECF50F0FF5F5F5EC0FF50FF50FF5F5F50FF50FF5F50FF5F5F5F5F5F5BEBEBEBEBEBEBEBEBEBEBEBEBEBEBEBEBEBEBEBEBEBEF5F5F5F5F5BEF5F5ECECF5F5F5F5F5F5C3C3C3C3C30FF5F50FF50FF5F5F50FF50F0FF50FF50F0FECF50F0FF5F5F50F0FF5F5F50FF50FF5F5
310
F50FF50FF50FF5F5F5F5F5F5F5F5F5F5F5F5F5F5F5F5F5F5F5F5F5F5E2F5F5E2E2EFE2F5F5E2F5F5BEF5ECECF5F5F5F5F5F5F5F5F5C3C30FF5F50FF50FECF50FF50FF50F0FF50FF5F5F5EC0F0FF5F5F50FEC0FF5F50FF50FF5F5F50FF50FF50FF5F5F5F5F5BEBEBEBEBEBEBEBEBEBEBEBEBEBEBEBEBEBEBEBEBEBEBEF5F5F5
310
F5F5BEF5F5ECECF5F5F5F5F5F5F5F5C3C3C3F50FF5F50FF50FF5F5F50FF50F0FF50FF5F5EC0F0FF5F5F50FF50F0FF5F5F50FF50FF5F5F50FF50F0FF5F5F5F5F5F5F5F5F5F5F5F5F5F5F5F5F5F5F5F5F5F5E2F5F5E2E2EFE2F5F5E2F5F5BEF5ECECF5F5F5F5F5F5F5F5F5F50FF50FF5F50FF50FF5F50FF50F0FF50FF5F5F50F
310
EC0FF5F5F50FF5EC0F0FF5F50FF50FF5F5F50FF50F0FF5F5F5F5F5BEBEBEBEBEBEBEBEBEF5BEBEBEBEBEBEF5BEBEBEF5BEBEBEBEBEBEF5BEF5F5ECECF5F5F5F5F5F5F5F5F5F50F0FF50FF5F50FEC0FF5F5F50F0FF50FF5F5F5EC0FF5F5F50FF50F0F0F0FF5F5F50FF50FF5F5F50FF50FF5F5F5F5F5F5F5F5F5F5F5F5F5F5F5
310
F5F5F5F5F5F5F5E2F5F5E2E2EFE2F5F5E2F5F5BEF5ECECECECECECECECECECECF50F0FF50FF5F50FEC0FF5F50FF50F0FF5F5F50FF5ECF5F5F50FF50FEC0FF50FF5F50FF50FF5F5F50FF50FF5F5F5F5F5BEBEBEBEBEBEBEBEBEF5BEBEBEBEBEBEF5BEBEBEF5BEBEBEBEBEBEF5BEF5F5ECECECECECECECECECECF5F50FF50FF5
310
0FF5F50FF50FF5F5F50F0FF5F5F50FEC0FF5F50FF50FF50FF50F0FF5F5F50FF50FF5F5F50F0FF5F5F5F5F5F5F5F5F5F5F5F5F5F5F5F5F5F5F5F5F5F5E2F5F5E2E2EFE2F5F5E2F5F5BEF5ECECECECECECECECECEC282828F50FF50FF5F50FF50FF5F50F0FF5F5F50FF50FF5F5F50FF50FF5F50F0FF50FF5F50FF50FF5F5F50F
310
0FF5F5F5F5F5F5BEF5F5BEF5BEF5F5F5F5F5BEF5BEF5F5BEF5F5F5BEBEBEBEF5F5F5BEF5F5ECECECECECECECECECEC282828F5F50FF50FF5EC0FF50FF5F50FF5F5F50FF50FF5F50FF50FF5F50FF5F50F0F0FF5F50FF50FF5F5F50FF5F5F5F5F5F5F5F5F5F5F5F5F5F5F5F5F5F5F5F5F5F5E2F5F5E2E2EFE2F5F5E2F5F5BEF5
310
ECECF5F5F5EC2828282828F528F5F50FF50FF5EC0FF50FF5F50FF5F50FF50FF5ECF50FF50FF5F5EC0FF50FF50FF5F50FF50FF5F5F50FF5F5F5F5F5F5F5F5F5F5F5F5F5F5F5F5F5F5F5F5F5F5F5F5F5F5F5F5F5F5F5F5F5BEF5F5ECECF5F5F5EC2828282828F5280FF5F50FF50FECF50FF50FF50FF5F50FF50FECF50FF50FF5
310
F50F0FF5F5F50FF50FF5F50FF50FF5F50FF5F5F5F5F5F5F5F5F5F5F5F5F5F5F5F5F5F5F5F5F5F5E2F5F5E2E2EFE2F5F5E2F5F5BEF5ECECF5F5F5F528F5F52828F528F5F5F50FF50FF5F50FF50FF50FF50FF50FF5F5EC0FF50FF5F50FEC0FF5F50FF50FF5F50FF50FF5F50FF5F5F5F5F5F5F5F5F5F5F5F5F5F5F5F5F5F5F5F5
310
F5F5F5F5F5F5F5F5F5F5F5F5F5BEF5F5ECECF5F5F5F528F5F52828F528F50FF5F50FF50FF5F50FF50F0FF50FF50FF5EC0FF50FF5F5F50F0F0FF5F5F50FF50FF5F50FF50FF50FF5F5F5F5F5F5F5F5F5F5F5F5F5F5F5F5F5F5F5F5F5F5E2F5F5E2E2EFE2F5E2E2F5F5BEF5ECECF5F5F5F528F5F52828F5280FF5F5F50FF50FF5
310
F50FF50F0F0FF50FF5F50FECF50FF5F50FF5EC0F0FF5F50FF50FF5F50FF50FF50FF5F5F5F5F5F5F5F5F5F5F5F5F5F5F5F5F5F5F5F5F5F5F5F5F5F5F5F5F5F5F5F5F5BEF5F5ECECF5F5F5F528F5F52828F5280FF50FF5F50FEC0FF5F50FF50F0FF50FF5F5ECF50FF5F5F50FF50FF50FF5F5F50FF50FF5F50FF50F0FF5F5F5F5
310
F5F5F5F5F5F5F5F5F5F5F5F5F5F5F5F5F5F5E2E2F5E2E2EFE2F5E2E2F5F5BEF5ECECF5F5F5F528282828282828F50FF5F5F50FEC0FF5F50FF50FF50FF5F50FF5EC0FF50F0F0F0FEC0F0F0F0F0F0F0F0F0F0F0F0F0FF5F5F5F5F5F5F5F5F5F5F5F5F5F5F5F5F5F5F5F5F5F5F5F5F5F5F5F5F5F5F5F5F5F5BEF5F5ECECF5F5F5
310
F528282828282828F50FF50FF5F50FF50FF5F50F0FF50FF5F50FEC0FF5F50F0F0F0F0F0F0F0F0F0F0F0F0F0F0F0F0F0FF5F5F5F5F5F5F5F5F5F5F5F5F5F5F5F5F5F5F5F5F5F5F5E2E2F5E2E2EFE2F5E2E2F5F5BEF5ECECF5F5F5F528F5282828F5280FF50FF5F5F50FF50FF5F50F0F0FF5F50FF50FECF5F50FF5F5F5F5F5F5
310
F5F5F5F5F5F5F5F5F5F5F5F5F5F5F5F5F5F5F5F5F5F5F5F5F5F5F5F5F5F5F5F5F5F5F5F5F5F5F5F5F5F5F5F5F5BEF5F5ECECF5F5F5F52828F52828F5280FF50FF50FF5EC0FF50FF5F50F0FF5F50FF5ECF5F5F50FF5F5F5F5F5F5F5F5F5F5F5F5F5F5F5F5F5F5F5F5F5F5F5F5F5F5F5F5F5F5F5F5F5F5F5F5F5F5F5F5E2E2F5
310
E2E2EFE2F5E2E2F5F5BEF5ECECF5F5F5F528F5282828EC280F0FF50FF5F5EC0FF50FF5F50FF5F50FF50FF5F5F50F0FF5F5F5F5F5F5F5F5F5F5F5F5F5F5F5F5F5F5F5F5F5F5F5F5F5F5F5F5F5F5F5F5F5F5F5F5F5F5F5F5F5F5F5F5F5F5F5F5F5F5F5BEF5F5ECECF5F5F5F52828F52828F5280FF5F50FF50FECF50FF50FF50F
310
F5F50FF50FF5F5F50F0FF5F5F5F5F5F5F5F5F5F5F5F5F5F5F5F5F5F5F5F5F5F5F5F5F5F5F5F5F5F5F5F5F5F5F5F5F5F5F5F5E2E2F5E2E2EFE2F5E2E2F5BEBEF5ECECF5F5F5F528F52828282828F5F50FF50FF5ECF50FF50FF50FF50FF50FF5F5EC0FF50FF5F5F5F5F5F5F5F5F5F5F5F5F5F5F5F5F5F5F5F5F5F5F5F5F5F5F5
310
F5F5F5F5F5F5F5F5F5F5F5F5F5F5F5F5F5F5F5F5F5F5BEBEBEF5F5ECECF5F5F5F5282828282828280FF5F50FF5F50FF5F50FF50F0FF50FF50FF5ECF50FF50FF5F5F5F5F5F5F5F5F5F5F5F5F5F5F5F5F5F5F5F5F5F5F5F5F5F5F5F5F5F5F5F5F5F5F5F5F5F5F5F5E2E2F5E2E2EFE2F5E2E2F5BEBEF5ECECF5F5F5F52828F528
310
28F5280FF5F50FF50FF5F5F50FF50F0F0FF50FF5F5F5ECF50F0FF5F5F5F5F5F5F5F5F5F5F5F5F5F5F5F5F5F5F5F5F5F5F5F5F5F5F5F5F5F5F5F5F5F5F5F5F5F5F5F5F5F5F5F5F5F5F5F5F5BEBEBEF5F5ECECF5F5F5F528F5F52828F5280F0FF5F50FF5F50FF5F50FF50F0FF50FF5F5EC0FF50F0FF5F5F5F5F5F5F5F5F5F5F5
310
F5F5F5F5F5F5F5F5F5F5F5F5F5F5F5F5F5F5F5F5F5F5F5F5F5F5F5F5F5E2E2F5E2E2EFE2F5E2E2F5BEBEF5ECECF5F5F5F528F5F52828F528F50FF5F50FF50FF5F5F50FF50FF50FF5F5F50FEC0FF50FF5F5F5F5F5F5F5F5F5F5F5F5F5F5F5F5F5F5F5F5F5F5F5F5F5F5F5F5F5F5F5F5F5F5F5F5F5F5F5F5F5F5F5F5F5F5F5F5
310
F5BEBEBEF5F5ECECF5F5F5F528F5F52828F528F50F0FF5F50FECF50FF5F50F0FF50FF5F5F5ECF50FF50FF5F5F5F5F5F5F5F5F5F5F5F5F5F5F5F5F5F5F5F5F5F5F5F5F5F5F5F5F5F5F5F5F5F5F5F5F5F5F5F5E2E2F5E2E2EFE2F5E2E2F5F5BEF5ECECF5F5F5EC2828282828F5280FF50FF5F50FEC0FF5F5F50F0F0FF5F50F0F
310
F5ECF5F50FF5F5F5F5F5F5F5F5F5F5F5F5F5F5F5F5F5F5F5F5F5F5F5F5F5F5F5F5F5F5F5F5F5F5F5F5F5F5F5F5F5F5F5F5F5F5F5F5F5F5F5BEF5F5ECECF5F5F5EC2828282828F528F5F50F0FF5F50FF5F50FF5F50F0FF5F50F0FEC0FF5F50FF5F5F5F5F5F5F5F5F5F5F5F5F5F5F5F5F5F5F5F5F5F5F5F5F5F5F5F5F5F5F5F5
310
F5F5F5F5F5F5F5F5E2E2F5E2E2EFE2F5E2E2F5F5BEF5ECECECECECECECECECEC282828F50FF50FF50FC30F0FF5F5F50FF5F50FF5F50FECF50F0FF5F5F5F5F5F5F5F5F5F5F5F5F5F5F5F5F5F5F5F5F5F5F5F5F5F5F5F5F5F5F5F5F5F5F5F5F5F5F5F5F5F5F5F5F5F5F5F5F5F5F5BEF5F5ECECECECECECECECECEC282828F5F5
310
F50F0FC3C30F0FF50FF50FF5F50FF5F5ECF5F50F0FF5F5F5F5F5F5F5F5F5F5F5F5F5F5F5F5F5F5F5F5F5F5F5F5F5F5F5F5F5F5F5F5F5F5F5F5F5F5F5F5E2E2F5E2E2EFE2F5E2E2F5F5BEF5ECECECECECECECECECECECC3C3F5F50FF50FC3C3C3C30FF5F50FF50FF5F50FF5F50FF50FF5F5F5F5F5F5F5F5F5F5F5F5F5F5F5F5
310
F5F5F5F5F5F5F5F5F5F5F5F5F5F5F5F5F5F5F5F5F5F5F5F5F5F5F5F5F5F5F5F5F5F5F5BEF5F5ECECECECECECECECECECECC3C30FF5F5F50FC3C3C30F0FF50F0FF50FF5F50FF5F50FF50FF5F5F5F5F5F5F5F5F5F5F5F5F5F5F5F5F5F5F5F5F5F5F5F5F5F5F5F5F5F5F5F5F5F5F5F5F5F5F5F5E2E2F5E2E2EFE2F5E2E2F5F5BE
310
F5ECECF5F5F5F5F5F5F5ECECF5C30FF5F50FF5C3C3C3C30F0FF50F0FF5F50FF5F5EC0F0F0FF5F5E2E2E2E2E2F5F5E2E2E2E2E2E2F5E2E2E2E2E2E2E2E2E2E2E2E2E2E2E2E2E2E2E2E2E2E2E2F5F5F5F5F5F5F5F5F5F5F5F5BEF5F5ECECF5F5F5F5F5F5F5ECECC3C3F50FF5F5F5C3C3C3C3F50FF50F0FF5F50FF5EC0FF50F0F
310
F5F5F5F5F5F5F5F5F5F5F5F5F5F5F5F5F5F5F5F5F5F5F5F5F5F5F5F5F5F5F5F5F5F5F5F5F5F5F5F5E2E2F5E2E2EFE2F5E2E2F5F5BEF5ECECF5F5F5F5F5F5F5ECECECC3F50FF5F50FC3C3C3C3F50F0F0FF5F50FF5F5F5ECF50F0FF5F5E2E2E2E2F5F5F5E2E2E2E2E2E2F5E2E2E2E2E2E2E2F5E2E2E2E2E2E2E2E2E2E2E2E2E2
310
E2E2F5F5F5F5F5F5F5F5F5F5F5F5BEF5F5ECECF5F5F5F5F5F5F5ECECECC30FF50FF5F5C3C3C3C3F5F50F0FF5F50FF5F5ECF50FF50FF5F5F5F5F5F5F5F5F5F5F5F5F5F5F5F5F5F5F5F5F5F5F5F5F5F5F5F5F5F5F5F5F5F5F5F5F5F5F5F5E2E2F5E2E2EFE2F5E2E2F5F5BEF5ECECF5F5F5F5F5C3C3C3C3C3C30FF50FF5F5C3C3
310
C3C3F50FF50FF50FF5F5F50FEC0F0F0FF5F5E2E2E2E2E2F5F5E2E2E2E2E2E2E2E2E2E2E2E2E2E2E2E2E2E2E2E2E2E2E2E2E2E2E2E2E2E2F5F5F5F5F5F5F5F5F5F5F5F5BEF5F5ECECF5F5F5F5F5C3C3C3C3C3C3F50FF50FF5C3C3C3C30FF5F50FF50FF5F50FEC0FF50F0FF5F5F5F5F5F5F5F5F5F5F5F5F5F5F5F5F5F5F5F5F5
310
F5F5F5F5F5F5F5F5F5F5F5F5F5F5F5F5F5F5F5E2E2F5E2E2EFE2F5E2E2F5F5BEF5ECECF5F5F5F5F5C3C3C3C3C3C3C3C3C3C3C3C3C3C3C3C3C30F0F0F0F0F0F0F0FEC0F0FF5F5F5F5F5E2E2F5F5F5E2E2E2F5F5E2F5E2F5F5F5F5F5E2F5F5F5F5F5F5F5F5E2F5E2F5F5F5F5F5F5F5F5F5F5F5F5F5F5F5F5F5BEF5F5ECECF5F5
310
F5F5F5C3C3C3C3C3C3C3C3C3C3C3C3C3C3C3C3C30F0F0F0F0F0F0FEC0F0F0FF5F5F5F5F5F5F5F5F5F5F5F5F5F5F5F5F5F5F5F5F5F5F5F5F5F5F5F5F5F5F5F5F5F5F5F5F5F5F5F5F5E2E2F5E2E2EFE2F5E2E2F5F5BEF5ECECF5F5F5F5F5F5C3C3C3C3C3C3C3C3C3C3C3C3C3C3F5F5F5F5F5F5F5F5F5F5F5F5F5F5F5F5F5F5F5
310
F5F5F5F5F5F5F5F5F5F5F5F5F5F5F5F5F5F5F5F5F5F5F5F5F5F5F5F5F5F5F5F5E2E2F5F5F5F5F5F5F5F5F5F5F5F5BEF5F5ECECF5F5F5F5F5F5C3C3C3C3C3C3C3C3C3C3C3C3C3C3F5F5F5F5F5F5F5F5F5F5F5F5F5F5F5E2E2E2E2E2F5F5E2E2E2E2E2E2E2E2E2E2E2E2E2E2E2E2E2E2E2E2E2E2E2E2E2E2E2E2E2E2F5F5E2E2
310
F5E2E2EFE2F5E2E2F5F5BEF5ECECF5F5F5F5F5F5F5F5F5F5F5F5F5F5F5F5F5C3C3C3F5F5F5F5F5F5F5F5F5F5F5F5F5F5F5F5E2E2E2E2F5F5E2E2F5F5F5F5F5F5F5E2E2E2E2F5E2E2F5F5E2F5E2E2E2E2E2E2E2E2E2E2E2F5F5F5F5F5F5F5F5F5F5F5F5BEF5F5ECECF5F5F5F5F5F5F5F5F5F5F5F5F5F5F5F5C3C3C3C3F5F5F5
310
F5F5F5F5F5F5F5F5F5F5F5F5E2E2E2E2E2F5F5F5E2E2E2E2E2E2E2F5E2E2E2E2E2E2E2E2E2E2E2E2E2E2E2E2E2E2E2E2E2F5F5E2E2F5E2E2EFE2F5F5E2F5F5BEF5ECECF5F5F5F5F5F5F5F5F5F5F5F5F5F5F5F5F5C3C3C3C3F5F5F5F5F5F5F5F5F5F5F5F5F5F5F5E2E2E2E2F5F5E2E2F5F5E2E2E2F5F5E2E2E2E2F5E2E2F5F5
310
E2F5E2E2E2E2E2E2E2E2E2E2E2F5F5F5F5F5F5F5F5F5F5F5F5BEF5F5ECECF5F5F5F5F5F5F5F5F5F5F5F5F5F5F5F5F5C3C3C3C3F5F5F5F5F5F5F5F5F5F5F5F5F5F5E2E2E2E2E2F5F5E2E2E2E2E2E2E2E2E2F5E2E2E2E2E2E2E2E2E2E2E2E2E2E2E2E2E2E2E2E2F5F5E2F5F5E2E2EFE2F5F5E2F5F5BEF5ECECF5F5F5F5F5F5F5
310
F5F5F5F5F5F5F5F5F5F5C3C3C3C3F5F5F5F5F5F5F5F5F5F5F5F5F5F5F5E2E2E2E2F5F5E2E2F5F5F5F5F5F5F5E2E2E2E2E2E2E2F5F5E2E2E2E2E2E2E2E2E2E2E2E2E2F5F5F5F5F5F5F5F5F5F5F5F5BEF5F5ECECF5F5F5F5F5F5F5F5F5F5F5F5F5F5F5F5F5C3C3C3C3F5F5F5F5F5F5F5F5F5F5F5F5F5F5F5F5F5E2E2F5F5E2E2
310
E2F5F5E2F5E2F5F5F5F5F5E2F5F5F5F5F5F5F5F5E2F5E2F5F5F5F5F5F5F5E2F5F5E2E2EFE2F5F5E2F5F5BEF5ECECF5F5F5F5F5F5F5F5F5F5F5F5F5F5F5F5F5F5C3C3C3F5F5F5F5F5F5F5F5F5F5F5F5F5F5F5E2E2E2E2F5F5E2E2F5F5F5F5F5F5F5F5F5E2F5F5F5F5F5F5E2E2E2E2E2F5F5F5F5F5F5F5F5F5F5F5F5F5F5F5F5
310
F5F5F5F5BEF5F5ECECF5F5F5F5F5F5F5F5F5F5F5F5F5F5F5F5F5F5C3C3C3F5F5F5F5F5F5F5F5F5F5F5F5F5F5F5F5F5F5F5F5F5F5F5F5F5F5F5F5F5F5F5E2E2F5F5F5F5F5F5F5F5F5F5F5F5F5F5F5F5F5F5F5F5E2F5F5E2E2EFE2F5F5E2F5F5BEF5ECECF5F5F5F5F5F5F5ECECECECF5F5F5F5F5F5F5F5F5F5F5F5F5F5F5F5F5
310
F5F5F5F5F5F5F5F5F5F5F5F5F5F5F5F5F5F5F5F5F5F5F5F5F5F5F5F5F5F5F5F5F5F5F5F5F5F5F5F5F5F5F5F5F5F5F5F5F5F5F5F5F5F5F5F5F5BEF5F5ECECF5F5F5F5F5F5ECECECECF5F5F5F5F5F5F5F5F5F5E2E2E2E2F5F5F5E2F5F5F5F5F5F5F5E2E2E2E2F5F5E2F5E2E2E2E2E2E2E2E2E2E2E2F5F5E2F5E2E2E2E2E2E2F5
310
F5F5F5F5F5F5F5F5F5E2F5F5E2E2EFE2F5F5E2F5F5BEF5F5ECECF5F5F5F5F5ECECECECECF5F5F5F5F5F5F5F5F5F5F5F5F5F5F5F5F5F5F5F5F5F5F5F5F5F5F5F5F5F5F5F5F5F5F5F5F5F5F5F5F5F5F5F5F5F5F5F5F5F5F5F5F5F5F5F5F5F5F5F5F5F5F5F5F5F5F5F5F5F5F5F5F5F5BEF5F5ECECECF5F5F5F5F5ECECECECF5F5
310
F5F5F5F5F5F5F5F5F5E2E2E2F5F5F5E2F5F5E2E2E2F5F5E2E2E2E2E2E2E2E2E2E2E2E2E2E2E2E2E2E2E2F5F5E2F5E2E2E2E2E2E2F5F5F5F5F5F5F5F5F5F5E2F5F5E2E2EFE2F5F5E2F5F5BEF5F5ECECECECECF5F5ECECF5ECF5F5E2E2E2E2E2E2E2E2E2E2E2E2E2E2E2E2E2E2E2E2E2E2E2E2E2E2E2E2E2E2E2E2E2E2E2E2E2
310
E2E2E2E2E2E2E2E2E2E2E2E2F5F5F5F5F5F5F5F5F5F5F5F5F5F5F5F5F5F5F5F5F5F5F5F5BEF5F5F5ECECECECF5F5F5ECECF5ECF5F5F5F5F5F5F5F5F5F5E2E2E2E2F5F5E2E2F5F5F5F5F5F5F5E2E2F5E2F5F5E2F5E2E2E2E2E2E2E2E2E2E2E2F5F5E2E2E2E2E2E2E2E2F5F5F5F5F5F5F5F5F5F5E2F5F5E2E2EFE2F5F5E2F5F5
310
BEF5F5F5F5ECECECECECECECF5F5F5F5E2E2E2E2E2E2E2E2E2E2E2E2E2E2E2E2E2E2E2E2E2E2E2E2E2E2E2E2E2E2E2E2E2E2E2E2E2E2E2E2E2E2E2E2E2E2E2E2E2F5F5F5F5F5F5F5F5F5F5F5F5F5F5F5F5F5F5F5F5F5F5F5F5BEF5F5F5F5F5ECECECECECECECF5F5F5F5F5F5F5F5F5F5F5F5E2E2E2E2F5F5F5E2F5F5F5F5F5
310
F5F5E2E2E2E2F5F5E2E2F5E2E2F5F5F5F5F5F5F5F5F5F5E2F5F5F5F5F5F5F5F5F5F5F5F5F5F5F5F5F5E2F5F5E2E2EFE2F5F5E2F5F5BEF5F5F5F5F5F5ECF5ECECECECECECF5E2E2E2E2E2E2E2E2E2E2E2E2E2E2E2E2E2E2E2E2E2E2E2E2E2E2E2E2E2E2E2E2E2E2E2E2E2E2E2E2E2E2E2E2E2E2E2E2E2F5F5F5F5F5F5F5F5F5
310
F5F5F5F5F5F5F5F5F5F5F5F5F5F5F5BEF5F5F5F5F5F5F5ECF5ECECECECECF5F5F5F5F5F5F5F5F5F5F5F5F5F5F5F5F5F5F5F5F5F5F5F5F5F5F5F5F5F5F5F5F5F5F5F5F5F5F5F5F5F5F5F5F5F5F5F5F5F5F5F5F5F5F5F5F5F5F5F5F5F5F5F5E2F5F5E2E2EFE2F5F5E2F5F5BEBEBEBEBEBEBEBEBEBEBEBEBEBEECF5F5F5F5F5F5
310
F5F5F5F5F5F5F5F5F5F5F5F5F5F5F5F5F5F5F5F5F5F5F5F5F5F5F5F5F5F5F5F5F5F5F5F5F5F5F5F5F5F5F5F5F5F5F5F5F5F5F5F5F5F5F5F5F5F5F5F5F5F5F5F5F5F5F5BEBEBEBEBEBEF5F5F5F5F5F5F5ECECECF5F5F5F5F5F5F5F5F5F5F5F5F5F5F5F5F5F5F5F5F5F5F5F5F5F5F5F5F5F5F5F5F5F5F5F5F5F5F5F5F5F5F5F5
310
F5F5F5F5F5F5F5F5F5F5F5F5F5F5F5F5F5F5F5F5E2F5F5E2E2EFE2F5E2E2F5F5BEF5F5F5F5F5F5F5F5F5F5F5F5F5F5F5E2E2E2E2E2E2E2E2E2E2E2E2E2E2E2E2E2E2E2E2E2E2E2E2E2E2E2E2E2E2E2E2E2E2E2E2E2E2E2E2E2E2E2E2E2E2E2E2E2E2E2E2E2E2E2E2E2E2E2E2E2E2E2E2E2E2E2F5F5F5F5F5BEBEF5F5F5F5F5
310
F5F5F5F5F5F5F5F5F5F5F5F5F5F5F5F5F5F5F5F5F5F5F5F5F5F5F5F5F5F5F5F5F5F5F5F5F5F5F5F5F5F5F5F5F5F5F5F5F5F5F5F5F5F5F5F5F5F5F5F5F5F5F5F5F5F5F5F5F5F5F5F5F5E2E2F5E2E2EFE2F5E2E2F5F5F5F5F5F5F5F5F5F5F5F5F5F5F5F5F5F5E2E2E2E2E2E2E2E2E2E2E2E2E2E2E2E2E2E2E2E2E2E2E2E2E2E2
310
E2E2E2E2E2E2E2E2E2E2E2E2E2E2E2E2E2E2E2E2E2E2E2E2E2E2E2E2E2E2E2E2E2E2E2E2E2E2E2E2E2F5F5F5F5F5F5F5F5F5F5F5F5F5F5F5F5F5F5F5F5F5F5F5F5F5F5F5F5F5F5F5F5F5F5F5F5F5F5F5F5F5F5F5F5F5F5F5F5F5F5F5F5F5F5F5F5F5F5F5F5F5F5F5F5F5F5F5F5F5F5F5F5F5F5F5F5F5F5F5F5F5F5F5F5F5E2
310
E2F5E2E2EFE2F5E2E2F5F5F5F5F5F5F5F5F5F5F5F5F5F5F5F5F5F5E2E2E2E2E2E2E2E2E2E2E2E2E2E2E2E2E2E2E2E2E2E2E2E2E2E2E2E2E2E2E2E2E2E2E2E2E2E2E2E2E2E2E2E2E2E2E2E2E2E2E2E2E2E2E2E2E2E2E2E2E2E2E2E2E2E2E2F5F5F5F5F5F5F5F5F5F5F5F5F5F5F5F5F5F5F5F5F5F5F5F5F5F5F5F5F5F5F5F5F5
310
F5F5F5F5F5F5F5F5F5F5F5F5F5F5F5F5F5F5F5F5F5F5F5F5F5F5F5F5F5F5F5F5F5F5F5F5F5F5F5F5F5F5F5F5F5F5F5F5F5F5F5F5E2E2F5E2E2EFE2F5E2E2F5F5F5F5F5F5F5F5F5F5F5F5F5F5F5F5F5F5E2E2E2E2E2E2E2E2E2E2E2E2E2E2E2E2E2E2E2E2E2E2E2E2E2E2E2E2E2E2E2E2E2E2E2E2E2E2E2E2E2E2E2E2E2E2E2
310
E2E2E2E2E2E2E2E2E2E2E2E2E2E2E2E2E2E2E2E2F5F5F5F5F5F5F5F5F5F5F5F5F5F5F5F5F5F5F5F5F5F5F5F5F5F5F5F5F5F5F5F5F5F5F5F5F5F5F5F5F5F5F5F5F5F5F5F5F5F5F5F5F5F5F5F5F5F5F5F5F5F5F5F5F5F5F5F5F5F5F5F5F5F5F5F5F5F5F5F5F5F5F5F5F5E2E2F5E2E2EFE2F5E2E2F5F5F5F5F5F5F5F5F5F5F5F5
310
F5F5F5F5F5F5F5F5F5F5F5F5F5F5F5F5F5F5F5F5F5F5F5F5F5F5F5F5F5F5F5F5F5F5F5F5F5F5F5F5F5F5F5F5F5F5F5F5F5F5F5F5F5F5F5F5F5F5F5F5F5F5F5F5F5F5F5F5F5F5F5F5F5F5F5F5F5F5F5F5F5F5F5F5F5F5F5F5F5F5F5F5F5F5F5F5F5F5F5F5F5F5F5F5F5F5F5F5F5F5F5F5F5F5F5F5F5F5F5F5F5F5F5F5F5F5F5
310
F5F5F5F5F5F5F5F5F5F5F5F5F5F5F5F5F5F5F5F5F5F5F5F5F5F5F5F5F5F5F5E2E2F5E2E2EFE2F5E2E2E2E2E2E2E2E2E2E2E2E2E2E2E2E2E2E2E2E2E2E2E2E2E2E2E2E2E2E2E2E2E2E2E2E2E2E2E2E2E2E2E2E2E2E2E2E2E2E2E2E2E2E2E2E2E2E2E2E2E2E2E2E2E2E2E2E2E2E2E2E2E2E2E2E2E2E2E2E2E2E2E2E2E2E2E2E2
310
E2E2E2E2E2E2E2E2E2E2E2E2E2E2E2E2E2E2E2E2E2E2E2E2E2E2E2E2E2E2E2E2E2E2E2E2E2E2E2E2E2E2E2E2E2E2E2E2E2E2E2E2E2E2E2E2E2E2E2E2E2E2E2E2E2E2E2E2E2E2E2E2E2E2E2E2E2E2E2E2E2E2E2E2E2E2F5E2E2EFE2F5E2F5F5F5F5F5F5F5F5F5F5F5F5F5F5F5F5F5F5F5F5F5F5F5F5F5F5F5F5F5F5F5F5F5F5
310
F5F5F5F5F5F5F5F5F5F5F5F5F5F5F5F5F5F5F5F5F5F5F5F5F5F5F5F5F5F5F5F5F5F5F5F5F5F5F5F5F5F5F5F5F5F5F5F5F5F5F5F5F5F5F5F5F5F5F5F5F5F5F5F5F5F5F5F5F5F5F5F5F5F5F5F5F5F5F5F5F5F5F5F5F5F5F5F5F5F5F5F5F5F5F5F5F5F5F5F5F5F5F5F5F5F5F5F5F5F5F5F5F5F5F5F5F5F5F5F5F5F5F5F5F5F5F5
310
F5F5F5F5F5F5F5F5F5F5F5E2F5E2E2EFE2F5E2E2E2E2E2E2E2E2F5F5F5F5F5F5F5F5F5E2E2E2E2E2E2E2E2E2E2E2E2E2E2E2E2F5F5F5F5F5F5F5F5F5E2E2E2E2E2E2E2E2E2E2E2E2E2E2E2E2F5F5F5F5F5F5F5F5F5E2E2E2E2E2E2E2E2E2E2E2E2E2E2E2E2F5F5F5F5F5F5F5F5E2E2E2E2E2E2E2E2E2E2E2E2E2E2E2E2F5F5
310
F5F5F5F5F5F5F5E2E2E2E2E2E2E2E2E2E2E2E2E2E2E2E2F5F5F5F5F5F5F5F5F5E2E2E2E2E2E2E2E2E2E2E2E2E2E2E2E2F5F5F5F5F5F5F5F5F5E2E2E2E2E2E2E2E2F5E2E2EFE2E2E2E2E2E2E2E2E2E2E2E2E2E2E2E2E2E2E2E2E2E2E2E2E2E2E2E2E2E2E2E2E2E2E2E2E2E2E2E2E2E2E2E2E2E2E2E2E2E2E2E2E2E2E2E2E2E2
310
E2E2E2E2E2E2E2E2E2E2E2E2E2E2E2E2E2E2E2E2E2E2E2E2E2E2E2E2E2E2E2E2E2E2E2E2E2E2E2E2E2E2E2E2E2E2E2E2E2E2E2E2E2E2E2E2E2E2E2E2E2E2E2E2E2E2E2E2E2E2E2E2E2E2E2E2E2E2E2E2E2E2E2E2E2E2E2E2E2E2E2E2E2E2E2E2E2E2E2E2E2E2E2E2E2E2E2E2E2E2E2E2E2E2E2E2E2E2E2E2EFEFE2E2E2E2E2
310
E2E2E2E2E2E2E2E2E2E2E2E2E2E2E2E2E2E2E2E2E2E2E2E2E2E2E2E2E2E2E2E2E2E2E2E2E2E2E2E2E2E2E2E2E2E2E2E2E2E2E2E2E2E2E2E2E2E2E2E2E2E2E2E2E2E2E2E2E2E2E2E2E2E2E2E2E2E2E2E2E2E2E2E2E2E2E2E2E2E2E2E2E2E2E2E2E2E2E2E2E2E2E2E2E2E2E2E2E2E2E2E2E2E2E2E2E2E2E2E2E2E2E2E2E2E2E2
310
E2E2E2E2E2E2E2E2E2E2E2E2E2E2E2E2E2E2E2E2E2E2E2E2E2E2E2E2E2E2E2E2E2E2E2E2E2E2E2E2E2E2E2E2E2E2EFEF
  0
XRECORD
  5
719
102
{ACAD_REACTORS
330
718
102
}
330
718
100
AcDbXrecord
280
     1
102
MATERIAL
148
0.0
149
0.0
149
0.0
 93
        0
 94
       63
282
     0
 72
     1
 77
     1
171
     1
175
     1
179
     1
273
     0
  0
XRECORD
  5
717
102
{ACAD_REACTORS
330
716
102
}
330
716
100
AcDbXrecord
280
     1
102
MATERIAL
148
0.0
149
0.0
149
0.0
 93
        0
 94
       63
282
     0
 72
     1
 77
     1
171
     1
175
     1
179
     1
273
     0
  0
XRECORD
  5
71B
102
{ACAD_REACTORS
330
71A
102
}
330
71A
100
AcDbXrecord
280
     1
102
MATERIAL
148
0.0
149
0.0
149
0.0
 93
        0
 94
       63
282
     0
 72
     1
 77
     1
171
     1
175
     1
179
     1
273
     0
  0
XRECORD
  5
2306
102
{ACAD_REACTORS
330
2305
102
}
330
2305
100
AcDbXrecord
280
     1
102
ACAD_ROUNDTRIP_PRE2007_TABLESTYLE
 90
      512
 91
        0
  1

 92
      512
 93
        0
  2

 94
      512
 95
        0
  3

  0
ENDSEC
  0
EOF
